#TITLE:Joyful Rock (JAKAZiD REMIX);
#SUBTITLE:;
#ARTIST:いきものがかり vs. Daft Punk;
#TITLETRANSLIT:;
#SUBTITLETRANSLIT:;
#ARTISTTRANSLIT:;
#GENRE:;
#CREDIT:;
#BANNER:[ROUND 7] - Joyful Rock (JAKAZiD REMIX).png;
#BACKGROUND:[ROUND 7] - Joyful Rock (JAKAZiD REMIX)-bg.png;
#LYRICSPATH:;
#CDTITLE:;
#MUSIC:[ROUND 7] - Joyful Rock (JAKAZiD REMIX).ogg;
#OFFSET:-8.133;
#SAMPLESTART:23.838;
#SAMPLELENGTH:16.000;
#SELECTABLE:YES;
#BPMS:0.000=120.000;
#STOPS:;
#BGCHANGES:;
#KEYSOUNDS:;

//---------------dance-single - Blank----------------
#NOTES:
     dance-single:
     Blank:
     Hard:
     7:
     0.407,0.348,0.078,0.129,0.202:
0010
0010
0100
0100
,
0001
0000
0000
0000
0001
0000
0000
0000
1000
0000
0000
0000
1000
0002
0000
0000
,
0000
0000
0000
0000
,
0000
0000
0000
0000
,
2003
0000
0000
0000
0000
0000
0000
0000
0000
0000
3010
0000
0000
0100
0000
0000
,
0020
0000
0000
0000
0000
0000
0000
0000
0000
0000
0000
0000
0030
0100
0000
0000
,
0002
0000
0000
0000
0000
0000
0000
0000
0000
0000
1003
0000
0000
0100
0000
0000
,
2000
0000
0000
3010
,
0100
0000
0000
0100
0001
0000
0000
0001
0010
0000
0000
0010
0100
0000
0000
1000
,
0000
0001
0000
0000
0100
0000
0000
0000
0010
0000
1000
0000
0100
0000
0000
0100
,
0010
0000
0000
0010
0001
0000
0000
0001
1000
0000
0000
1000
0010
0000
0000
0100
,
0000
0001
0000
0000
0100
0000
0000
0000
0010
0000
1000
0000
0100
0000
0000
0000
,
0010
0000
0001
0000
0100
0000
0010
0000
0100
0000
0001
0000
1000
0000
0000
0100
,
0000
0010
0001
1000
0010
0100
0001
0000
,
0010
0100
1000
0000
0001
0100
0010
0000
,
1000
0000
0000
1000
0100
0000
0000
0100
0010
0000
0001
0000
1000
0000
0010
0000
,
0100
0000
0000
0000
0001
0000
0000
0000
0010
0000
0100
0000
0000
1000
0000
0000
,
0010
0000
0001
0000
1000
0100
0001
0000
,
0010
0000
0000
0000
0100
0000
0000
0000
1000
0000
0010
0000
0000
0100
0000
0000
,
0001
0000
0010
0000
0100
1000
0002
0003
,
1001
0000
0000
0000
0100
0000
0010
0100
0000
0000
0010
0000
0000
1000
0000
0000
,
0001
0000
0000
0000
0010
0000
0000
0100
0000
0000
0010
0000
0000
0001
0000
0000
,
1000
0000
0000
0000
0010
0000
1000
0010
0000
0000
0100
0000
0000
0001
0000
0000
,
0010
0000
0000
0000
0100
0000
1000
0100
1000
0000
0010
0000
0100
0000
0001
0000
,
0010
0001
0100
0100
0010
0100
0001
0000
,
1000
0100
0010
0100
1000
0001
0100
0000
,
0010
1000
0100
0010
0100
1000
0001
0100
,
0010
0100
0001
0010
0100
1000
0001
0000
,
0001
0000
0100
0010
1000
0001
0010
0000
,
0100
0000
1000
0010
0001
0010
1000
0000
,
0100
0000
0010
0001
0100
0010
0100
0000
,
0001
1000
0100
0010
0100
1000
0001
0000
,
0100
1001
0010
1001
,
0100
1001
0010
1001
,
1000
0110
0001
0110
,
1000
0110
0001
0110
,
1000
0010
0100
0001
0010
0100
1000
0010
,
0200
0000
0001
0301
,
0100
0000
0000
0100
0010
0000
0000
0010
1000
0000
0000
1000
0001
0000
0010
0001
,
0000
0100
0000
0000
0010
0000
0000
0000
1000
0000
0001
0000
1000
0000
0010
0000
,
0100
0000
0000
0100
0001
0000
0000
0001
0010
0000
0000
0010
0100
0000
1000
0010
,
0000
0100
0000
0000
0001
0000
0000
0000
0010
0000
0100
0000
1000
0000
0000
0000
,
0010
0100
0001
0100
0010
1000
0001
0000
,
0001
0010
0100
1000
0010
0100
0010
0000
,
1000
0100
0010
0100
1000
0001
0100
0000
,
0010
0000
0000
0010
1000
0000
0000
1000
0100
0000
0000
0100
0001
0000
0000
0001
,
2000
0000
0000
0000
3010
0000
0100
0000
1000
0000
0010
0000
0000
0100
0000
0000
,
0002
0000
0000
0000
0013
0000
1000
0000
0001
0000
0100
0000
0000
0010
0000
0000
,
0002
0000
0000
0000
0103
0000
1000
0000
0100
0000
0001
0000
0000
0010
0000
0000
,
2000
0000
3010
0001
0100
0010
1000
0000
,
0002
0000
0000
0000
0013
0000
0100
0000
1000
0000
0010
0000
0000
0100
0000
0000
,
0002
0000
0000
0000
1003
0000
0100
0000
1000
0000
0010
0000
0000
0100
0000
0000
,
0002
0000
0000
0000
0013
0000
0100
0000
1000
0000
0001
0000
0000
0100
0000
0000
,
0002
0000
0013
0100
1000
0001
1000
0001
;

//---------------dance-single - Blank----------------
#NOTES:
     dance-single:
     Blank:
     Medium:
     5:
     0.304,0.278,0.069,0.043,0.034:
0010
0010
0010
0000
,
0100
0100
0100
0200
,
0000
0000
0000
0000
,
0000
0000
0300
0000
,
0001
0000
0000
0000
,
1000
0000
0000
0000
,
0100
0000
0000
0000
0000
0010
0000
0000
,
0001
0000
0100
0100
,
0010
0100
0010
0010
,
1000
0000
1000
0000
0001
1000
0001
0000
,
0010
0100
0010
0010
,
0001
0000
0100
0000
0001
1000
0001
0000
,
1000
0000
0010
0000
0100
1000
0100
0000
,
0001
0000
0010
0000
0100
1000
0001
0000
,
0100
0000
0010
0000
1000
0100
1000
0000
,
0101
0000
1100
0000
0001
0100
0010
0000
,
2000
0000
0000
0000
3010
0000
0000
0000
0100
0000
0001
0000
0000
0100
0000
0000
,
0010
0000
1000
0000
0100
1000
0010
0000
,
0100
0000
0000
0000
0001
0000
0000
0000
1000
0000
0100
0000
0000
0010
0000
0000
,
0001
0000
0100
0000
0010
1000
0100
0000
,
0010
0000
0000
0000
0000
0000
0000
0000
0000
0000
1000
0000
0000
0001
0000
0000
,
1000
0000
0010
0001
,
0100
0000
0000
0000
0000
0000
0000
0000
0000
0000
1000
0000
0000
0001
0000
0000
,
1000
0000
0100
0010
,
1000
0000
0100
0000
0010
0001
0100
0000
,
0010
0000
0100
0000
0001
1000
0100
0000
,
0010
0000
0001
0000
0100
0010
0100
0000
,
0001
0010
0110
0110
,
0010
0000
0001
0000
0100
0010
0100
0000
,
0001
0000
0010
0000
0100
1000
0100
0000
,
1000
0000
0001
0000
0100
0010
0100
0000
,
0010
1000
1001
1001
,
0100
0000
0010
0001
0100
0000
0010
1000
,
0100
0000
0001
0100
1000
0000
0020
0000
,
0130
0000
0001
0010
1000
0000
0001
0100
,
0010
0000
0001
0100
0010
0000
2000
0000
,
3001
0010
0001
0010
0100
1000
0100
1000
,
0020
0000
0030
0000
,
1000
0010
1000
1000
,
0001
0000
0010
0000
0100
0010
0100
0000
,
1000
0001
1000
1000
,
0010
0000
0100
0000
0001
0010
0001
0000
,
0100
0000
0010
0000
1000
0001
0010
0000
,
0100
0000
1000
0000
0010
0100
0001
0000
,
1000
0000
0100
0000
0010
0001
0100
0000
,
0010
1000
1001
1001
,
0100
0000
0000
0000
0010
0000
0000
0000
0001
0000
0100
0000
0000
0001
0000
0000
,
0010
0000
0100
0000
1000
0001
0100
0000
,
0010
0000
0000
0000
0100
0000
0000
0000
0001
0000
1000
0000
0000
0100
0000
0000
,
1000
0000
0010
0000
0100
0001
1000
0000
,
0100
0000
0000
0000
0010
0000
0001
0000
0100
0000
0010
0000
0000
0100
0000
0000
,
1000
0000
0100
0001
0010
0100
1000
0000
,
0010
0000
0000
0000
0100
0000
0001
0000
1000
0000
0100
0000
0000
0001
0000
0000
,
0100
0000
1000
0000
0010
0100
0010
0100
;

//---------------dance-single - Blank----------------
#NOTES:
     dance-single:
     Blank:
     Easy:
     2:
     0.145,0.139,0.000,0.017,0.000:
1000
0000
0001
0000
,
1000
0000
0001
0002
,
0000
0000
0000
0000
,
0000
0000
0003
0000
,
1000
0000
0000
0000
,
0010
0000
0000
0000
,
0100
0000
0000
0000
,
0001
0000
0000
0000
,
0010
0000
0001
0000
,
0010
0001
0010
0000
,
0100
0000
1000
0000
,
0100
1000
0100
0000
,
1000
0000
0010
0000
,
0100
0001
1000
0000
,
0100
0000
0010
0000
,
0001
1000
0001
0000
,
0010
0000
0100
1000
,
0100
0000
0000
0010
,
0001
0000
0100
0010
,
0100
0000
0000
0001
,
1000
0000
0000
0000
,
0100
0000
0000
0000
,
0010
0000
0000
0000
,
0001
0000
0000
0000
,
1000
0000
0010
0000
,
0100
0001
0100
0000
,
0010
0000
1000
0000
,
0001
0010
0001
0000
,
0100
0000
0010
0000
,
1000
0100
0010
0001
,
1000
0000
0010
0000
,
0100
0001
1000
0100
,
0010
0000
0001
0000
,
0100
0000
1000
0000
,
0010
0000
0001
0000
,
0100
0000
0010
0000
,
1000
0100
0001
0010
,
2000
0000
0000
0000
,
3100
0000
1000
0000
,
0100
1000
0100
0000
,
0010
0000
0001
0000
,
0010
0001
0010
0000
,
0001
0000
0100
0000
,
0010
0000
1000
0000
,
0001
0000
0010
0000
,
0100
1000
0100
0000
,
0010
0000
0001
0000
,
1000
0000
0010
0000
,
0100
0000
0001
0000
,
0010
0000
0100
0000
,
1000
0000
0001
0000
,
0100
0010
0100
0000
,
0001
0000
0010
0000
,
0100
1000
0001
0100
;
