#TITLE:Heavy Metal Lover (toMOOSE Remix);
#SUBTITLE:;
#ARTIST:Lady Gaga;
#TITLETRANSLIT:;
#SUBTITLETRANSLIT:;
#ARTISTTRANSLIT:;
#GENRE:;
#CREDIT:;
#BANNER:Heavy Metal Love.bn.png;
#BACKGROUND:Heavy Metal Lover.bg.jpg;
#LYRICSPATH:;
#CDTITLE:;
#MUSIC:[ROUND 7] - Heavy Metal Lover (toMOOSE Remix).ogg;
#OFFSET:-0.126;
#SAMPLESTART:29.959;
#SAMPLELENGTH:15.002;
#SELECTABLE:YES;
#DISPLAYBPM:127.985;
#BPMS:0.000=127.985
;
#STOPS:;
#BGCHANGES:;
#KEYSOUNDS:;
#ATTACKS:;

//---------------dance-single - Blank----------------
#NOTES:
     dance-single:
     Blank:
     Hard:
     9:
     0.432,0.567,0.034,0.169,0.241,334.000,4.000,20.000,0.000,0.000,0.000,0.432,0.567,0.034,0.169,0.241,334.000,4.000,20.000,0.000,0.000,0.000:
0000
0000
0000
0000
,
0000
0000
0000
0000
,
0000
0000
0000
0000
,
0000
0000
0000
0000
,
1000
0000
0000
0000
0000
0000
0010
0000
0100
0000
0000
0001
0000
0000
0010
0000
,
0100
0000
0000
0000
0000
0000
1000
0000
0010
0000
0000
0100
0000
0000
0001
0000
,
1000
0000
0000
0100
1000
0000
0010
0000
1000
0100
0000
1000
0100
0000
0010
0000
,
0001
0000
1000
0000
0010
0000
0100
0000
0001
1000
0000
0001
1000
0000
1000
0000
,
0001
0000
0000
0000
0000
0000
0100
0000
0010
0000
0000
1000
0000
0000
0100
0000
,
0010
0000
0000
0000
0000
0000
0001
0000
0100
0000
0000
0010
0000
0000
1000
0000
,
0001
0000
0000
0100
0010
0000
1000
0000
0100
0010
0000
0100
0010
0000
0001
0000
,
0010
0000
0001
0000
0100
0000
0010
0000
1000
0100
0000
1000
0100
0000
1000
0000
,
0002
0010
0203
1000
,
0302
0000
0013
0000
1000
0010
0001
0010
,
1000
0000
0000
0001
0010
0000
0001
0000
0010
0001
0000
0010
0001
0000
0001
0000
,
1000
0000
0100
0000
0010
0000
0001
0000
1000
0100
0000
1000
0100
0000
1000
0000
,
0002
0010
2003
0100
,
3002
0000
0013
0000
0010
0100
0010
0001
,
0010
0000
0000
0010
0100
0000
1000
0000
0010
0100
0000
0010
0100
0000
0001
0000
,
1000
0000
0010
0000
0100
0000
0001
0000
2000
0000
3000
0000
0100
1000
0100
1000
,
0001
0000
0000
0000
1000
0000
0010
0000
0001
0000
0000
0000
1000
0000
0100
0001
,
1000
0000
1000
0010
0100
0001
0100
0010
,
1000
0000
0001
0010
1000
0000
0001
0100
,
1000
0000
0010
1000
0001
0001
1000
1000
,
1001
0000
0000
0000
1000
0000
0010
0000
0001
0000
0000
0000
1000
0000
0100
0001
,
1000
0000
1000
0010
0100
0001
0010
0001
,
1000
0000
0001
0100
1000
0000
0001
0010
,
1000
0000
0010
1000
0100
0100
0010
0010
,
0210
0000
0000
0000
,
0002
0000
0000
0300
,
2000
0000
0000
0003
,
0020
0000
0000
3000
,
1030
0100
0010
0001
0010
0100
1000
0100
0010
0001
0000
0000
,
1000
0010
0100
0001
0100
0010
1000
0010
0100
0001
0000
0000
,
1000
0001
0100
0010
1000
0001
0100
0010
1000
0001
0000
0000
,
1000
0000
1000
0000
1000
0000
1000
0000
1000
0100
0010
0001
1000
0100
0010
0001
,
2000
0000
0000
0000
,
3001
0000
0010
0000
,
0100
0000
1000
0000
,
1000
0000
0000
1000
0010
0000
0000
0000
0100
0000
0000
0100
0001
0000
0000
0000
,
0010
0000
0000
0010
0100
0000
1000
0000
0001
0000
0000
0001
1000
0000
0000
0000
,
0100
0000
0001
0000
,
0100
0000
1000
0000
,
2000
0000
0000
0010
0000
0000
0100
0000
3020
0000
0000
1000
0000
0000
0000
0000
,
0230
0000
0000
0001
0000
0000
0010
0000
0002
0000
0000
0000
0303
0000
0000
0000
,
1000
0000
0000
0000
0001
0000
0010
0000
1000
0000
0000
0000
0001
0000
0100
1000
,
0001
0000
0100
0010
0100
0001
0010
0100
,
1000
0000
1000
0100
0001
0000
1000
0010
,
0001
0000
0001
1000
0010
0010
0100
0100
,
0110
0000
0000
0000
1000
0000
0010
0000
0100
0000
0000
0000
1000
0000
0100
0010
,
1000
0000
0001
0100
0010
0001
0010
0100
,
0001
0000
1000
0010
0001
0000
1000
0100
,
0001
0000
0100
0010
1000
1000
0001
0001
,
2000
0100
0000
0010
0000
0001
0000
0001
,
0000
0100
0000
0010
0000
0001
0000
3001
,
0200
0010
0000
1000
0000
0001
0000
0001
,
0000
1000
0000
0010
0000
1000
0000
1300
,
0020
0100
0000
0001
0000
1000
0000
1000
,
0000
0001
0000
0100
0000
1000
0000
1030
,
0002
0100
0000
0010
0000
1000
0000
1000
,
0000
0010
0000
0100
0000
1000
0000
1003
,
1001
0000
0000
0000
;

//---------------dance-single - Blank----------------
#NOTES:
     dance-single:
     Blank:
     Medium:
     5:
     0.265,0.412,0.000,0.338,0.000,180.000,0.000,40.000,0.000,0.000,0.000,0.265,0.412,0.000,0.338,0.000,180.000,0.000,40.000,0.000,0.000,0.000:
0000
0000
0000
0000
,
0000
0000
0000
0000
,
0000
0000
0000
0000
,
0000
0000
0000
0000
,
1000
0100
0010
0001
,
0100
0010
1000
0000
,
0001
0000
0000
0001
1000
0000
0000
0000
,
1000
0000
0000
1000
0010
0000
0000
0000
,
0010
0100
0001
0010
,
0100
1000
0010
0100
,
0001
0000
0000
0010
0001
0000
0000
0000
,
0100
0000
0000
0100
0010
0000
0100
0000
,
0010
1000
0100
1000
,
0100
1000
0100
1000
,
0020
0000
0000
0000
,
0230
0000
0000
0000
,
0301
0010
0001
0010
,
0001
0010
0001
0010
,
0002
0000
0000
0000
,
0203
0000
0000
0300
,
0001
0000
0000
0100
0010
0000
0000
0100
,
0010
0000
0000
1000
0010
0000
0010
0000
,
1000
0000
0000
0100
0010
0000
0000
0001
,
1000
0000
0000
0010
0100
0000
0010
0000
,
1000
0000
0000
0100
0010
0000
0000
0001
,
1000
0000
0000
0010
0100
0000
0001
0000
,
0100
0000
0000
0001
0010
0000
0000
0100
,
1000
0000
0000
0010
0100
0000
0100
0000
,
0010
0000
0000
0000
,
0100
0000
0000
0000
,
0001
0000
0000
0000
,
1000
0000
0000
0000
,
0100
1000
0100
2000
,
3010
0100
0010
0100
,
0001
0010
0001
0010
,
0001
1000
0001
1000
0002
0000
0000
0000
,
0020
0000
0000
0000
,
0033
0000
0000
0000
,
0000
0000
0000
0000
,
1000
0000
0000
1000
0100
0000
0000
0000
,
0100
0000
0000
0010
0001
0000
0000
0000
,
0000
0000
0000
0000
,
0000
0000
0000
0000
,
0100
0000
0000
0001
1000
0000
0010
0000
,
0100
0000
0000
0001
0020
0000
0030
0000
,
0100
0000
0000
1000
0001
0000
0000
0010
,
0001
0000
0000
0100
0001
0000
0010
0000
,
1000
0000
0000
0001
0100
0000
0000
1000
,
0010
0000
0000
0100
0001
0000
0100
0000
,
0001
0000
0000
0100
0010
0000
0000
1000
,
0010
0000
0000
1000
0010
0000
0100
0000
,
0001
0000
0000
0100
0010
0000
0000
0010
,
1000
0000
0000
0100
0010
0000
0001
0000
,
0000
0002
0003
2000
3000
0020
0030
0200
,
0300
0002
0003
2000
3000
0020
0030
0020
,
0030
2000
3000
0002
0003
0200
0300
0020
,
0030
2000
3000
0002
0003
0200
0300
0200
,
0300
0020
0030
0200
0300
0002
0003
2000
,
3000
0020
0030
0200
0300
0002
0003
0002
,
0003
0200
0300
0020
0030
2000
3000
0002
,
0003
0200
0300
0020
0030
2000
3000
2000
,
3001
0000
0000
0000
;

//---------------dance-single - Blank----------------
#NOTES:
     dance-single:
     Blank:
     Challenge:
     12:
     0.543,0.721,0.093,0.363,0.545,396.000,11.000,43.000,91.000,0.000,0.000,0.543,0.721,0.093,0.363,0.545,396.000,11.000,43.000,91.000,0.000,0.000: // measure 0
0000
0000
0000
0000
,  // measure 1
0000
0000
0000
0000
,  // measure 2
0000
0000
0000
0000
,  // measure 3
0000
0000
0000
0000
,  // measure 4
0001
0000
0000
1000
0100
0000
1000
0000
0001
0000
0000
0001
0000
0000
0001
0000
,  // measure 5
1000
0000
0000
0001
0010
0000
0001
0000
1000
0000
0010
0100
0010
0000
0100
0000
,  // measure 6
0001
0000
0000
0100
0010
0000
1000
0000
0010
0000
0000
0010
0000
0000
0010
0000
,  // measure 7
0100
0000
0001
0010
0001
0000
0100
0000
0010
0000
1000
0000
1001
0000
MMMM
0000
,  // measure 8
0100
0000
0000
0010
1000
0000
0010
0000
0100
0000
0000
0100
0000
0000
0100
0000
,  // measure 9
0010
0000
0000
1000
0100
0000
1000
0000
0001
0000
0100
0010
0100
0000
0001
0000
,  // measure 10
1000
0000
0000
0100
0010
0000
0001
0000
1000
0000
0000
1000
0000
0000
1000
0000
,  // measure 11
0100
0000
1000
0010
1000
0000
0010
0000
0100
0000
0001
0000
0101
0000
MMMM
0000
,  // measure 12
1000
0000
0000
1000
0100
0000
0010
0000
0100
0000
0000
0100
0010
0000
0001
0000
,  // measure 13
0010
0000
0000
0010
0001
0000
1000
0000
0001
0000
0000
0001
1000
0000
0100
0000
,  // measure 14
1000
0000
0000
0010
0100
0000
0010
0000
1000
0000
1000
0000
1000
0000
1000
0000
,  // measure 15
0010
0000
0100
0010
0100
0000
0001
0000
1000
0100
0010
0001
1000
0000
0000
0000
,  // measure 16
0001
0000
0000
0001
0010
0000
0100
0000
0010
0000
0000
0010
0100
0000
1000
0000
,  // measure 17
0100
0000
0000
0100
1000
0000
0001
0000
0100
0000
0000
0100
0001
0000
1000
0000
,  // measure 18
0010
0000
0000
0100
0001
0000
1000
0000
1000
0000
1000
0000
1000
0000
1000
0000
,  // measure 19
0001
0000
0100
0010
0100
0000
0001
0000
1000
0100
0010
0001
1000
0001
1000
0001
,  // measure 20
1000
0000
0010
0100
0010
0000
0100
0000
0001
0000
0000
0000
0000
0000
0010
0001
,  // measure 21
0010
0000
0000
0000
0000
0000
0000
0000
0000
0000
0000
0000
0100
0000
0000
1000
0000
0000
0000
0000
0000
1000
0000
0000
0000
0000
0000
0000
0MM0
0000
0000
0000
M00M
0000
0000
0000
0010
0000
0000
0100
0000
0000
0000
0000
0000
0100
0000
0000
,  // measure 22
0000
0000
1001
0000
1000
0100
0010
0001
,  // measure 23
20MM
3100
MM02
0013
,  // measure 24
0001
0000
0010
0100
0010
0000
0100
0000
1000
0000
0000
0000
0000
0000
0100
1000
,  // measure 25
0100
0000
0000
0000
0000
0000
0000
0000
0000
0000
0000
0000
0010
0000
0000
0001
0000
0000
0000
0000
0000
0001
0000
0000
0000
0000
0000
0000
M00M
0000
0000
0000
0MM0
0000
0000
0000
1000
0000
0000
0010
0000
0000
0000
0000
0000
0010
0000
0000
,  // measure 26
0000
0000
1001
0000
0001
0100
0010
1000
,  // measure 27
MM02
1003
02MM
0310
,  // measure 28
200M
0M00
000M
00M0
000M
0M00
000M
00M0
000M
0M00
0000
000M
,  // measure 29
0M20
000M
0M00
000M
0M00
000M
0M00
000M
0M00
300M
000M
000M
,  // measure 30
020M
000M
M000
000M
M000
000M
M000
000M
M000
M030
0000
M000
,  // measure 31
M002
00M0
M000
00M0
M000
00M0
M000
00M0
M000
M3M0
0000
0000
,  // measure 32
1003
0100
0001
0100
1000
0100
0001
0100
1000
0200
0000
0310
,  // measure 33
1000
0010
0001
0010
1000
0010
0001
0010
1000
0020
0000
0031
,  // measure 34
0100
0010
0100
0001
0100
0010
0100
0001
0100
0020
0000
0130
,  // measure 35
1010
0000
1001
0000
0011
0000
1001
0000
1000
0001
1000
0001
1000
0001
1000
0001
,  // measure 36
0200
0000
0000
0000
,  // measure 37
0301
0000
0001
1000
0001
0000
0000
0001
,  // measure 38
0001
0000
0000
0000
1000
0000
0000
1000
0000
0000
0001
0000
0001
0000
0000
0001
,  // measure 39
0000
0000
0000
1000
0100
0000
0010
0000
0100
0000
0000
0010
0100
0000
1000
0000
,  // measure 40
0010
0000
0000
0100
0010
0000
1000
0000
0001
0000
0001
0000
0001
0000
0001
0000
,  // measure 41
MMMM
0000
0010
0100
0010
0000
0000
0100
,  // measure 42
0100
0000
0000
0000
0010
0000
0000
0010
0000
0000
0100
0000
0100
0000
0000
0100
,  // measure 43
0000
0000
0000
0001
0010
0000
0100
0000
0010
0000
0000
0100
0010
0000
0001
0000
,  // measure 44
0100
0000
0000
0000
0000
0000
0000
0000
0000
0001
0000
0000
0100
0000
0000
0000
0000
0000
0010
0000
0000
0000
0000
0000
1000
0000
0000
0000
0000
0000
1000
0000
0000
0000
0000
0000
2001
0000
0000
0000
0000
0000
3000
0000
MMMM
0000
0000
0000
,  // measure 45
1000
0000
0010
0100
0010
0000
0100
0000
0001
0000
0000
0000
0000
0000
0010
0001
,  // measure 46
0010
0000
0000
0000
0000
0000
0000
0000
0000
0000
0000
0000
0001
0000
0000
0100
0000
0000
0000
0000
0000
0100
0000
0000
0000
0000
0000
0000
M00M
0000
0000
0000
0MM0
0000
0000
0000
0001
0000
0000
0010
0000
0000
0000
0000
0000
0010
0000
0000
,  // measure 47
0000
0000
1001
0000
1000
0010
0001
1000
,  // measure 48
M20M
0301
20MM
3010
,  // measure 49
0001
0000
0100
0010
0100
0000
0010
0000
1000
0000
0000
0000
0000
0000
0100
1000
,  // measure 50
0100
0000
0000
0000
0000
0000
0000
0000
0000
0000
0000
0000
1000
0000
0000
0010
0000
0000
0000
0000
0000
0010
0000
0000
0000
0000
0000
0000
0MM0
0000
0000
0000
M00M
0000
0000
0000
0100
0000
0000
0001
0000
0000
0000
0000
0000
0001
0000
0000
,  // measure 51
0000
0000
1001
0000
0001
0100
1000
0001
,  // measure 52
M02M
0000
1030
0000
0100
1000
0010
0100
,  // measure 53
0001
0020
0031
0020
0031
0200
0301
0200
,  // measure 54
0301
0020
0031
0020
0031
0100
1000
0010
,  // measure 55
0001
0200
0301
0200
0301
2000
3001
2000
,  // measure 56
3001
0020
0031
0020
0031
0200
0310
2000
,  // measure 57
3100
2000
3100
2000
3100
0020
0130
0020
,  // measure 58
0130
2000
3100
2000
3100
0001
0010
1000
,  // measure 59
0100
0002
0103
0002
0103
2000
3100
2000
,  // measure 60
3100
0000
0020
0000
0130
0000
0020
0000
0130
0000
0000
1000
0010
0000
0200
0000
,  // measure 61
0301
0000
0000
0000
;

//---------------dance-single - Blank----------------
#NOTES:
     dance-single:
     Blank:
     Easy:
     3:
     0.196,0.232,0.084,0.194,0.000,129.000,10.000,23.000,0.000,0.000,0.000,0.196,0.232,0.084,0.194,0.000,129.000,10.000,23.000,0.000,0.000,0.000:
0000
0000
0000
0000
,
0000
0000
0000
0000
,
0000
0000
0000
0000
,
0000
0000
0000
0000
,
0001
0000
1000
0100
,
0001
0000
1000
0010
,
0001
0000
1000
0010
,
0001
0000
1000
0100
,
0001
0000
0100
0010
,
1000
0000
1000
0010
,
0100
0000
0010
0100
,
0001
0000
0001
0100
,
0010
0000
0010
0000
,
1000
0000
1000
0000
,
0001
0000
0001
0000
,
0100
0000
0100
0000
,
0001
0000
0001
0000
,
0010
0000
0010
0000
,
0100
0000
0100
0000
,
2000
0000
3000
0000
,
0100
0100
1000
0000
,
0001
1000
1001
0000
,
0010
0010
0100
0000
,
0100
0010
0110
0000
,
0001
0001
1000
0000
,
0001
0100
0101
0000
,
0010
0010
0100
0000
,
0010
1000
1010
0000
,
1000
0000
0000
0000
,
1000
0000
0000
0000
,
0001
0000
0000
0000
,
0001
0000
0000
0000
,
2000
0000
3000
1000
,
0200
0000
0300
0100
,
0020
0000
0030
0010
,
0002
0000
0000
0000
,
2000
0000
0000
0000
,
3003
0000
0000
0000
,
0000
0000
0000
0000
,
0001
0000
0100
0000
,
0010
1000
1000
0001
,
0001
0000
0000
0000
,
0000
0000
0000
0000
,
1000
0000
0001
0000
,
1000
0001
2002
3003
,
1000
1000
0100
0000
,
0010
0100
0110
0000
,
0010
0010
0001
0000
,
1000
0010
1010
0000
,
0001
0001
0010
0000
,
0001
1000
1001
0000
,
0100
0100
1000
0000
,
0010
0100
0110
0000
,
2000
3000
0200
0300
,
0020
0030
0002
0003
,
0200
0300
0020
0030
,
2000
3000
0002
0003
,
2000
3000
0020
0030
,
0200
0300
0002
0003
,
0200
0300
0020
0030
,
2000
3000
0100
0010
,
1001
0000
0000
0000
;

//---------------dance-single - FREEZE SPECIAL----------------
#NOTES:
     dance-single:
     FREEZE SPECIAL:
     Edit:
     9:
     0.321,0.386,0.068,0.431,0.084,207.000,8.000,51.000,0.000,0.000,0.000,0.321,0.386,0.068,0.431,0.084,207.000,8.000,51.000,0.000,0.000,0.000: // measure 0
0000
0000
0000
0000
,  // measure 1
0000
0000
0000
0000
,  // measure 2
0000
0000
0000
0000
,  // measure 3
0000
0000
0000
0000
,  // measure 4
2000
0000
0000
0000
,  // measure 5
3200
0000
0000
0000
,  // measure 6
0302
0000
0000
0000
,  // measure 7
0023
0000
0000
0000
,  // measure 8
2030
0000
0000
0000
,  // measure 9
3020
0000
0000
0000
,  // measure 10
0230
0000
0000
0000
,  // measure 11
0320
0000
0000
0000
,  // measure 12
2030
0000
3020
0000
,  // measure 13
0230
0000
0302
0000
,  // measure 14
0023
0000
2030
0000
,  // measure 15
3200
0000
0302
0000
,  // measure 16
0023
0000
2030
0000
,  // measure 17
3020
0000
0032
0000
,  // measure 18
0203
0000
2300
0000
,  // measure 19
3020
0000
0032
0000
,  // measure 20
0103
0000
0001
1000
0001
0000
0010
0000
0100
0000
0000
0000
0000
0000
1000
0000
,  // measure 21
0010
0000
0000
0200
0000
0000
0010
0000
0300
0000
1000
0000
0010
0000
0000
0200
,  // measure 22
0000
0000
0300
0000
0001
1000
0100
0010
,  // measure 23
0002
0000
1000
1000
1003
0000
1001
0000
,  // measure 24
0100
0000
0010
0100
0010
0000
1000
0000
0100
0000
0000
0000
0000
0000
0010
0000
,  // measure 25
0001
0000
0000
0200
0000
0000
0001
0000
0300
0000
0010
0000
0001
0000
0000
0200
,  // measure 26
0000
0000
0300
0000
0001
1000
0010
0100
,  // measure 27
0002
0000
0100
0100
0103
0000
1001
0000
,  // measure 28
2000
0000
0100
0000
,  // measure 29
3200
0000
0001
0000
,  // measure 30
0302
0000
0010
0000
,  // measure 31
0023
0000
1000
0000
,  // measure 32
2030
0000
0000
0000
0100
0100
0100
0000
,  // measure 33
3002
0000
0000
0000
0010
0010
0010
0000
,  // measure 34
0203
0000
0000
0000
0010
0010
0010
0300
,  // measure 35
0110
0110
0110
0100
0002
0000
0000
0000
,  // measure 36
2000
0000
0000
0000
,  // measure 37
3003
0000
0000
0100
1000
0000
0000
0010
,  // measure 38
1000
0000
0000
0000
0100
0010
0000
0010
0000
0000
0000
0000
1000
0010
0000
0020
,  // measure 39
0000
0001
1000
0001
,  // measure 40
0100
0001
1000
0200
,  // measure 41
0330
0000
0000
0100
0010
0000
0000
1000
,  // measure 42
0010
0000
0000
0000
1000
0010
0000
0010
0000
0000
0000
0000
0100
0001
0000
0002
,  // measure 43
0000
0010
0100
0010
,  // measure 44
1000
0000
0010
0000
0100
0000
0020
0033
,  // measure 45
1000
0000
0001
0100
0001
0000
1000
0000
0010
0000
0000
0000
0000
0000
0010
0000
,  // measure 46
0100
0000
0000
0002
0000
0000
0100
0000
0003
0000
0010
0000
0100
0000
0000
0002
,  // measure 47
0000
0000
0003
0000
0010
0001
0100
0010
,  // measure 48
2000
0000
0001
0001
3001
0000
1001
0000
,  // measure 49
0001
0000
1000
0010
1000
0000
0001
0000
0100
0000
0000
0000
0000
0000
0100
0000
,  // measure 50
0010
0000
0000
2000
0000
0000
0010
0000
3000
0000
0100
0000
0010
0000
0000
2000
,  // measure 51
0000
0000
3000
0000
0100
1000
0010
0100
,  // measure 52
0002
0000
1000
1000
1003
0000
1001
0000
,  // measure 53
2000
0100
0000
0100
0000
0010
0000
0010
,  // measure 54
0000
0100
0000
0100
0000
0001
0000
0001
,  // measure 55
0000
0100
0000
0100
0000
0010
0000
0010
,  // measure 56
0000
0100
0000
0100
0000
0001
0000
3001
,  // measure 57
0200
0010
0000
0010
0000
0001
0000
0001
,  // measure 58
0000
0010
0000
0010
0000
1000
0000
1000
,  // measure 59
0000
0010
0000
0010
0000
0001
0000
0001
,  // measure 60
0000
0010
0000
0010
0000
1000
0000
1300
,  // measure 61
0110
0000
0000
0000
;
