#VERSION:0.81;
#TITLE:Hands Off!!!;
#SUBTITLE:;
#ARTIST:Azu;
#TITLETRANSLIT:;
#SUBTITLETRANSLIT:;
#ARTISTTRANSLIT:;
#GENRE:;
#ORIGIN:;
#CREDIT:;
#BANNER:[ROUND 7] - Hands Off!!!.png;
#BACKGROUND:[ROUND 7] - Hands Off!!!-bg.png;
#PREVIEWVID:;
#JACKET:;
#CDIMAGE:;
#DISCIMAGE:;
#LYRICSPATH:;
#CDTITLE:cdtitle.png;
#MUSIC:[ROUND 7] - Hands Off!!!.mp3;
#OFFSET:-2.600;
#SAMPLESTART:48.714;
#SAMPLELENGTH:16.134;
#SELECTABLE:YES;
#BPMS:0.000=119.000;
#STOPS:;
#DELAYS:;
#WARPS:;
#TIMESIGNATURES:0.000=4=4;
#TICKCOUNTS:0.000=4;
#COMBOS:0.000=1;
#SPEEDS:0.000=1.000=0.000=0;
#SCROLLS:0.000=1.000;
#FAKES:;
#LABELS:0.000=Song Start;
#BGCHANGES:2.500=blackhole1.avi=0.000=1=0=1===CrossFade==,
4.000=blackhole1.avi=0.500=0=0=1=====,
10.000=blackhole1.avi=1.000=0=0=1=====,
12.000=dance10.avi=1.000=0=0=1=====,
20.000=cyber1.avi=1.000=0=0=1=====,
26.000=blackhole1.avi=1.200=0=1=1=StretchRewind====,
28.000=dance12.avi=1.000=0=0=1=====,
44.500=dance13.avi=1.000=0=0=1=====,
51.500=dance14.avi=0.900=0=0=1=====,
60.000=discoball1.avi=1.000=0=0=1=====,
67.000=discoball1.avi=0.800=0=0=1=====,
67.250=discoball1.avi=0.600=0=0=1=====,
67.500=discoball1.avi=0.500=0=0=1=====,
67.750=discoball1.avi=0.200=0=0=1=====,
68.000=discoball1r.avi=1.000=1=0=1===CrossFade==,
68.500=discoball1r.avi=0.200=0=0=1=====,
68.750=discoball1r.avi=0.500=0=0=1=====,
69.000=discoball1r.avi=0.700=0=0=1=====,
69.250=discoball1r.avi=0.900=0=0=1=====,
69.500=discoball1r.avi=1.000=0=0=1=====,
76.000=film5.avi=0.800=0=0=1=====,
90.000=blackhole1.avi=1.200=0=1=1=StretchRewind====,
92.000=lines1.avi=1.000=0=0=1=====,
100.000=lines2.avi=1.000=0=0=1=====,
108.000=rain3.avi=0.800=0=0=1=====,
116.000=rain2.avi=1.000=0=0=1=====,
124.000=dance13.avi=1.000=0=0=1=====,
131.500=dance14.avi=1.000=0=0=1=====,
139.500=[ROUND 7] - Hands Off!!!-bg.png=1.000=0=0=1=====,
99999=-nosongbg-=1.000=0=0=0 // don't automatically add -songbackground-
;
#KEYSOUNDS:;
#ATTACKS:
;

//---------------dance-single - Rygon----------------
#NOTEDATA:;
#CHARTNAME:X-2;
#STEPSTYPE:dance-single;
#DESCRIPTION:Rygon;
#CHARTSTYLE:;
#DIFFICULTY:Beginner;
#METER:1;
#RADARVALUES:0.141,0.166,0.068,0.122,0.000,59.000,5.000,9.000,0.000,0.000,0.000,0.000,0.000,0.141,0.166,0.068,0.122,0.000,59.000,5.000,9.000,0.000,0.000,0.000,0.000,0.000;
#CREDIT:Rygon;
#NOTES:
0000
0000
0000
0000
,
1001
0000
0000
0000
,
0000
0000
0000
0000
,
1000
0000
1000
0000
,
0001
0000
0000
0000
,
0001
0000
0001
0000
,
1000
0000
0000
0000
,
1000
0000
0000
0000
,
0010
0000
0000
0000
,
0001
0000
0000
0000
,
0100
0000
0000
0000
,
1000
0000
0000
0000
,
0100
0000
0000
0000
,
0001
0000
0000
0000
,
0010
0000
0000
0000
,
2000
3000
1000
0000
,
0200
0300
0100
0000
,
0002
0003
0001
0000
,
0020
0030
0010
0000
,
2000
3000
1000
0000
,
0020
0030
0010
0000
,
0002
0003
0001
0000
,
0200
0300
0100
0000
,
1001
0000
1000
1000
,
1000
0000
0001
0000
,
1001
0000
0001
0001
,
0001
0000
1000
0000
,
0110
0000
0010
0010
,
0010
0000
0100
0000
,
0110
0000
0100
0100
,
0100
0000
0010
0000
,
1000
0000
0100
0000
,
0001
0000
0010
0000
,
1000
0000
0010
0000
,
0001
0000
0000
0000
0200
0000
0000
0300
;

//---------------dance-single - Rygon----------------
#NOTEDATA:;
#CHARTNAME:X-3;
#STEPSTYPE:dance-single;
#DESCRIPTION:Rygon;
#CHARTSTYLE:;
#DIFFICULTY:Easy;
#METER:2;
#RADARVALUES:0.203,0.189,0.068,0.149,0.000,89.000,5.000,11.000,0.000,0.000,0.000,0.000,0.000,0.203,0.189,0.068,0.149,0.000,89.000,5.000,11.000,0.000,0.000,0.000,0.000,0.000;
#CREDIT:Rygon;
#NOTES:
0000
0000
0000
0000
,
2002
0000
0000
0000
,
3003
0000
0000
0000
,
0001
0100
0001
0000
,
1000
0000
0001
0000
,
1000
0100
1000
0000
,
0001
0000
1000
0000
,
0001
0001
0100
0000
,
0100
0000
1000
0000
,
1000
0010
0010
0000
,
0010
0000
0001
0000
,
0001
0001
0010
0000
,
0010
0000
1000
0000
,
1000
0100
0100
0000
,
0100
0000
0001
0000
,
0002
0003
0001
0010
,
0020
0030
0010
1000
,
2000
3000
1000
0100
,
0200
0300
0100
0001
,
0002
0003
0001
0100
,
0200
0300
0100
1000
,
2000
3000
1000
0010
,
0020
0030
0010
0000
,
1001
0000
0001
1000
,
0001
0000
1000
0001
,
1001
0000
1000
0001
,
1000
0000
0001
1000
,
0110
0000
0100
0010
,
0100
0000
0010
0100
,
0110
0000
0010
0100
,
0010
0000
0100
0000
,
0001
0010
1000
0000
,
1000
0100
0001
0000
,
0001
0100
1000
0000
,
1000
0000
0010
0000
0002
0000
0000
0003
;

//---------------dance-single - ----------------
#NOTEDATA:;
#CHARTNAME:X-7;
#STEPSTYPE:dance-single;
#DESCRIPTION:;
#CHARTSTYLE:;
#DIFFICULTY:Medium;
#METER:5;
#RADARVALUES:0.331,0.332,0.461,0.122,0.000,128.000,34.000,9.000,0.000,0.000,0.000,0.000,0.000,0.331,0.332,0.461,0.122,0.000,128.000,34.000,9.000,0.000,0.000,0.000,0.000,0.000;
#CREDIT:Rygon;
#NOTES:
0000
0000
0000
0010
,
2002
0000
0000
0000
,
0000
0000
3003
0000
,
1000
0100
0001
0000
,
0001
0010
1000
0000
,
1000
0010
0001
0100
,
1000
0010
0110
0000
,
0100
0100
0001
1000
,
0100
0100
0001
0100
,
1000
1000
0001
0100
,
0010
0000
0010
0100
0002
0000
2003
0000
,
3100
0100
1000
0001
,
0100
0100
1000
0100
,
0001
0001
1000
0100
,
0010
0000
0010
0100
2000
0000
3002
0000
,
0103
0001
0010
1001
,
0100
1000
0010
1001
,
0100
0010
1000
0001
,
0001
0000
0010
0100
0010
0000
1000
0000
,
0010
0001
0100
1001
,
0010
1000
0100
1001
,
0010
0100
1000
0001
,
1000
0010
1000
0010
0200
0000
0300
0000
,
0110
0110
1001
0000
,
1001
1001
0110
0000
,
1001
1100
1001
0101
,
1001
0110
1001
0000
,
0110
0110
1001
0000
,
1001
1001
0110
0000
,
1001
1010
1001
0011
,
1001
0110
1001
0000
,
1000
0100
0001
1000
,
0001
0000
0100
1000
0001
0000
0110
0000
,
1000
0010
0001
1000
,
0001
0000
0010
1000
0100
0010
2002
0000
,
3003
0000
0000
0000
;

//---------------dance-single - Rygon----------------
#NOTEDATA:;
#CHARTNAME:X-12;
#STEPSTYPE:dance-single;
#DESCRIPTION:Rygon;
#CHARTSTYLE:;
#DIFFICULTY:Hard;
#METER:7;
#RADARVALUES:0.496,0.546,0.719,0.190,0.109,189.000,53.000,14.000,0.000,0.000,0.000,0.000,0.000,0.496,0.546,0.719,0.190,0.109,189.000,53.000,14.000,0.000,0.000,0.000,0.000,0.000;
#CREDIT:Rygon;
#NOTES:
0000
0000
0000
0110
,
2002
0000
0000
0000
,
0000
0000
3003
0000
,
0010
0000
0000
0010
1000
0000
0100
0000
0001
0000
0000
0000
0100
0000
1000
0000
,
0010
0000
0000
0100
0000
0000
0101
0000
1001
0000
0000
0000
1000
0000
0000
0000
,
0100
0000
0000
0100
1000
0000
0010
0000
0001
0000
0000
0000
0010
0000
1000
0000
,
0100
0000
0000
0010
0000
0000
0011
0000
2002
0000
0000
0000
3003
0000
0000
0000
,
0100
0000
0100
0000
0001
0000
1000
0100
,
0001
0100
1000
0000
0001
0000
1001
0000
,
1000
0000
0100
0000
0001
0000
0100
1000
,
0010
0001
0010
0100
0002
0000
2003
0000
,
3100
0000
0100
0000
1000
0000
0001
0100
,
1000
0100
0001
0000
1000
0000
1001
0000
,
0001
0000
0100
0000
1000
0000
0100
0001
,
0010
1000
0010
0100
2000
0000
3002
0000
,
1003
0000
0000
0100
0000
0000
1100
0000
0010
0000
0000
0000
1001
0000
0000
0000
,
0001
0000
0000
0100
0000
0000
0101
0000
0010
0000
0000
0000
1001
0000
0000
0000
,
1000
0000
0000
0010
0000
0000
1010
0000
0100
0000
0000
0000
1001
0000
0000
0000
,
0001
0000
0000
0010
0000
0000
0011
0000
0100
0000
0000
0000
1001
0000
0000
0000
,
1000
0000
0000
0100
0000
0000
0001
0000
0010
0000
0000
0000
1010
0000
0000
0000
,
1000
0000
0000
0010
0000
0000
0001
0000
0100
0000
0000
0000
1100
0000
0000
0000
,
1000
0100
0001
0010
,
1000
0100
0010
0002
2000
0000
3003
0000
,
1001
0010
0110
0000
1001
0010
0110
0000
,
1001
1000
0101
0000
1001
0001
1100
0000
,
1001
0010
0110
0000
1001
0010
0110
0000
,
1001
1000
0011
0000
1001
0001
1010
0000
,
1001
0100
0011
0100
1001
0100
1010
0000
,
1001
0010
1100
0010
1001
0010
0101
0000
,
1100
0010
0101
0010
1010
0100
0011
0100
,
1001
1000
1100
1000
1001
0001
0101
0001
,
1001
0000
0000
1000
0100
0000
0010
0000
0002
0000
0000
0000
0103
0000
0010
0000
,
0100
0000
0001
1000
0000
1000
0100
0000
0010
0000
0000
0000
1001
0000
0000
0000
,
0001
0000
0000
0001
0100
0000
0010
0000
2000
0000
0000
0000
3100
0000
0010
0000
,
0100
0000
1000
0001
0000
0001
0100
0000
0010
0000
1000
0000
2002
0000
0000
0000
,
3003
0000
0000
0000
;

//---------------dance-double - Rygon----------------
#NOTEDATA:;
#CHARTNAME:X-4;
#STEPSTYPE:dance-double;
#DESCRIPTION:Rygon;
#CHARTSTYLE:;
#DIFFICULTY:Easy;
#METER:2;
#RADARVALUES:0.184,0.190,0.136,0.041,0.000,82.000,10.000,3.000,0.000,0.000,0.000,0.000,0.000,0.184,0.190,0.136,0.041,0.000,82.000,10.000,3.000,0.000,0.000,0.000,0.000,0.000;
#CREDIT:Rygon;
#NOTES:
00000000
00000000
00000000
00000000
,
20020000
00000000
00000000
00000000
,
30030000
00000000
00000000
00000000
,
10000000
10000000
01000000
00000000
,
00010000
00000000
00001000
00000000
,
00000001
00000001
00000100
00000000
,
00001000
00000000
00010000
00000000
,
10000000
00000000
00100000
00000000
,
01000000
01000000
01000000
00000000
,
00001000
00000000
00010000
00000000
,
00000100
00000100
00000010
00000000
,
00000001
00000000
00000010
00000000
,
00000100
00000100
00000100
00000000
,
00010000
00000000
00001000
00000000
,
01000000
01000000
00100000
00000000
,
10000000
00000000
01000000
00000000
,
00010000
00000000
00001000
00000000
,
00000001
00000000
00000100
00000000
,
00001000
00000000
00010000
00000000
,
10000000
00000000
01000000
00000000
,
00100000
00000000
00010000
00000000
,
00001000
00000000
00000100
00000000
,
00000010
00000000
00001001
00000000
,
00000001
00001000
00001001
00000000
,
00001000
00010000
00011000
00000000
,
00010000
10000000
10010000
00000000
,
00001000
00010000
00011000
00000000
,
00001000
00000001
00001001
00000000
,
00010000
00001000
00011000
00000000
,
10000000
00010000
10010000
00000000
,
00010000
00001000
00011000
00000000
,
00000100
00000000
00000100
00000000
,
00000010
00000010
00000010
00000000
,
00001000
00000000
00000100
00000000
,
00010000
00001000
00010000
00002000
,
00003000
00000000
00000000
00000000
;

//---------------dance-double - Rygon----------------
#NOTEDATA:;
#CHARTNAME:X-6;
#STEPSTYPE:dance-double;
#DESCRIPTION:Rygon;
#CHARTSTYLE:;
#DIFFICULTY:Medium;
#METER:5;
#RADARVALUES:0.322,0.285,0.353,0.068,0.000,135.000,26.000,5.000,0.000,0.000,0.000,0.000,0.000,0.322,0.285,0.353,0.068,0.000,135.000,26.000,5.000,0.000,0.000,0.000,0.000,0.000;
#CREDIT:Rygon;
#NOTES:
00000000
00000000
00000000
01000000
,
00022000
00000000
00000000
00000000
,
00000000
00000000
00033000
00000000
,
00000010
00000010
00001000
00100000
,
10000000
00000000
10000000
10000000
00010000
00000000
00010000
00010000
,
00100000
00100000
00001000
00000010
,
00000001
00000001
00001000
00001000
00000110
00000000
00000000
00000000
,
00000001
00000100
00001000
00010000
,
00010000
01000000
10000000
00010000
,
10000000
00100000
00010000
00010000
,
00001000
00000010
00000001
00001000
,
00000001
00000110
00001000
00010000
,
00010000
01100000
10000000
00010000
,
10000000
01100000
00010000
00001000
,
00001000
00000110
00001001
00000000
,
00000001
00000100
00001000
00010000
,
00100000
10000000
00010000
00010000
,
10000000
01000000
00010000
00001000
,
00000010
00000001
00001000
00001000
,
00000001
00000100
00001000
00011000
,
00010000
01000000
10000000
00010000
,
10000000
01000000
00010000
00011000
,
00001000
00000100
00002002
00003003
,
00000110
00000100
00001001
00000100
,
00011000
00100000
10010000
01000000
,
01100000
01000000
10010000
01000000
,
00011000
00000010
00001001
00000100
,
00000110
00000010
00001001
00000010
,
00011000
01000000
10010000
00100000
,
01100000
00100000
10010000
00100000
,
00011000
00000100
00001001
00000010
,
00001000
00000001
00001000
00000100
,
00010000
00010000
00001000
00000000
00001000
00001000
00010000
00000000
,
01000000
10000000
00100000
01000000
,
00010000
00100000
00001000
00000000
00010000
00001000
00020000
00000000
,
00030000
00000000
00000000
00000000
;

//---------------dance-double - Rygon----------------
#NOTEDATA:;
#CHARTNAME:X-12;
#STEPSTYPE:dance-double;
#DESCRIPTION:Rygon;
#CHARTSTYLE:;
#DIFFICULTY:Hard;
#METER:8;
#RADARVALUES:0.498,0.522,0.610,0.109,0.068,204.000,45.000,8.000,0.000,0.000,0.000,0.000,0.000,0.498,0.522,0.610,0.109,0.068,204.000,45.000,8.000,0.000,0.000,0.000,0.000,0.000;
#CREDIT:Rygon;
#NOTES:
// measure 0
00000000
00000000
00000000
00000110
,  // measure 1
00022000
00000000
00000000
00000000
,  // measure 2
00000000
00000000
00033000
00000000
,  // measure 3
01000000
00000000
00000000
01000000
10000000
00000000
00100000
00000000
01000000
00000000
00000000
00000000
01010000
00000000
00010000
00000000
,  // measure 4
00100000
00000000
00000000
00001000
00000000
00000000
00010100
00000000
00001100
00000000
00000000
00000000
00000011
00000000
00000000
00000000
,  // measure 5
00000100
00000000
00000000
00000100
00000001
00000000
00000010
00000000
00000100
00000000
00000000
00000000
00001100
00000000
00001000
00000000
,  // measure 6
00000010
00000000
00000000
00010000
00000000
00000000
01001000
00000000
02020000
00000000
00000000
00000000
03030000
00000000
00000000
00000000
,  // measure 7
01000000
00100000
10000000
01000000
,  // measure 8
00100000
00000000
00001000
00010000
00001000
00000000
00000100
00000000
,  // measure 9
00000001
00000010
00000100
00001000
,  // measure 10
00000100
00010000
00001000
01000000
01010000
00000000
10010000
00000000
,  // measure 11
00100000
01000000
10000000
00100000
,  // measure 12
01000000
00000000
00001000
00010000
00001000
00000000
00000010
00000000
,  // measure 13
00000001
00000100
00000010
00001000
,  // measure 14
00000010
00010000
00001000
00100000
00110000
00000000
10010000
00000000
,  // measure 15
10000000
01000000
00010000
00000000
00001000
00000100
00000001
00000000
,  // measure 16
00000001
00000010
00001000
00000000
00010000
00100000
10000000
00000000
,  // measure 17
10000000
01000000
00010000
00001000
00001000
00000100
00000001
00001000
,  // measure 18
00000001
00000010
00001000
00010000
00010000
00100000
10000000
00010000
,  // measure 19
10000000
01000000
00100000
00000000
00100000
00001000
00010000
00000000
,  // measure 20
00001000
00010000
00000010
00000000
00000010
00000100
00000001
00000000
,  // measure 21
00000001
00000010
00000100
00001100
00001000
00000100
00010000
00011000
,  // measure 22
00001000
00100000
00010000
01010000
20020000
00000000
30030000
00000000
,  // measure 23
00011000
00010000
01000000
00000000
00011000
00001000
00000100
00000000
,  // measure 24
00011000
00010000
01000000
00010000
00011000
00001000
00000100
00001000
,  // measure 25
00011000
00010000
00100000
00000000
00011000
00001000
00000010
00000000
,  // measure 26
00011000
00010000
00100000
00010000
00011000
00001000
00000010
00001000
,  // measure 27
00011000
01000000
01100000
00000000
00011000
00000100
00000110
00000000
,  // measure 28
00011000
01000000
01100000
00100000
00011000
00000010
00000110
00000100
,  // measure 29
00011000
00100000
01100000
00000000
00011000
00000010
00000110
00000000
,  // measure 30
00011000
00100000
01100000
01000000
00011000
00000100
00000110
00000010
,  // measure 31
00001001
00000000
00000000
00000001
00000100
00000000
00000010
00000000
00001000
00000000
00000100
00000000
00010000
00000000
01000000
00000000
,  // measure 32
10000000
00000000
00100000
01000000
00000000
01000000
00010000
00000000
00100000
00000000
01000000
00000000
01100000
00000000
00000000
00000000
,  // measure 33
10010000
00000000
00000000
10000000
00100000
00000000
01000000
00000000
00010000
00000000
00100000
00000000
00001000
00000000
00000010
00000000
,  // measure 34
00000001
00000000
00000100
00000010
00000000
00000010
00001000
00000000
00000100
00000000
00000010
00000000
00000220
00000000
00000000
00000000
,  // measure 35
00000330
00000000
00000000
00000000
;
