#TITLE:Gift For You (KJ Sawka Remix);
#SUBTITLE:;
#ARTIST:Celldweller;
#TITLETRANSLIT:;
#SUBTITLETRANSLIT:;
#ARTISTTRANSLIT:;
#GENRE:;
#CREDIT:;
#BANNER:[ROUND 7] - Gift For You (KJ Sawka Remix).png;
#BACKGROUND:[ROUND 7] - Gift For You (KJ Sawka Remix)-bg.png;
#LYRICSPATH:;
#CDTITLE:cdtitle.png;
#MUSIC:[ROUND 7] - Gift For You (KJ Sawka Remix).ogg;
#OFFSET:0.000;
#SAMPLESTART:17.469;
#SAMPLELENGTH:17.455;
#SELECTABLE:YES;
#BPMS:0.000=110.000
,100.000=112.500
,104.000=115.000
,108.000=117.500
,112.000=118.000
,116.000=120.000
,120.000=122.500
,128.000=125.000
,130.000=127.500
,136.000=130.000
,144.000=135.000
,148.000=137.500
,160.000=140.000
;
#STOPS:
;
#BGCHANGES:;
#KEYSOUNDS:;
#ATTACKS:;

//---------------dance-single - ----------------
#NOTES:
     dance-single:
     :
     Hard:
     8:
     0.504,0.530,0.292,0.081,0.242,313.000,29.000,8.000,0.000,0.000,38.000,0.504,0.530,0.292,0.081,0.242,313.000,29.000,8.000,0.000,0.000,38.000:
0000
0000
0000
0000
,
0000
0000
0000
0000
,
0000
0000
0000
0000
,
0000
0000
0000
0000
,
1000
0000
0001
0000
0100
0000
0000
0001
0000
1000
0100
0000
1000
0000
0000
0000
,
0001
0000
0010
0000
0100
0000
0000
0010
0000
0001
1000
0000
0001
0000
1000
0000
,
0010
0000
0100
0000
0001
0000
0000
1000
0000
0100
0010
0000
0001
0000
1000
0000
,
0002
0200
0000
0000
0000
0000
0303
0000
,
1000
0000
0010
0000
1010
0000
0000
1000
0010
0000
0001
0000
0010
0000
0100
0000
,
0001
0010
0011
0000
0001
0100
0101
0000
,
0010
0000
1000
0000
1001
0000
0000
0001
0100
0000
1000
0000
0100
0000
0010
0000
,
1000
0100
1100
1000
0010
1000
0001
0010
,
0001
0000
1000
0000
1010
0000
0000
0010
1000
0000
0001
0000
0010
0000
0001
0000
,
0100
0001
0010
1000
0010
0100
1000
0001
,
0020
0000
0000
0000
,
0000
0000
0000
0030
,
4001
0000
0000
0000
3400
0000
0300
0000
1000
0000
0010
0000
4000
3000
0400
0300
,
1000
0001
0401
0300
0010
0010
4000
3000
,
0104
0000
0000
0000
4003
0000
3000
0000
0001
0010
0100
0010
0004
0000
0003
0000
,
1000
0000
0010
0000
0140
0000
0030
0100
0001
0010
0001
1000
0001
0000
0100
0000
,
1000
0000
0100
0000
0004
0000
1003
0000
0001
0010
0001
1000
0010
0010
1000
1000
,
0001
0000
0010
0000
0014
0000
0003
0010
0001
0100
0001
0100
0040
0000
0030
0000
,
0410
0000
0000
0000
0000
0000
0000
0000
0000
0000
0000
0000
0304
0000
0000
0000
0000
0000
0003
0000
0000
0000
0000
0000
4000
0000
0000
3000
0000
0000
0010
0000
0100
0000
0010
0000
4000
0000
0000
3000
0000
0000
0001
0000
0100
0000
0001
0000
,
1000
0001
0020
0000
0000
0000
0030
0000
,
0001
1000
1010
0000
0010
1000
0004
0003
,
1000
0100
1100
0000
0400
0010
0000
1300
,
0001
0000
0010
0000
0011
0000
0000
0000
0001
0100
0010
0010
0400
0300
0040
0030
,
1000
0001
0101
0000
0100
0001
1000
0000
,
0001
1000
1100
0000
1000
0010
0400
0300
,
0010
1000
1001
0000
0004
0000
0000
0003
,
1000
0000
0001
0000
0101
0000
0000
0000
0100
0010
1000
1000
0004
0003
0040
0030
,
0001
0100
0110
0000
1010
0000
0101
0000
,
1000
0100
0001
0100
0010
0001
4000
3000
,
0010
0100
0001
1000
0004
0010
0000
1003
,
0001
0000
0100
0000
1000
0000
0100
0000
0010
0010
1000
1000
0004
0003
4000
3000
,
0100
1000
0010
0100
0001
0000
1001
0000
,
1000
0010
0001
0010
0100
0001
4000
3000
,
0001
0010
1000
0010
0100
1000
0010
0100
,
0010
0000
1000
0000
0001
0000
0010
0000
0100
1000
0100
1000
0001
1000
0001
1000
,
0010
0110
1001
0110
,
0001
1000
0100
0100
4000
0000
3010
0000
0100
0001
0001
1000
0004
0003
0040
0030
,
0001
0100
0010
0010
4000
3000
0004
0003
4000
0000
0100
0000
0000
0000
3001
0000
,
0010
0000
0001
0001
1000
0000
0001
0000
0400
0000
0300
0000
0001
1000
0100
1000
,
0010
0000
0000
0000
0000
0000
1000
0000
0000
0000
0000
0000
0100
0000
0000
0000
0000
0000
0010
0000
0000
0000
0000
0000
0100
0000
0000
1000
0000
0000
0100
0000
0000
1000
0000
0000
0001
0000
0000
0000
0001
0000
0000
0000
0001
0000
0000
0000
,
2000
3000
0010
0100
0101
0000
1001
0000
,
1000
0100
1000
0001
0400
0010
0000
0301
,
0100
0010
1000
0100
0001
0100
0010
0001
,
1000
0000
0001
0000
0202
0300
2000
3003
;

//---------------dance-single - ----------------
#NOTES:
     dance-single:
     :
     Medium:
     6:
     0.335,0.338,0.131,0.071,0.005,213.000,13.000,7.000,0.000,0.000,21.000,0.335,0.338,0.131,0.071,0.005,213.000,13.000,7.000,0.000,0.000,21.000:
0000
0000
0000
0000
,
0000
0000
0000
0000
,
0000
0000
0000
0000
,
0000
0000
0000
0000
,
1000
0001
0000
0000
0100
0001
0010
0000
,
0001
0100
0000
0000
0001
0000
1001
0000
,
0001
0010
0000
0000
0001
0100
1000
0000
,
0200
0020
0000
0000
0000
0000
0330
0000
,
0100
0000
0110
0000
0010
1000
0010
0000
,
1000
0100
1000
0000
0001
0000
0100
0000
,
0001
0000
0011
0000
0010
0100
0010
0000
,
0100
1000
0100
0000
1000
0000
0010
0000
,
1000
0000
1100
0000
0100
0010
0100
0000
,
0010
0001
0010
0000
0001
0000
0100
0000
,
0002
0000
0000
0000
,
0000
0000
0000
0003
,
1000
0000
4100
0000
3001
0100
0001
0010
,
1000
0010
0400
0300
1000
1000
0040
0030
,
1000
0000
1004
0000
1003
0100
4000
3000
,
0001
0010
0001
0100
1000
1000
0100
0010
,
0100
0000
0001
0000
4000
0000
3000
0000
0001
0000
0010
0000
0100
0010
0100
0000
,
0010
0001
4000
3000
0010
0010
0400
0300
,
0001
0000
0401
0000
0301
1000
0100
1000
,
0010
0200
0000
0000
0000
0000
0300
0000
,
0001
0000
1000
0000
0100
0010
0004
0003
,
1000
0000
0001
0000
0400
0300
0040
0030
,
1000
0000
0100
0000
0001
0100
0001
0100
,
0010
0001
1000
0000
0010
0000
1010
0000
,
1000
0000
0001
0000
0010
0100
4000
3000
,
0001
0000
1000
0000
0040
0000
0000
0030
,
0100
0000
0001
0000
0010
0100
0010
0001
,
1000
0010
0100
0000
0001
0000
0101
0000
,
0100
0000
0010
0000
1000
0001
0040
0030
,
0100
0000
0010
0000
0004
0003
4000
3000
,
0010
0000
0100
0000
0001
1000
0100
1000
,
0010
1000
0001
0011
,
0010
0000
0001
0000
0100
0000
0040
0030
,
1000
0100
0001
0100
,
1000
0000
0010
0000
1000
0001
0010
0001
,
0100
0010
0100
0110
,
0010
1000
0010
0000
0100
0001
1000
0001
,
0010
0000
0001
0100
0004
0003
4000
3000
,
0001
0001
0040
0030
0001
0000
1000
0010
,
1000
0100
0010
0000
0001
0100
0002
0003
,
1000
0000
0100
1000
0001
0000
1001
0000
,
1000
0000
0010
0000
0100
0001
0100
0000
,
0001
0000
1000
0000
0001
0010
0001
0000
,
1000
0000
0010
0000
1000
0000
2002
3003
;

//---------------dance-single - ----------------
#NOTES:
     dance-single:
     :
     Easy:
     3:
     0.212,0.217,0.111,0.101,0.000,126.000,11.000,10.000,0.000,0.000,0.000,0.212,0.217,0.111,0.101,0.000,126.000,11.000,10.000,0.000,0.000,0.000: // measure 0
0000
0000
0000
0000
,  // measure 1
0000
0000
0000
0000
,  // measure 2
0000
0000
0000
0000
,  // measure 3
0000
0000
0000
0000
,  // measure 4
1000
1000
0001
0001
,  // measure 5
0100
0000
0010
0100
,  // measure 6
0001
0001
1000
1000
,  // measure 7
0200
0000
0000
0300
,  // measure 8
0010
0011
0001
0000
,  // measure 9
1000
0000
0010
1000
,  // measure 10
0010
0110
0100
0000
,  // measure 11
0001
0000
1000
0100
,  // measure 12
1000
1001
0001
0000
,  // measure 13
1000
0010
1000
0000
,  // measure 14
0200
0000
0000
0000
,  // measure 15
0000
0000
0000
0300
,  // measure 16
1000
1000
0002
0003
,  // measure 17
0100
0010
0100
0001
,  // measure 18
1000
0100
1000
0001
,  // measure 19
2000
3000
0010
1000
,  // measure 20
0010
1000
0002
0003
,  // measure 21
1000
0100
1000
0001
,  // measure 22
1000
0010
0100
0100
,  // measure 23
0020
0000
0000
0030
,  // measure 24
1000
0000
0001
0010
,  // measure 25
0001
0000
1000
1000
,  // measure 26
0001
0000
1000
0010
,  // measure 27
1000
0000
0001
0101
,  // measure 28
0001
0000
1000
0100
,  // measure 29
1000
0000
0001
0001
,  // measure 30
1000
0000
0001
0010
,  // measure 31
0001
0000
1000
1010
,  // measure 32
1000
0010
1000
0000
,  // measure 33
0100
1000
0100
0000
,  // measure 34
0010
0001
0010
0000
,  // measure 35
0001
0100
0001
0000
,  // measure 36
1000
0010
1010
0000
,  // measure 37
1000
0001
1001
0000
,  // measure 38
0001
0010
0001
0010
,  // measure 39
0002
0003
2000
3000
,  // measure 40
0001
0100
0001
0000
,  // measure 41
1000
0000
1010
0000
,  // measure 42
1000
0010
1000
0000
,  // measure 43
0001
0000
0011
0000
,  // measure 44
0010
0001
1000
0000
,  // measure 45
0001
0000
0101
0000
,  // measure 46
1000
0010
0100
0010
,  // measure 47
1000
0000
0000
0000
2002
0000
0000
3003
;
