#TITLE:Concertino In Blue;
#SUBTITLE:;
#ARTIST:Hirofumi Sasaki;
#TITLETRANSLIT:;
#SUBTITLETRANSLIT:;
#ARTISTTRANSLIT:;
#GENRE:;
#CREDIT:;
#BANNER:banner.png;
#BACKGROUND:background.png;
#LYRICSPATH:;
#CDTITLE:;
#MUSIC:[ROUND 7] - Concertino in Blue.mp3;
#OFFSET:-0.594;
#SAMPLESTART:11.100;
#SAMPLELENGTH:12.000;
#SELECTABLE:YES;
#BPMS:0.000=139.900,20.000=155.000,44.000=150.000,45.000=151.100,53.000=155.000,76.000=147.300,81.000=155.000,135.000=153.000,136.000=155.000,147.000=142.000,148.000=152.000,151.000=157.250,154.000=155.000,209.000=151.000,210.000=140.000,211.000=128.000,212.000=122.000,218.000=112.000,220.000=102.000,221.000=108.000,224.000=100.000,226.000=96.000,227.000=81.000;
#STOPS:;
#BGCHANGES:;
#KEYSOUNDS:;

//---------------dance-single - Ama-tan----------------
#NOTES:
     dance-single:
     Ama-tan:
     Challenge:
     12:
     1.000,0.958,0.519,0.163,1.000:
1000
0010
0100
0001
0010
0100
0010
0100
1000
0010
0100
0001
,
1000
0100
0010
0001
0100
0010
0100
0010
1000
0001
0010
0100
,
1000
0100
0001
0100
0010
0001
0100
1000
0100
0010
0001
0010
,
1000
0000
0010
0000
0001
0000
0010
0000
0100
0000
0001
0000
0010
0000
0100
0010
0100
0000
1000
0000
0010
0100
0010
0000
,
1000
1000
1000
0010
0010
0010
0100
0100
0100
0001
0001
0001
,
1000
0001
0000
0100
0000
0001
1000
0000
0010
0000
0100
0000
0011
0000
0000
0000
,
0011
0000
0000
0000
0001
0010
0100
1000
0010
0000
0000
0000
0010
0000
0000
0000
,
0100
0010
0000
1010
0000
0000
1010
0000
0001
0000
1100
0000
0011
0000
0101
0000
,
1000
0000
0001
0100
0000
0100
0010
0000
0010
0000
0010
0000
1000
0001
0000
0100
,
0000
0001
1000
0000
1010
0000
0000
0000
1000
0010
0100
0001
0010
0000
0000
0000
,
0010
0000
0000
0000
0100
0010
0000
0011
0000
0000
0011
0000
1000
0000
0101
0000
,
0011
0000
1010
0000
1000
0100
0010
0001
0000
0100
0010
0001
0000
1000
0100
0010
,
0100
0010
0100
0010
0100
0010
0100
0010
0100
0010
0100
0010
0110
0000
0000
0000
,
1001
0000
0000
0000
1000
0100
0010
0001
0100
0000
0010
1000
0010
0000
0100
0000
,
0001
0000
0010
0000
0100
0000
0010
0000
0001
0000
1000
0000
0010
1000
0001
1000
,
0100
0000
0010
0001
0000
0001
0100
0000
0010
0000
0010
0000
1000
0001
0000
0100
,
0000
0001
1000
0000
1010
0000
0010
0100
0001
0100
0010
1000
0100
0000
0010
0001
,
0010
0000
0100
0000
1000
0000
0001
0000
0100
0000
0010
0000
0100
0001
0100
0000
,
0010
0000
1000
0000
0001
0010
0100
1000
0000
0010
0100
1000
0000
0001
0010
0100
,
0010
0100
0010
0100
0010
0100
0010
0100
0010
0100
0010
0100
0110
0000
0000
0000
,
1001
0000
0000
0000
1100
0000
0101
0000
1001
0000
1000
0100
0010
0100
1000
0000
,
0001
0100
0010
0100
0001
0000
1000
0010
0100
0001
0010
0000
0100
1000
0010
0100
,
0002
0000
0000
0000
0003
1000
0001
0010
0100
2000
0000
0000
0000
0000
0000
0000
,
3000
0000
0100
0000
0010
0001
0000
1000
0100
0010
0001
0100
1000
0100
0001
1000
,
0100
0001
0100
1000
0010
0100
0001
1000
0000
0000
0010
0000
0000
0010
0000
0010
,
1000
0100
0001
0100
1000
0010
0001
0010
0100
0001
0010
1000
0010
0100
1000
0020
,
0000
0000
0000
0000
0000
0000
0000
0000
0000
0000
0000
0000
0030
0000
0000
0000
0000
0000
1000
0000
0000
0100
0000
0000
0010
0000
0001
0000
0100
0000
0010
0000
0000
1000
0000
0000
0100
0000
0000
0010
0000
0000
0001
0000
0100
0000
0010
0000
,
1000
0100
0010
0001
0100
1000
0100
0020
0000
0000
0000
0000
0030
0000
0000
0000
,
1000
0100
0010
0001
0010
0100
1000
0010
0100
0001
0100
0010
1000
0100
0001
0100
,
0010
0001
1000
0010
0001
0010
0100
0001
1000
0010
1000
0010
0100
0001
0010
0100
,
0010
0100
1000
0001
0100
0010
0100
0010
1000
0100
0010
0001
0010
0001
0100
0010
,
1000
0100
0010
0001
0100
0010
0001
1000
0100
0010
1000
0100
0010
000M
0010
1000
,
0001
0010
0100
M000
0100
0001
0010
0100
1000
0010
0100
0001
0100
0010
1000
0100
,
0010
0000
0000
0001
0000
0000
0000
0000
0000
0001
0000
0000
0100
0000
0000
0000
0000
0000
0100
0000
0000
0000
0000
0000
0100
0000
0000
0000
0000
0000
0010
0000
1000
0000
0010
0000
1000
0000
0000
0010
0000
0000
1000
0000
0000
0010
0000
0000
,
1000
0000
1000
0100
0010
0001
0010
0000
0011
0000
0110
0000
1100
0000
0001
0100
,
0010
1000
0010
0000
1010
0000
0110
0000
0101
0000
0011
0000
0110
0000
1100
0000
,
1010
0000
1001
0000
0001
0010
0100
1000
0100
0010
0001
0100
0010
1000
0010
0100
,
0001
0100
1000
0100
0001
0010
1000
0010
0001
0100
1000
0100
0010
0000
0000
1M10
,
0000
0000
M011
0000
0000
110M
0000
0000
1000
0100
0001
0100
1000
0010
0001
0010
,
1000
0000
0100
0000
0001
0000
0100
0000
0010
0000
0000
0000
011M
0000
0000
0000
0000
0M11
0000
0000
0000
01M1
0000
0000
1M10
0000
0000
0000
M011
0000
0000
0000
,
0001
0000
0010
0000
1000
0000
0010
0000
0001
0000
0100
0000
1000
0000
0100
0000
0010
0000
1000
0000
0100
0000
0010
0000
0001
0000
0000
0000
0000
011M
0000
0000
,
0000
0000
0000
0000
0000
0000
0M11
0000
0000
0000
0000
0000
0000
0000
0000
0000
0000
0000
0000
0000
0000
0000
0000
0000
0000
0000
0000
0000
0000
0000
101M
0000
0000
0000
0000
0000
0000
0000
0000
0000
0000
0000
0000
0000
0000
0000
0000
0000
M110
0000
0000
0000
0000
0000
0000
0000
0000
0000
0000
0000
0000
0000
0000
0000
0000
0000
1M10
0000
0000
0000
0000
0000
0000
0000
0000
0000
0000
0000
0000
0000
0000
0000
0000
0000
0000
0000
0000
0000
0000
0000
0000
0000
0000
0000
0000
0000
1000
0000
0000
0000
0000
0000
0000
0000
0000
0000
0000
0000
0000
0000
0000
0000
0010
0000
0000
0000
0000
0000
0000
0000
0000
0000
0000
0000
0000
0000
0000
0000
0100
0000
0000
0000
0000
0000
0000
0000
0000
0000
0000
0000
0000
0000
0000
0000
0001
0000
0000
0000
0000
0000
0000
0000
0000
0000
0000
0000
0000
0000
0000
0000
0010
0000
0000
0000
0000
0000
0000
0000
0000
0000
0000
0000
0000
0000
0000
0000
0100
0000
0000
0000
0000
0000
0000
0000
0000
0000
0000
0000
0000
0000
0000
0000
,
1000
0010
0100
0001
0010
0100
1000
0100
0010
0001
0100
0010
,
1000
0100
1000
0010
0100
0001
0010
0001
0100
0010
1000
0001
,
1000
0100
0010
0001
0010
0100
4000
0000
0000
0000
0000
0000
,
0000
0000
0000
0000
0000
0000
0000
3000
,
0001
1000
0001
1000
0020
0000
0000
0000
MM3M
0000
00M0
0000
1000
0001
0000
0100
,
0000
0001
1000
0000
0010
0000
0100
0000
0011
0000
0000
0000
0011
0000
0000
0000
,
1000
0100
0010
0001
0100
0000
0000
0000
0100
0000
0000
0000
0010
0100
0000
0101
,
0000
0100
0001
1000
0010
1000
0100
0001
0100
0010
0001
1000
0010
0100
1000
0100
,
0010
0000
1000
0000
0001
0000
0100
0000
0010
0000
1000
0001
1000
0010
1000
0100
,
0001
0100
1000
0001
0100
0001
0010
0100
2000
0000
3010
0001
M020
0000
2030
0000
,
30M2
0000
0023
0000
2M30
0000
3010
0000
M100
0001
0100
0000
0010
0000
0001
0000
,
1000
0000
0000
0010
0000
0000
0100
0000
0000
0001
0000
0000
0000
0000
0000
0010
0000
0000
0100
0000
0000
0001
0000
0000
0000
0000
0000
1000
0000
0000
0010
0000
0000
0100
0000
0010
0000
0100
0000
0010
0000
0100
0000
0010
0000
0100
0000
0010
,
0000
0100
0000
0010
0000
0100
0000
0010
0000
0100
0000
0010
0000
0100
0000
0010
0000
0100
0000
0010
0000
0100
0000
0000
0110
0000
0000
0000
0000
0000
0000
0000
0000
0000
0000
0000
1001
0000
0000
0000
0000
0000
1000
0000
0100
0000
0010
0000
,
0001
0100
0120
0000
0000
0000
0000
0000
,
1000
0100
1000
0001
0100
0001
1000
0001
,
0130
0000
0000
0000
0000
0000
0000
0000
0000
0000
0000
0000
0000
0000
0000
0000
0000
0000
0000
0000
0000
0000
0000
0000
0000
0000
0000
0000
0000
0000
0000
0000
0000
0000
0000
0000
0000
0000
0000
0000
0001
0000
0000
0000
0010
0000
0000
0000
0200
0000
0000
0000
M000
0000
0000
0000
0000
0000
0000
0000
0000
0000
0000
0000
0000
0000
0000
0000
0000
0000
0000
0000
0000
0000
0000
0000
0000
0000
0000
0000
0000
0000
0000
0000
0000
0000
0000
0000
0000
0000
0000
0000
0000
0000
0000
0000
0000
0000
0000
0000
0000
0000
0000
0000
0000
0000
0000
0000
0000
0000
0000
0000
0000
0000
0000
0000
0000
0000
0000
0000
0300
0000
0000
0000
0000
0000
2000
0000
0000
0000
0000
0000
0000
0000
0000
0000
0000
0000
0002
0000
0000
0000
0000
0000
0000
0000
0000
0000
0000
0000
0000
0000
0000
0000
0000
0000
0000
0000
0000
0000
0000
0000
0000
0000
0000
0000
0000
0000
0000
0000
0000
0000
0000
0000
0000
0000
0000
0000
0000
0000
0000
0000
0000
0000
0000
0000
0020
0000
0000
0000
0000
0000
,
0000
0000
0000
0030
0000
0000
0000
0000
0000
0000
0000
0000
0000
0000
0000
0000
0000
0000
0000
0000
0000
0000
0000
0000
0000
0000
0000
0000
0000
3003
0000
0000
;

//---------------dance-single - TaroNuke----------------
#NOTES:
     dance-single:
     TaroNuke:
     Hard:
     10:
     0.844,0.856,0.244,0.203,1.000:
1100
0000
0000
0101
0000
0000
0010
0000
0100
1000
0000
0001
,
0010
0000
0000
1010
0000
0000
0100
0000
0010
0001
0000
1000
,
0100
0000
0000
0011
0000
0000
0100
0000
0010
1000
0000
0001
,
0100
0000
0000
1010
0000
0000
0010
0000
1000
0001
0000
1000
,
0010
0100
0010
0100
0010
0100
0001
1000
0001
1000
0001
1000
,
0001
0010
0000
0100
0000
1000
0010
0000
0100
0000
0001
0000
0101
0000
0000
0000
,
1100
0000
0000
0000
0001
0100
0001
0100
0020
0000
0000
0000
1030
0000
0000
0000
,
1100
0000
0000
0011
0000
0000
0001
0000
1000
0000
0100
0000
0010
0000
0010
0000
,
0001
0000
1000
0010
0000
0100
0010
0000
0010
0000
0010
0000
1000
0100
0000
0010
,
0000
0100
1000
0000
0001
0000
0000
0000
1000
0100
1000
0100
0020
0000
0000
0000
,
0031
0000
0000
0000
0101
0000
0000
1010
0000
0000
1000
0000
0001
0000
0100
0000
,
0010
0000
1000
0000
0001
0010
0100
1000
0000
0001
0010
0100
0000
0010
0100
1000
,
0100
1000
0100
1000
0100
1000
0100
1000
0100
1000
0100
1000
0200
0000
0000
0000
,
1300
0000
0000
0000
0001
0010
0001
0010
0200
0000
0000
0000
1300
0000
0000
0000
,
1010
0000
0000
0011
0000
0000
0001
0000
1000
0000
0100
0000
0001
0000
0100
0000
,
1000
0000
0001
0100
0000
0100
0010
0000
0010
0000
0010
0000
1000
0001
0000
0100
,
0000
0001
1000
0000
0001
0010
0100
1000
0010
1000
0010
1000
0200
0000
0000
0000
,
0310
0000
0000
0000
0011
0000
0000
1010
0000
0000
1000
0000
0001
0000
0100
0000
,
1000
0000
0100
0000
0001
0100
0010
1000
0000
0001
0100
0010
0000
0100
0010
1000
,
0010
1000
0010
1000
0010
1000
0010
1000
0010
1000
0010
1000
0020
0000
0000
0000
,
1030
0000
0000
0000
1010
0000
0100
0000
0011
0000
0001
0100
0000
0100
0010
0000
,
1000
0100
0000
0100
0010
0000
0001
0100
0000
0100
0010
0000
1000
0000
0001
0000
,
1000
0000
0001
0100
0001
0000
1000
0000
0001
0010
0001
0000
0100
0000
0010
1000
,
0010
0000
0100
0000
0001
1000
0001
0000
1000
0100
0010
0001
0100
0000
0001
0100
,
0010
1000
0100
0000
1000
0001
0100
0001
0010
0000
0100
0000
1000
0000
0001
0000
,
0100
0010
1000
0010
0100
0001
0100
0010
1000
0010
0100
0001
0100
0010
1000
0010
,
0100
0000
0001
0000
1000
0000
0001
0010
0100
1000
0100
0010
0001
0010
0100
1000
,
0100
0010
0001
0010
0100
1000
0100
0010
0001
0000
1000
0000
0010
0000
0100
0000
,
0001
0000
1000
0100
1000
0100
0010
0000
0001
0100
0001
0100
0010
0000
1000
0001
,
1000
0001
0100
0000
0010
1000
0010
1000
0100
0000
0010
0001
0010
0001
1000
0000
,
0010
0100
0010
0100
0001
0000
1000
0100
1000
0100
0010
0000
0001
0100
0010
0100
,
0001
0010
0100
1000
0100
0010
0001
0100
0010
1000
0010
0100
0001
0000
0001
0100
,
0010
1000
0100
0000
0100
1000
0001
0100
0010
0100
0001
1000
0100
0010
0001
0010
,
0100
1000
0000
0000
0040
0000
0000
0000
0000
0000
2030
0000
0000
0000
0000
0000
,
3001
0000
1000
0100
0010
0001
1000
0000
0001
0000
0010
0000
0100
0000
1000
0010
,
0100
0001
1000
0000
0001
0000
0100
0000
0010
0000
1000
0000
0001
0000
0010
0000
,
0100
0000
0010
0000
0001
0010
0100
1000
0100
0010
0001
0100
0010
1000
0010
0100
,
0002
0000
0000
0000
0103
0000
0000
0000
0001
0010
0100
1000
0020
0000
0000
1000
,
0000
0000
1000
0000
0000
1000
0000
0000
2030
0000
0000
0000
3100
0000
0000
0000
,
1000
0000
0010
0000
0100
0000
0001
0000
0020
0000
0000
0000
0001
0000
0000
0000
0000
0001
0000
0000
0000
0001
0000
0000
0001
0000
0000
0000
0001
0000
0000
0000
,
0032
0000
0000
0000
0000
0000
0000
0000
1003
0000
0000
0000
0000
0000
0000
0000
0010
0000
1000
0000
0100
0000
0010
0000
0002
0000
0000
0000
0000
1000
0000
0000
,
0000
0000
0000
0000
0000
0000
1000
0000
0000
0000
0000
0000
0000
0000
0000
0000
0000
0000
0000
0000
0000
0000
0000
0000
0000
0000
0000
0000
0000
0000
1000
0000
0000
0000
0000
0000
0000
0000
0000
0000
0000
0000
0000
0000
0000
0000
0000
0000
1000
0000
0000
0000
0000
0000
0000
0000
0000
0000
0000
0000
0000
0000
0000
0000
0000
0000
1000
0000
0000
0000
0000
0000
0000
0000
0000
0000
0000
0000
0000
0000
0000
0000
0000
0000
0000
0000
0000
0000
0000
0000
0000
0000
0000
0000
0000
0000
1003
0000
0000
0000
0000
0000
0000
0000
0000
0000
0000
0000
0000
0000
0000
0000
0010
0000
0000
0000
0000
0000
0000
0000
0000
0000
0000
0000
0000
0000
0000
0000
1000
0000
0000
0000
0000
0000
0000
0000
0000
0000
0000
0000
0000
0000
0000
0000
0010
0000
0000
0000
0000
0000
0000
0000
0000
0000
0000
0000
0000
0000
0000
0000
0100
0000
0000
0000
0000
0000
0000
0000
0000
0000
0000
0000
0000
0000
0000
0000
0010
0000
0000
0000
0000
0000
0000
0000
0000
0000
0000
0000
0000
0000
0000
0000
,
0100
0001
0100
0001
0010
0100
0010
0100
1000
0100
1000
0100
,
1000
0001
0100
0001
1000
0010
1000
0001
0010
0001
0010
0100
,
1000
0010
0100
0001
0010
0100
2000
0000
0000
0000
0000
0000
,
0000
0000
0000
0000
,
3001
0000
0000
0000
1001
0000
0000
0000
0000
0000
0000
0000
1000
0100
0000
0010
,
0000
0001
0100
0000
0010
0000
1000
0000
1010
0000
0000
0000
0011
0000
0000
0000
,
1000
0100
1000
0100
0020
0000
0000
0000
0031
0000
0000
0000
0101
0000
0000
1100
,
0000
0000
1000
0000
0001
0000
0010
0000
1000
0000
0010
0000
0001
0000
1000
0010
,
0000
0010
0100
0000
0100
0000
0100
0000
0001
1000
0000
0010
0000
1000
0001
0000
,
1000
0100
0010
0001
0100
0001
0100
0001
0020
0000
0000
0000
0130
0000
0000
0000
,
1100
0000
0000
0101
0000
0000
0001
0000
1000
0000
0010
0000
0001
0000
0010
0000
,
1000
0100
0010
0001
0000
1000
0100
0010
0000
0100
0010
0001
0010
0001
0010
0001
,
0010
0001
0010
0001
0010
0001
0010
0001
0020
0000
0000
0000
0031
0000
0001
1000
,
0020
0100
0200
0000
0000
0000
0330
0000
,
0001
0100
0001
1000
0100
1000
0001
0100
,
1000
0000
0000
0000
0000
0000
0000
0000
0000
0000
0000
0000
0020
0000
0000
0030
0000
0000
0000
0000
0000
0000
0000
0000
0000
0000
0000
0000
0000
0000
0000
0000
0000
0000
0MM0
0000
0000
0000
0000
0000
0000
0000
0000
0000
0000
0000
M00M
0000
,
0000
0MM0
0000
0000
0000
0000
0000
0000
0000
0000
0000
0000
0000
0000
0000
0000
0000
0000
0000
0000
0000
0000
0000
0000
;

//---------------dance-single - TaroNuke----------------
#NOTES:
     dance-single:
     TaroNuke:
     Medium:
     9:
     0.627,0.698,0.193,0.163,0.564:
2001
0100
0010
3100
,
1002
0100
0010
0103
,
2010
0100
0001
3100
,
0012
0100
1000
0103
,
0001
0100
0001
0100
0001
0100
0001
1000
0001
1000
0001
1000
,
0001
1000
0000
0001
0000
1000
0001
0000
0100
0000
0010
0000
0110
0000
0000
0000
,
0110
0000
1000
0100
0001
0000
0001
0000
,
0100
0010
0000
0001
0000
0000
1000
0000
0001
0000
0100
0000
0010
0000
1000
0000
,
0001
0000
1000
0100
0000
0100
0010
0000
0010
0000
0010
0000
0001
0100
0000
0010
,
0000
1000
0100
0000
0010
0000
0000
0000
0001
0000
0100
0000
1000
0000
0000
0000
,
1000
0000
0000
0000
0100
0010
0000
1000
0000
0000
0001
0000
0000
0000
1000
0000
,
0100
0000
0010
0000
0001
0010
0100
1000
0000
0001
0100
0001
0000
1000
0100
4000
,
0000
0000
0000
3010
,
1010
0000
0001
0010
1000
0000
1000
0000
,
0010
0100
0000
1000
0000
0000
0001
0000
1000
0000
0010
0000
0100
0000
0001
0000
,
1000
0000
0001
0100
0000
0100
0010
0000
0010
0000
0010
0000
1000
0100
0000
0010
,
0000
0001
0100
0000
0010
0000
0000
0000
1000
0000
0010
0000
0001
0000
0000
0000
,
0001
0000
0000
0000
0010
0100
0000
0001
0000
0000
1000
0000
0000
0000
0001
0000
,
0100
0000
0010
0000
1000
0010
0100
0001
0000
1000
0100
1000
0000
0001
0100
0004
,
0000
0000
0000
0103
,
0101
0000
0000
0000
0100
0000
0001
0000
2000
0000
0000
0100
0000
0000
0010
0000
,
0000
3100
0000
0000
0002
0000
0000
0100
0000
0000
0010
0000
0000
0103
0000
0000
,
1000
0100
0010
0001
0010
0100
1000
0010
,
0100
0001
0100
0010
1000
0100
0001
0100
,
0010
0001
1000
0010
0100
0001
0010
0100
,
1000
0010
0001
1000
0100
0001
1000
0100
,
0010
0001
0010
0100
1000
0010
0001
1000
,
0001
0010
0100
0001
0010
0100
1000
0001
,
1000
0000
0001
0100
0001
0000
1000
0000
0010
0100
0010
0000
1000
0000
0001
0100
,
0001
0000
1000
0000
0001
1000
0001
0000
0010
0000
0100
1000
0100
0000
0010
0000
,
0001
0100
0001
0000
0010
0000
0001
1000
0001
0000
0010
0000
0100
1000
0001
0000
,
1100
0000
0000
1100
0000
0000
0101
0000
0000
0101
0000
0000
0011
0000
0000
0011
,
0000
0000
0110
0000
0000
0110
0000
0000
1000
0000
1000
0010
0000
0010
0100
0000
,
0100
0001
0000
0001
0200
0000
0000
0000
0000
0000
0320
0000
0000
0000
0000
0000
,
1030
0000
0010
1000
0010
1000
0010
0000
0100
0000
0001
0000
0010
0000
0001
0010
,
0001
0010
0001
0000
0100
0000
0010
0000
0100
0000
1000
0000
0100
0000
0010
0000
,
0100
0000
0001
0000
0010
0100
0010
0100
0010
0000
0001
1000
0001
1000
0001
0000
,
0020
0000
0130
0000
1000
0001
0200
0000
,
0000
0000
0000
0300
0002
0000
1003
0000
,
0001
0010
0200
0000
0000
0000
0000
0300
,
2000
0000
3010
0000
0100
0001
0020
0000
,
0000
0000
0000
0000
0000
0000
0000
0000
0000
0030
0000
0000
0001
0000
1000
0000
0001
0000
1000
0000
0001
0000
1000
0000
,
0001
1000
0001
1000
0001
1000
0010
1000
0010
1000
0010
1000
,
0010
1000
0010
1000
0010
1000
0010
0100
0010
0100
0010
0100
,
0010
0100
0010
0100
0010
0100
0002
0000
0000
0000
0000
0000
,
0000
0000
0000
0000
,
1000
0000
0000
0000
1003
0000
0000
0000
0000
0000
0000
0000
0001
1000
0000
0001
,
0000
1000
0001
0000
0100
0000
0010
0000
0110
0000
0000
0000
0110
0000
0000
0000
,
0001
0000
0100
0000
1000
0000
0000
0000
1000
0000
0000
0000
0100
0010
0000
1000
,
0000
0000
0001
0000
1000
0000
0100
0000
0010
0000
0001
0000
1000
0000
0001
0100
,
0000
0100
0010
0000
0010
0000
0010
0000
1000
0100
0000
0010
0000
0001
0100
0000
,
0010
0000
1000
0100
0001
0000
0001
0000
,
0100
0010
0000
0001
0000
0000
1000
0000
0000
0000
0001
0000
0100
0000
0010
0000
,
1000
0100
0010
0001
0000
1000
0100
1000
0000
0001
0100
0040
0000
0000
0000
0000
,
0000
0000
0130
0110
,
0001
1000
0020
0000
0000
0000
0000
0000
,
1000
1000
1000
0100
0100
0100
0001
0100
,
1000
0130
0000
0000
;

//---------------dance-single - TaroNuke----------------
#NOTES:
     dance-single:
     TaroNuke:
     Beginner:
     4:
     0.295,0.365,0.061,0.315,0.000:
0000
0000
0000
0000
,
0000
0000
0000
0000
,
0000
0000
0000
0000
,
0000
0000
0000
0000
,
2000
0000
3002
0000
,
1003
1000
1000
0100
,
0100
0000
1000
0001
0010
0000
0010
0000
,
0100
1000
0001
0000
0001
0000
0010
0000
,
0100
0100
1000
0010
,
0010
0000
0100
0000
0001
1000
0010
0000
,
0010
0000
0100
0001
1000
0000
1000
0000
,
0010
2000
3002
0203
,
0320
0000
0000
1000
,
1030
0000
1000
0100
0010
0000
0010
0000
,
0001
0100
0010
0000
0010
0000
1000
0000
,
0100
0100
0010
0001
,
0001
0000
1000
0000
0001
0100
0010
0000
,
0010
0000
1000
0100
0010
0000
0010
0000
,
0100
2000
3002
0203
,
0320
0000
0000
1000
,
1030
0000
1000
0000
0001
0000
0000
0001
,
0000
0000
1000
0000
0000
1000
0000
0000
,
0020
0000
0000
0030
0000
0000
0200
0000
,
0000
0300
0000
0000
0002
0000
0000
0003
,
0000
0000
2000
0000
0000
3000
0000
0000
,
0200
0000
0000
0010
0000
0000
0000
0000
,
0000
0310
0000
0000
0002
0000
0000
1000
,
0000
0000
0000
0000
0000
1003
0000
0000
,
0001
0000
0000
0100
0000
0000
0010
0000
,
0000
1000
0000
0000
0001
0000
0000
0010
,
0000
0000
0100
0000
0000
1000
0000
0000
,
0002
0000
0000
0203
0000
0000
0320
0000
,
0000
2030
0000
0000
3200
0000
0000
0320
,
0000
0000
0032
0000
0000
1003
0000
0000
,
1001
0000
0000
0110
,
0000
0000
0000
0000
1001
0000
0000
1001
,
0000
1001
0000
0000
,
1000
0100
0010
0002
,
0000
0000
1003
0010
,
0100
0002
0000
0000
,
1003
0001
0100
0020
,
0000
0000
1030
1000
,
1000
0001
0001
0001
,
0100
0100
0100
0010
,
0010
0010
2000
0000
,
0000
0000
0000
0000
,
0000
3001
0000
1000
,
1000
1000
0100
0100
,
1000
0001
0010
0000
0010
0000
0100
1000
,
0001
0001
0010
0100
,
0100
1000
0010
0010
,
0100
0000
0001
1000
0010
0000
0010
0000
,
0100
0001
1000
0000
1000
0000
0010
0000
,
2000
3002
0203
0320
,
0000
0000
1000
1000
,
1030
1001
0000
0000
;

//---------------dance-single - TaroNuke----------------
#NOTES:
     dance-single:
     TaroNuke:
     Easy:
     7:
     0.439,0.466,0.000,0.173,0.142:
0000
0000
0000
0000
,
0000
0000
0000
0000
,
0000
0000
0000
0000
,
0000
0000
0000
0000
,
0000
0000
0000
0000
,
1000
0001
1000
0001
1000
0001
0100
0000
,
0100
0000
0010
1000
0100
0000
0100
0000
,
0010
0001
0100
0000
0100
0001
1000
0001
,
0100
0000
0001
0000
0010
0000
0010
0001
,
0010
0100
0010
0000
0010
0001
0100
0000
,
0100
0000
0010
1000
0100
0000
0100
1000
,
0001
1000
0100
0010
0001
0010
0100
1000
,
0200
0000
0000
1000
,
1300
0000
1000
0001
0010
0000
0010
0000
,
0100
1000
0010
0000
0010
0001
1000
0001
,
0100
0000
0100
0000
0010
0000
0010
1000
,
0001
1000
0010
0000
0010
1000
0100
0000
,
0100
0000
0001
1000
0100
0000
0100
1000
,
0010
0100
0001
1000
0010
0100
0001
0100
,
0020
0000
0000
1000
,
1000
0000
0000
0000
1030
0000
0000
0000
1000
0000
0000
0001
0000
0000
0010
0000
,
0000
0001
0000
0000
1000
0000
0000
0001
0000
0000
0100
0000
0000
0001
0000
0000
,
1000
0000
0000
1000
0000
0000
1000
0000
0001
0000
0100
0000
0010
0000
0000
0010
,
0000
0000
0010
0000
1000
0000
0100
0000
0001
0000
0000
0001
0000
0000
0001
0000
,
0100
0000
0010
0000
0001
0000
0000
0001
0000
0000
0001
0000
1000
0000
0010
0000
,
0100
0000
0000
0100
0000
0000
0100
0000
0010
0000
1000
0000
0001
0000
0000
0001
,
0000
0000
0001
0000
0010
0000
0100
0000
1000
0000
0000
1000
0000
0000
1000
0000
,
0001
0000
0100
0000
0010
0000
0000
0010
0000
0000
0010
0000
1000
0000
0001
0000
,
1000
0100
1000
0001
0100
0001
1000
0010
,
1000
0001
0010
0001
1000
0100
0010
0001
,
0100
0010
1000
0100
0010
0001
0100
0010
,
1000
0000
0000
1000
0000
0000
0010
0000
0000
0010
0000
0000
0100
0000
0000
0100
,
0000
0000
0001
0000
0000
0001
0000
0000
1000
0000
0100
0000
0010
0000
0001
0000
,
0010
0100
1000
0001
0100
0010
1000
0010
,
0100
0100
0100
0100
0000
0000
0001
0001
,
0001
0001
0000
0000
1000
0100
1000
0001
,
0100
0001
1000
0100
0010
0001
0010
0100
,
2000
3002
0203
0320
,
0000
0000
2030
3200
,
0320
0032
0000
0000
,
2003
3020
0230
0320
,
0000
0000
0000
0000
0000
0000
1030
0000
0010
0000
1000
0000
,
0001
0000
0010
0000
0001
0000
1000
0000
0100
0000
1000
0000
,
0001
0000
0100
0000
0001
0000
1000
0000
0100
0000
0010
0000
,
0001
0000
0010
0000
0100
0000
2000
0000
0000
0000
0000
0000
,
0000
0000
0000
0000
,
0000
0000
3001
0000
0000
0000
1000
0010
,
1000
0010
1000
0010
0100
0000
0100
0000
,
0001
1000
0100
0000
0100
0000
0010
0001
,
0100
0000
0100
1000
0001
0100
0010
0000
,
0010
0000
0100
0000
0100
0001
0010
0001
,
0100
0000
0100
0001
0010
0000
0010
0000
,
1000
0001
0010
0000
0010
0001
0100
0010
,
1000
0001
0100
0010
1000
0010
0200
0000
,
0000
0000
0001
0301
,
0001
1000
0200
0000
0000
0000
0000
0000
,
0010
0000
0000
1000
0000
0000
0010
0000
,
0000
0301
0000
0000
;
