#TITLE:Clarity (ESTi's Kimchi Complextrot Remix);
#SUBTITLE:;
#ARTIST:Zedd feat. Foxes;
#TITLETRANSLIT:;
#SUBTITLETRANSLIT:;
#ARTISTTRANSLIT:;
#GENRE:;
#CREDIT:;
#BANNER:Clarity Banner.png;
#BACKGROUND:Clarity BG.png;
#LYRICSPATH:;
#CDTITLE:;
#MUSIC:[ROUND 7] - Clarity (ESTi's Kimchi Complextrot Remix).ogg;
#OFFSET:-0.062;
#SAMPLESTART:22.145;
#SAMPLELENGTH:14.769;
#SELECTABLE:YES;
#DISPLAYBPM:130.000;
#BPMS:0.000=130.000
,255.000=125.000
,256.000=115.000
,257.000=85.000
,258.000=60.000
,259.000=45.000
,262.000=125.000
,263.000=115.000
,264.000=85.000
,265.000=60.000
,266.000=45.000
;
#STOPS:16.000=0.230,
17.000=0.230,
17.500=0.230,
18.000=0.230,
19.500=0.680,
20.500=0.230,
21.500=0.230,
23.000=0.230,
251.000=0.230,
252.500=0.230,
254.000=0.230,
254.500=0.230
;
#BGCHANGES:;
#KEYSOUNDS:;
#ATTACKS:;

//---------------dance-single - ----------------
#NOTES:
     dance-single:
     :
     Hard:
     8:
     0.447,0.539,0.301,0.143,0.150,357.000,40.000,19.000,0.000,0.000,0.000,0.447,0.539,0.301,0.143,0.150,357.000,40.000,19.000,0.000,0.000,0.000: // measure 0
0000
0000
0000
0000
,  // measure 1
0000
0000
0000
0000
,  // measure 2
0000
0000
0000
0000
,  // measure 3
0000
0000
0000
0000
,  // measure 4
1001
1000
1010
0110
0101
0000
0001
1001
,  // measure 5
0000
0011
0010
0110
0100
1000
2001
0000
,  // measure 6
0100
0000
0000
0000
0010
0000
0000
0000
3001
0000
0000
0000
1000
0000
0000
0100
,  // measure 7
0000
0001
0000
0001
0000
0000
0100
0000
1000
0000
0010
0000
0100
0000
0000
0001
,  // measure 8
0000
0100
0000
0100
0000
0000
0000
0000
0110
0000
0000
0000
0100
0000
1000
0000
,  // measure 9
0000
0010
0000
0000
0001
0000
0000
1000
0000
0000
0010
0000
0001
0000
0010
0000
,  // measure 10
1000
0100
0001
0100
1000
0000
1001
0000
,  // measure 11
0001
0100
1000
0000
0001
0010
1000
0100
,  // measure 12
0001
0000
0101
0000
0100
1000
0010
0000
,  // measure 13
0100
0001
0010
0000
0100
1000
0100
0001
,  // measure 14
0000
0100
0000
0000
1000
0000
0000
0010
0000
0000
0100
0000
0001
0000
0000
0000
,  // measure 15
1000
0010
1000
0000
0001
0100
1000
0100
,  // measure 16
0010
0000
1010
0000
1000
0100
0010
0000
,  // measure 17
0001
0010
0100
0000
0010
0001
0010
1000
,  // measure 18
0000
0010
0000
0000
0001
0000
0000
0010
0000
0000
0100
0000
1000
0000
0000
0000
,  // measure 19
0001
0100
0001
0000
1000
0100
0001
0100
,  // measure 20
0010
0000
0011
0000
0001
0010
0100
0000
,  // measure 21
1000
0100
0010
0000
0100
1000
0100
0001
,  // measure 22
0100
0000
0000
1000
0000
0000
0010
0000
0000
0100
0000
0000
0001
0000
0000
0000
,  // measure 23
1000
0010
0001
0000
1000
0100
0001
0010
,  // measure 24
1000
0000
0000
0000
0011
0000
0000
0000
0001
0000
0010
0000
0100
0000
0000
1000
,  // measure 25
0000
0000
0010
0000
0000
0001
0000
0000
0010
0000
0000
1000
0000
0000
0001
0000
,  // measure 26
0000
0100
0000
0000
1000
0000
0000
0100
0000
0000
0001
0000
0000
0000
1000
0000
,  // measure 27
0002
0000
0000
0000
1000
0000
0000
0100
0000
0000
0013
0000
0200
0000
0000
1000
,  // measure 28
0000
0000
0010
0000
0000
1000
0000
0000
0301
0000
0100
0000
2000
0000
0000
0100
,  // measure 29
0000
0000
0001
0000
0000
0100
0000
0000
3010
0000
0100
0000
0002
0000
0000
0010
,  // measure 30
0000
0000
1000
0000
0000
0010
0000
0000
0103
0000
0010
0000
2000
0000
0000
0100
,  // measure 31
0000
0000
0001
0000
0000
0100
0000
0000
3010
0000
0100
0000
0002
0000
0000
0010
,  // measure 32
0000
0000
1000
0000
0000
0010
0000
0000
0103
0000
0010
0000
1000
0000
0000
1100
,  // measure 33
0000
0000
0100
0000
0000
0101
0000
0000
0001
0000
0000
0011
0000
0000
0010
0000
,  // measure 34
0000
1010
0000
0000
2000
0000
0000
0000
0002
0000
3003
0000
0001
0000
0100
0000
,  // measure 35
1000
1000
0100
0010
1000
1000
0100
0001
,  // measure 36
1000
0010
0000
0001
0010
0000
0100
1000
,  // measure 37
0010
0000
1010
0000
1001
0000
1000
0010
,  // measure 38
1000
0000
0001
0100
0001
0000
1000
0100
,  // measure 39
0001
0001
0100
0010
0001
0001
0100
1000
,  // measure 40
0001
0010
0000
1000
0010
0000
0100
0001
,  // measure 41
0010
0000
0011
0000
1001
0000
1000
0100
,  // measure 42
0001
0000
0000
0000
1000
0000
0010
0000
0001
0000
0000
0000
1000
0000
0000
0010
,  // measure 43
0000
0000
1000
0000
0000
0100
0000
0000
0001
0000
0000
0100
0000
0000
0010
0000
,  // measure 44
0000
0001
0000
0000
0100
0000
0000
1000
0000
0000
0100
0000
0001
0000
0000
0010
,  // measure 45
0000
0100
1000
0000
0010
0000
0100
0000
,  // measure 46
0001
0000
1000
0001
1000
0000
0001
1000
,  // measure 47
0001
0000
1000
0010
0100
0000
0001
0010
,  // measure 48
0100
0100
1000
0000
1100
0000
2000
0000
,  // measure 49
3100
0000
0020
0000
0031
0000
1000
0010
,  // measure 50
0100
0100
0001
0000
0101
0000
1001
0000
,  // measure 51
0001
0100
0001
0000
0101
0000
0001
0010
,  // measure 52
1000
0010
0001
0000
1001
0000
1000
0100
,  // measure 53
0001
0100
1000
0000
1001
0000
0001
0001
,  // measure 54
1000
0100
0001
0010
1000
0000
1001
0000
,  // measure 55
0001
0001
0100
1000
0100
0000
0001
0010
,  // measure 56
0100
0100
1000
0000
1001
0000
1000
1000
,  // measure 57
0100
0100
0001
0000
0101
0000
0100
1000
,  // measure 58
0100
0001
0100
0000
1100
0000
1002
0000
,  // measure 59
0013
0000
0001
0010
0100
1000
1001
0000
,  // measure 60
2001
0000
3100
0000
1000
0010
0100
0000
,  // measure 61
0001
0010
0100
0000
2001
0000
3010
0000
,  // measure 62
0001
0100
1000
0010
0001
0000
0101
0100
,  // measure 63
0010
0110
0010
1000
1010
1100
0200
0000
,  // measure 64
0302
0023
2030
0002
,  // measure 65
0000
3003
0000
0000
;

//---------------dance-single - ----------------
#NOTES:
     dance-single:
     :
     Medium:
     5:
     0.259,0.268,0.113,0.000,0.000,226.000,15.000,0.000,0.000,0.000,0.000,0.259,0.268,0.113,0.000,0.000,226.000,15.000,0.000,0.000,0.000,0.000:
0000
0000
0000
0000
,
0000
0000
0000
0000
,
0000
0000
0000
0000
,
0000
0000
0000
0000
,
0001
0000
0010
0100
1000
0000
0000
0010
,
0000
0100
0000
0001
0010
0000
0100
0000
,
1000
0010
0100
0001
,
0010
0001
0010
0100
,
1000
0100
1000
0000
,
0010
0000
0100
0000
,
0001
0000
1000
0001
,
0010
0000
0100
0010
0100
0000
1000
0000
,
0010
0000
0100
0010
0100
0000
0001
0000
,
1000
0001
1000
0010
,
0100
0010
0100
0001
,
0010
0000
0100
0010
0100
0000
1000
0000
,
0010
0000
0100
0010
0100
0000
0001
0000
,
0010
0100
1000
0010
,
0100
0001
1000
0010
,
0100
0000
0010
0100
0010
0000
1000
0000
,
0001
0000
1000
0001
1000
0000
0001
0000
,
0010
0100
1000
0010
,
0100
0001
1000
0001
,
0010
0000
0100
0010
0100
0000
1000
0000
,
0010
0000
0100
0010
0100
0000
0001
0000
,
1000
0001
1000
0001
,
0010
0100
1000
0001
,
0000
0001
0000
1000
,
0000
1000
0000
0001
,
0010
0100
1000
0010
,
0100
0001
1000
0001
,
0000
0001
0000
1000
,
0000
1000
0000
0001
,
0010
0100
1000
0001
,
1000
0000
1001
0000
0000
0000
0001
0010
,
0001
0000
0010
0100
0010
0000
0100
1000
,
0100
1100
0000
1000
,
0010
0100
0001
1000
,
0001
0000
1000
0000
0001
0000
1000
0010
,
1000
0000
0100
0010
0100
0000
0010
0001
,
0010
0011
0000
0001
,
0000
1000
0000
0001
,
0000
1000
0000
0001
,
0010
0000
0100
0000
1000
0000
0100
1000
,
0100
0000
1000
0100
1000
0000
0010
0000
,
0100
0000
0001
0000
0010
0000
0001
0010
,
0001
0000
0010
0001
0010
0000
0001
0000
,
0010
0100
1000
0010
,
0010
0100
0100
0001
,
1000
0010
0100
0001
,
0001
1000
1000
0100
,
0000
0010
0000
0001
,
0010
0001
0000
0010
,
0000
0100
0000
1000
,
0100
0001
0010
1000
,
0010
0100
0001
0010
,
0100
1000
0000
0001
,
0000
1000
0000
0001
,
1000
0001
0000
0011
,
0000
0110
0000
1100
,
0000
1010
0000
0110
,
0000
0101
0000
1001
,
0000
0000
0000
1010
,
0000
0110
0000
0000
0110
0101
0001
0000
,
0010
0100
1000
1001
;

//---------------dance-single - ----------------
#NOTES:
     dance-single:
     :
     Easy:
     3:
     0.177,0.219,0.045,0.000,0.000,159.000,6.000,0.000,0.000,0.000,0.000,0.177,0.219,0.045,0.000,0.000,159.000,6.000,0.000,0.000,0.000,0.000:
0000
0000
0000
0000
,
0000
0000
0000
0000
,
0000
0000
0000
0000
,
0000
0000
0000
0000
,
0001
0000
0010
0100
1000
0000
0000
0010
,
0000
0100
0000
0001
0010
0000
0100
0000
,
1000
0010
0100
0001
,
0001
1000
1000
0010
,
0100
0001
0000
0010
,
0000
0100
0000
1000
,
0001
1000
0001
1000
,
1000
0010
0010
0100
,
0100
0001
0001
1000
,
0001
1000
0001
0010
,
0000
0100
0000
1000
,
1000
0001
0001
1000
,
0001
1000
0001
0010
,
0010
0100
0100
1000
,
0000
0001
0000
1000
,
0010
1000
0010
0100
,
0001
0100
0001
0010
,
0000
0100
0000
1000
,
0000
0010
0000
0100
,
0001
0100
0001
0100
,
0010
0100
0010
1000
,
0000
0001
0000
1000
,
0000
0001
0000
0010
,
0000
0000
0000
0100
,
0000
0000
0000
1000
,
0000
0000
0000
0010
,
0000
0000
0000
0100
,
0000
0000
0000
0001
,
0000
0000
0000
0010
,
0100
1000
0001
1001
,
1000
1001
0000
0001
,
0000
0001
0000
1000
,
0000
1000
0000
0001
,
0010
0100
1000
0001
,
0001
1000
1000
0001
,
0000
0001
0000
0010
,
0000
0100
0000
1000
,
0000
0000
0000
0001
,
0000
0000
0000
0001
,
0010
0100
1000
0001
,
0001
1000
1000
0010
,
0100
0001
1000
0001
,
0000
1000
0000
0001
,
0000
0001
0000
1000
,
0000
1000
0000
0001
,
0000
0001
0000
1000
,
0000
1000
0000
0001
,
0000
0010
0000
0100
,
0000
1000
0000
0001
,
0000
1000
0000
0001
,
0000
0000
0000
1000
,
0000
0010
0000
0100
,
0000
0001
0000
1000
,
0000
0001
0000
1000
,
0001
1000
0000
0001
,
0000
0000
0000
0001
,
0000
0000
0000
1000
,
0000
0000
0000
1000
,
0000
0000
0000
1001
,
0000
0110
0000
0000
1001
0110
0001
0000
,
0010
0100
1000
0001
;
