#TITLE:THIS NIGHT (jubeat EDITION);
#SUBTITLE:;
#ARTIST:TËЯRA;
#TITLETRANSLIT:;
#SUBTITLETRANSLIT:;
#ARTISTTRANSLIT:TERRA;
#GENRE:;
#CREDIT:;
#BANNER:banner.png;
#BACKGROUND:background.png;
#LYRICSPATH:;
#CDTITLE:;
#MUSIC:[ROUND 6] - THIS NIGHT (jubeat EDITION).ogg;
#OFFSET:0.000;
#SAMPLESTART:37.500;
#SAMPLELENGTH:12.000;
#SELECTABLE:YES;
#BPMS:0.000=160.000;
#STOPS:;
#BGCHANGES:;
#KEYSOUNDS:;

//---------------dance-single - Ama-tan----------------
#NOTES:
     dance-single:
     Ama-tan:
     Hard:
     8:
     0.612,0.633,0.407,0.866,0.000:
0000
0000
0000
0000
,
2000
0000
0000
3020
,
0230
0000
0302
0023
,
0230
0000
0000
2300
0000
0000
3002
0000
,
0203
0000
0320
2030
,
3002
0000
0203
0320
,
0032
0203
2300
3020
,
0230
0000
0000
0302
0000
0000
2003
0000
,
3200
0000
0320
0032
,
2003
0000
0000
3002
,
0023
0000
0032
2003
,
3020
0000
0000
0230
0000
0000
0302
0000
,
2003
0000
3020
2030
,
3002
0000
0023
0230
,
0302
0023
2030
3002
,
0023
0000
0000
0100
0200
0000
0000
0330
,
0110
1100
0101
0110
,
1000
0100
0010
0000
1000
0100
0010
0000
,
1000
0100
0001
0100
1000
0000
0000
0000
,
0001
0100
0010
0000
0001
0100
0010
0000
,
0001
1000
0010
0000
0000
0000
0000
0000
,
1000
0001
0100
0000
1000
0001
0100
0000
,
1000
0001
0100
0010
0100
0000
0000
0000
,
0001
0100
1000
0000
0001
0100
1000
0000
,
0001
0010
1000
0010
0001
0000
1001
0000
,
1000
0100
0010
0100
1000
0010
0001
0010
,
0100
0001
0020
0000
0100
0000
0031
0000
,
0001
0100
0010
0100
0001
0010
1000
0010
,
0100
1000
0020
0000
0100
0000
1030
0000
,
1000
0010
0001
0010
0100
0001
0010
1000
,
0010
0100
2000
0000
0010
0000
3001
0000
,
0001
0010
1000
0010
0100
1000
0010
0001
,
0010
0100
0001
0010
0200
0000
1300
0000
,
1200
0301
0110
1001
,
1200
0301
0110
1001
,
1200
0301
0110
1001
,
1000
0100
0001
0100
1000
0000
0001
0000
,
0201
1300
0110
1001
,
0201
1300
0110
1001
,
0201
0000
1300
0000
1000
0100
0001
0010
,
0200
2300
3002
1003
,
1000
0200
0310
0002
1003
0020
0130
0002
,
0013
0110
1100
1001
,
0120
0000
0000
0000
,
2030
0000
0000
0000
,
3200
0000
0000
0320
0000
0000
0032
0000
,
2003
0000
3002
0023
,
0230
0000
0000
2300
0000
0000
3020
0000
,
0032
0203
0320
0032
,
2003
0000
0000
3020
0000
0000
0230
0000
,
0302
0003
0011
0110
,
1000
0100
0010
0100
1000
0010
0100
0100
,
0001
0100
0010
0100
0001
0010
0100
0100
,
1000
0010
1000
0100
0010
0001
0010
0100
,
2000
0000
3010
1001
,
0001
0100
1000
0100
0001
0010
0100
0010
,
0001
0010
1000
0010
0001
0100
1000
0100
,
0020
0000
0000
1000
2000
0000
3030
0000
,
1010
0011
1010
0011
,
0001
0010
0110
0000
1000
0010
0100
0000
,
0001
0100
0110
0000
1000
0100
0010
0000
,
0110
0000
0000
1001
0000
0000
0110
0000
,
1001
1000
0010
0000
1001
0001
0010
0000
,
0100
1000
0001
1000
0010
1000
0100
0010
,
0001
0100
0001
1000
0001
0100
0010
1000
,
0001
0100
1000
0001
0010
1000
0001
0100
,
0001
0010
1000
0001
0100
0000
1001
0000
,
1000
0010
0110
0000
0001
0010
0100
0000
,
1000
0100
0110
0000
0001
0100
0010
0000
,
2000
0000
0000
3200
0000
0000
0302
0000
,
0023
0000
0230
0302
,
2003
0000
0000
3020
0000
0000
0230
0000
,
0302
0023
2030
3200
,
0320
0000
0000
0100
0200
0000
0000
0330
,
0110
1100
0101
0110
,
2002
0000
0000
0000
,
0000
0000
0000
0000
,
3003
0000
0000
0000
;

//---------------dance-single - TaroNuke----------------
#NOTES:
     dance-single:
     TaroNuke:
     Beginner:
     2:
     0.161,0.200,0.069,0.026,0.000:
0000
0000
0000
0000
,
1000
0000
1000
0000
,
0001
0000
0001
0000
,
0010
0000
0010
0000
,
0100
0000
0000
0000
,
0010
0000
0010
0000
,
0100
0000
0100
0000
,
0001
0000
0001
0000
,
1000
0000
0000
0000
,
0001
0000
1000
0000
,
0010
0000
0000
0000
,
1000
0000
0001
0000
,
0010
0000
0000
0000
,
0100
0000
0100
0000
,
0100
0000
0100
0000
,
0200
0000
0000
0000
,
0000
0000
0300
0000
,
1000
0000
1000
0000
,
1000
0000
0000
0000
,
0001
0000
0001
0000
,
0001
0000
0000
0000
,
0100
0000
0100
0000
,
0100
0000
0000
0000
,
0010
0000
0010
0000
,
0010
0000
0000
0000
,
1000
0000
0100
0000
,
1000
0000
0000
0000
,
0100
0000
0001
0000
,
0100
0000
0000
0000
,
0001
0000
0010
0000
,
0001
0000
0000
0000
,
0010
0000
1000
0000
,
0010
0000
0000
0000
,
1000
0000
0100
0000
,
0001
0000
0010
0000
,
1000
0000
0100
0000
,
0001
0000
0010
0000
,
1000
0000
0010
0000
,
0001
0000
0100
0000
,
1000
0000
0010
0000
,
0001
0000
0100
0000
,
1000
0100
1000
0000
,
0100
0010
0001
0000
,
1001
0000
0000
0000
,
0000
0000
0000
0000
,
0110
0000
0000
0000
,
0000
0000
0000
0000
,
1001
0000
0000
0000
,
0000
0000
0000
0000
,
0110
0000
0110
0000
,
0110
0000
0000
0000
,
1000
0000
1000
0000
,
0100
0000
0100
0000
,
0001
0000
0001
0000
,
0100
0000
0000
0000
,
1000
0000
0100
0000
,
0001
0000
0100
0000
,
1000
0000
0000
0000
,
0000
0000
0000
0000
,
0001
0000
0001
0000
,
0100
0000
0100
0000
,
1000
0000
1000
0000
,
0100
0000
0000
0000
,
0001
0000
0001
0000
,
0010
0000
0010
0000
,
1000
0000
1000
0000
,
0010
0000
0000
0000
,
0001
0000
0001
0000
,
1000
0000
1000
0000
,
0010
0000
0010
0000
,
0001
0000
0001
0000
,
0100
0000
0100
0000
,
1000
0000
0010
0000
,
0001
0000
0100
0000
,
0110
0000
0000
0000
,
2002
0000
0000
0000
,
0000
0000
0000
0000
,
3003
0000
0000
0000
;

//---------------dance-single - TaroNuke----------------
#NOTES:
     dance-single:
     TaroNuke:
     Medium:
     6:
     0.451,0.467,0.095,0.312,0.000:
0000
0000
0000
0000
,
1000
0100
1000
0100
,
0010
0001
0010
0001
,
0100
0000
0000
0100
0000
0000
0100
0000
,
1001
0000
0000
0000
,
0001
0100
0001
0100
,
0010
1000
0010
1000
,
0100
0000
0000
0100
0000
0000
0100
0000
,
1001
0000
0000
0000
,
1000
0100
1000
0100
0010
0100
1000
0000
,
0001
0100
0001
0100
0010
0100
0001
0000
,
0101
0000
0000
1100
0000
0000
0101
0000
,
1001
0000
0020
0230
,
0301
0100
0010
0100
0010
1000
0010
0100
,
0001
0010
0100
0010
0100
1000
0100
0010
,
0002
0000
0000
1000
2000
0000
0000
0000
,
3003
0000
0000
0000
,
1000
0100
0010
0000
0100
0010
0001
0000
,
0010
0001
1000
0000
0000
0000
0000
0000
,
1000
0010
0100
0000
0010
0100
0001
0000
,
0100
0001
1000
0000
0000
0000
0000
0001
,
0001
0010
0100
0000
0010
0100
1000
0000
,
0100
1000
0001
0000
0000
0000
0000
0000
,
0001
0100
0010
0000
0100
0010
1000
0000
,
0010
0100
0010
0001
0010
0000
0100
0000
,
1000
0100
1000
0000
0100
0001
0100
0000
,
0001
0010
0001
0000
0000
0000
0000
0000
,
0010
1000
0010
0000
1000
0100
1000
0000
,
0100
0001
0100
0000
0000
0000
0000
0000
,
1000
0100
1000
0000
0010
1000
0010
0000
,
0001
0010
0001
0000
0000
0000
0000
0000
,
0100
0001
0100
0000
1000
0100
1000
0000
,
0001
0100
0010
0100
0001
0000
1001
0000
,
1000
0100
1000
0100
1000
0000
0000
0000
,
0001
0100
0001
0100
0001
0000
0000
0000
,
0100
0010
0100
0010
0100
0000
0000
0000
,
0010
0100
0010
0001
0010
0000
0000
0000
,
1000
0010
1000
0010
1000
0000
0000
0000
,
0001
0010
0001
0010
0001
0000
0000
0000
,
0010
0100
0010
0100
0010
0000
0100
0000
,
2000
3002
0023
0032
,
0103
0100
0100
0100
,
0020
2030
3002
0023
,
0130
0000
0000
0000
,
1000
0000
0000
0000
,
0020
0000
0000
0230
0000
0000
0302
0000
,
1003
0000
0010
0100
,
0001
1000
0100
1000
,
0001
0010
0100
0010
,
0002
0000
0000
0203
0000
0000
0320
0000
,
1030
0000
0001
0100
,
0010
1000
0100
1000
0010
0000
0100
0000
,
0001
0010
0100
0010
0001
0000
0010
0000
,
0110
0000
0000
1100
0000
0000
0110
0000
,
0011
0000
1000
0001
,
0100
0010
0100
0000
0010
1000
0010
0000
,
0100
0001
0100
0000
0010
0100
0010
0000
,
2000
0000
0000
0100
0200
0000
3300
0000
,
2000
3002
0203
0320
,
1030
0100
0010
0001
,
1000
0010
0100
0010
,
2000
0000
0000
3002
0000
0000
0023
0000
,
0130
0100
0100
0100
,
1000
0010
0100
0001
,
1000
0100
0010
0100
,
2000
0000
0000
3002
0000
0000
0023
0000
,
0130
0100
0100
0100
,
1000
0100
0001
0100
,
0010
0001
1000
0010
,
0200
0000
0000
0302
0000
0000
2003
0000
,
3100
0100
0100
0100
,
1000
0100
0010
0001
0100
0010
0100
0001
,
0010
0100
1000
0100
0010
0100
1000
0001
,
0200
0000
0000
0310
0020
0000
0000
0030
,
0100
0100
0100
0100
,
0200
0000
0000
0000
,
0000
0000
0000
0000
,
0300
0000
0000
0000
;

//---------------dance-single - Beginner----------------
#NOTES:
     dance-single:
     Beginner:
     Easy:
     4:
     0.315,0.300,0.216,0.165,0.000:
0000
0000
0000
0000
,
1000
0100
1000
0000
,
0001
0100
0001
0000
,
1000
0100
0010
0001
,
0100
0000
0010
0100
,
0001
0010
0001
0000
,
1000
0010
1000
0000
,
0001
0010
0100
1000
,
0010
0000
1000
1000
,
0001
0100
0001
0000
,
1000
0100
1000
0000
,
0001
0100
0010
1000
,
0100
0000
0010
0100
,
1000
0010
1000
0000
,
0001
0010
0001
0000
,
1000
0010
0100
0001
,
0010
0010
0010
0010
,
1001
0000
1100
0000
,
1001
0000
0000
0000
,
1001
0000
0101
0000
,
1001
0000
0000
0000
,
1001
0000
1010
0000
,
1001
0000
0000
0000
,
1001
0000
0011
0000
,
1001
0000
1000
1000
,
0010
0010
0100
0100
,
0001
0001
0001
0000
,
0010
0010
0100
0100
,
1000
1000
1000
0000
,
0001
0001
0100
0100
,
0010
0010
0010
0000
,
1000
1000
0100
0100
,
0010
0010
0010
0001
,
0200
0000
0300
0000
,
0200
0000
0300
0000
,
0200
0000
1300
0000
,
0200
0000
0301
1000
,
0200
0000
0300
0000
,
0200
0000
0300
0000
,
0200
0000
0301
0000
,
0200
0000
1300
0000
,
0110
0000
0000
0000
,
1001
0000
0110
0000
,
1000
0000
0000
0000
,
1000
0000
0000
0000
,
0001
0000
0000
0001
0000
0000
0001
0000
,
0001
0000
0002
0000
,
1003
0100
1000
0010
,
0100
0001
0010
0001
,
1000
0000
0000
0001
0000
0000
0010
0000
,
0200
0000
2300
0000
,
3001
0001
0001
0100
,
0010
0010
0010
1000
,
0100
0100
0100
0010
,
1001
0000
0002
0000
,
1003
1000
1000
0010
,
0100
0100
0100
0001
,
0020
0000
0000
0000
,
0200
0000
0330
0000
,
1000
0110
0001
1000
,
0001
0110
1000
0100
,
0010
0000
0000
0010
0000
0000
0010
0000
,
1001
0000
0001
1000
,
0100
0011
0100
1000
,
0001
1010
0100
0001
,
0010
0000
0000
0010
0000
0000
0010
0000
,
1001
0000
0001
1000
,
0001
0110
1000
0001
,
1000
0110
0001
0100
,
0010
0000
0000
0010
0000
0000
0010
0000
,
1001
0000
1000
0001
,
0010
0100
1000
0010
,
1000
0100
0010
0001
,
2000
0000
0020
3000
,
0200
0030
0002
0300
,
2000
0000
0000
0000
,
0000
0000
0000
0000
,
3003
0000
0000
0000
;
