#VERSION:0.81;
#TITLE:Secrets;
#SUBTITLE:;
#ARTIST:good-cool feat. CHiCO;
#TITLETRANSLIT:;
#SUBTITLETRANSLIT:;
#ARTISTTRANSLIT:;
#GENRE:;
#ORIGIN:;
#CREDIT:;
#BANNER:[ROUND 6] - Secrets.png;
#BACKGROUND:[ROUND 6] - Secrets-bg.png;
#PREVIEWVID:;
#JACKET:AlbumArtSmall.jpg;
#CDIMAGE:[ROUND 6] - Secrets-jacket.png;
#DISCIMAGE:;
#LYRICSPATH:;
#CDTITLE:;
#MUSIC:[ROUND 6] - Secrets.mp3;
#OFFSET:-0.362;
#SAMPLESTART:46.732;
#SAMPLELENGTH:14.400;
#SELECTABLE:YES;
#BPMS:0.000=150.000;
#STOPS:;
#DELAYS:;
#WARPS:;
#TIMESIGNATURES:0.000=4=4;
#TICKCOUNTS:0.000=4;
#COMBOS:0.000=1;
#SPEEDS:0.000=1.000=0.000=0;
#SCROLLS:0.000=1.000;
#FAKES:;
#LABELS:0.000=Song Start;
#BGCHANGES:;
#KEYSOUNDS:;
#ATTACKS:
;

//---------------dance-single - ----------------
#NOTEDATA:;
#CHARTNAME:;
#STEPSTYPE:dance-single;
#DESCRIPTION:;
#CHARTSTYLE:;
#DIFFICULTY:Hard;
#METER:10;
#RADARVALUES:0.776,0.742,0.254,0.172,0.594,611.000,31.000,21.000,0.000,0.000,0.000,0.000,0.000,0.776,0.742,0.254,0.172,0.594,611.000,31.000,21.000,0.000,0.000,0.000,0.000,0.000;
#CREDIT:;
#NOTES:
// measure 0
0000
0000
0000
0000
,  // measure 1
0000
0000
0000
0000
,  // measure 2
0000
0000
0000
0000
,  // measure 3
0000
0000
0000
0000
0000
0000
0001
0100
,  // measure 4
0010
0100
0000
0001
0010
0000
0100
0000
1000
0000
0010
0100
0000
0001
0010
0000
,  // measure 5
0001
0100
0000
0010
0100
0000
0010
0000
1000
0000
0100
1000
0000
0001
0010
0000
,  // measure 6
0001
1000
0000
0100
0010
0000
0001
0000
1000
0000
0010
1000
0000
0001
0100
0000
,  // measure 7
0010
0000
0001
0000
0010
0000
1000
0000
0001
0100
0001
0100
0001
1000
0001
1000
,  // measure 8
0001
0010
0000
0001
1000
0000
0100
0000
0010
0000
0001
0010
0000
0100
1000
0000
,  // measure 9
0100
0010
0000
0001
1000
0000
0010
0000
1000
0000
0001
1000
0000
0010
1000
0000
,  // measure 10
0010
0100
0000
0001
0010
0000
0001
0000
1000
0000
0001
0100
0000
0001
0010
0000
,  // measure 11
0101
0001
0010
0100
1100
1000
0001
0100
,  // measure 12
0010
0100
0010
0100
0010
1000
0010
2000
0002
0000
3003
0000
1001
0000
0000
0000
,  // measure 13
1000
0010
0100
0010
1000
0100
0001
0100
,  // measure 14
1000
0010
0100
0001
0010
0001
0101
0100
,  // measure 15
0110
0010
1010
1000
0010
0001
0010
1000
,  // measure 16
0001
0011
0010
0110
0100
1100
1000
1010
,  // measure 17
0101
0100
0001
0010
0100
0001
0100
1000
,  // measure 18
0010
0100
0001
1000
0001
0010
0110
0100
,  // measure 19
1100
1000
1001
0001
0100
0010
1000
0001
,  // measure 20
0010
0000
0000
0000
0000
0000
0000
0000
0001
0100
0000
0010
0000
1000
0001
0000
,  // measure 21
2000
0000
3010
0100
0002
0000
0013
0001
,  // measure 22
0100
0010
0001
0010
1000
0100
0010
0001
,  // measure 23
0100
0000
0020
0000
2030
0000
3002
0000
2003
0000
0000
3200
0000
0000
0310
0000
,  // measure 24
0000
0000
0002
0000
2003
0000
3020
0000
0130
0010
0100
0010
1000
0001
1000
0001
,  // measure 25
1000
0010
0100
0010
1000
0100
0001
0100
,  // measure 26
1000
0010
0100
0001
0010
0001
0100
0010
,  // measure 27
0001
0000
0020
0000
2030
0000
3002
0000
0013
0000
0000
1001
0000
0000
0000
0000
,  // measure 28
2000
0000
3020
0000
0230
0000
0302
0000
0013
0001
0010
0001
1000
0001
1000
0001
,  // measure 29
1000
0010
0100
0010
1000
0100
0001
0100
,  // measure 30
0010
0001
0100
0010
1000
0001
0010
0100
,  // measure 31
1000
0000
1000
0001
0000
0001
0100
0000
,  // measure 32
0001
0010
0001
0010
0100
1000
0100
1000
,  // measure 33
0001
0010
0001
1000
0001
0100
0001
0010
,  // measure 34
0001
0100
0010
1000
0010
0100
1000
0100
,  // measure 35
0001
0000
1000
0001
0000
0010
0100
0000
,  // measure 36
1000
0010
0100
0010
1000
0001
0010
0001
,  // measure 37
1000
0010
0000
0000
0010
1000
0000
0000
1000
0100
0000
1100
0000
1000
0010
0100
,  // measure 38
0001
0000
0010
0100
0000
1000
0010
0000
0100
0000
0000
0001
1000
0000
0100
0000
,  // measure 39
0001
0000
0100
0010
0000
0001
0100
0000
0001
0000
0000
1000
0001
0100
0010
1000
,  // measure 40
0100
0000
1000
0010
0000
1000
0001
0000
1000
0000
0000
0100
0001
0000
0100
0000
,  // measure 41
0010
0001
0010
0001
1000
0001
1000
0001
1000
0001
0000
0100
0010
0000
1000
0000
,  // measure 42
0001
0100
0001
0010
0001
1000
0100
0010
,  // measure 43
0001
0100
0001
0010
0100
1000
0010
0100
0001
0000
1000
0010
0100
0001
1000
0001
,  // measure 44
1000
0010
0100
0001
0010
1000
0010
0001
,  // measure 45
1000
0010
1000
0010
0100
0010
0100
0010
0100
0001
0010
0100
1000
0001
1000
0001
,  // measure 46
1000
0010
0100
0001
1000
0000
0100
0000
,  // measure 47
0001
0100
1000
0010
0100
0000
0001
0000
,  // measure 48
0010
0001
0100
0010
1000
1000
1000
0000
,  // measure 49
0001
0000
1000
0000
0010
0000
1000
0000
0001
0010
0001
0010
0100
1000
0100
1000
,  // measure 50
0001
1000
0010
0100
0001
0000
0101
0000
,  // measure 51
0100
0010
0001
0010
1000
0000
1001
0000
,  // measure 52
1000
0001
0010
0100
1100
1100
1100
0000
,  // measure 53
1000
0010
0100
0010
2000
0000
3002
0000
,  // measure 54
1003
0000
0010
0000
1000
0000
0000
0000
0100
0010
0001
0100
0010
1000
0000
0001
,  // measure 55
1000
0010
0000
0100
0000
0010
1000
0000
0100
0000
0010
0000
0001
0000
0100
0000
,  // measure 56
0010
1000
0000
0001
0000
1000
0010
0000
0100
0000
0000
0000
1001
0000
0000
0000
,  // measure 57
1000
0100
0000
1000
0000
0001
1000
0000
0001
0000
0100
0000
0010
0000
1000
0000
,  // measure 58
0001
0100
0010
0100
0001
0100
0000
0010
1000
0010
0100
0010
0001
0010
0000
1000
,  // measure 59
0001
1000
0000
0010
0000
1000
0100
0000
0010
0000
0001
0000
1000
0000
0001
0000
,  // measure 60
0100
0010
0000
0100
0000
0001
0010
0000
0011
0000
0110
0000
1100
0000
0000
0000
,  // measure 61
1000
0001
0000
0100
0000
0010
0100
0000
0001
0000
1000
0000
0100
0000
1000
0000
,  // measure 62
0001
0100
0001
0100
0001
1000
0000
0001
1000
0100
1000
0100
1000
0010
0000
0100
,  // measure 63
0001
0100
0010
0100
0001
0010
0100
1000
,  // measure 64
0001
0100
0010
1000
0001
0000
0010
0000
,  // measure 65
0001
0100
0010
1000
0100
0001
0100
1000
,  // measure 66
0010
0000
0100
0000
0001
0000
1000
0000
0100
1000
0100
1000
0001
1000
0000
0001
,  // measure 67
1000
0010
1000
0001
0010
0100
0010
0001
,  // measure 68
1000
0010
0100
0001
0101
0101
1010
1010
,  // measure 69
1010
1000
0100
1000
0010
1000
0001
0010
,  // measure 70
1000
0000
0010
0000
0001
0000
0100
0000
0010
0100
0001
1000
0100
1000
0000
0010
,  // measure 71
1000
0100
1000
0010
0100
0001
0000
1000
0010
1000
0100
0010
0001
1000
0000
0001
,  // measure 72
0100
0010
1000
0001
0010
0100
0000
1001
0000
0000
0000
0000
0000
0000
0000
0000
;

//---------------dance-single - ----------------
#NOTEDATA:;
#CHARTNAME:;
#STEPSTYPE:dance-single;
#DESCRIPTION:;
#CHARTSTYLE:;
#DIFFICULTY:Medium;
#METER:7;
#RADARVALUES:0.446,0.416,0.148,0.098,0.070,351.000,18.000,12.000,0.000,0.000,0.000,0.000,0.000,0.446,0.416,0.148,0.098,0.070,351.000,18.000,12.000,0.000,0.000,0.000,0.000,0.000;
#CREDIT:;
#NOTES:
// measure 0
0000
0000
0000
0000
,  // measure 1
0000
0000
0000
0000
,  // measure 2
0000
0000
0000
0000
,  // measure 3
0000
0000
0000
0000
,  // measure 4
1000
0000
0000
0000
0010
0000
0000
0000
0100
0000
0000
0100
0000
0000
0100
0000
,  // measure 5
0010
0000
0000
0000
1000
0000
0000
0000
0001
0000
0000
0001
0000
0000
0001
0000
,  // measure 6
1000
0000
0000
0000
0100
0000
0000
0000
0010
0000
0000
0010
0000
0000
0010
0000
,  // measure 7
0001
0000
0100
0000
0010
1000
0100
0010
,  // measure 8
0001
0000
0000
0000
1000
0000
0000
0000
0010
0000
0000
0100
0000
0000
0010
0000
,  // measure 9
0100
0000
0000
0000
0001
0000
0000
0000
1000
0000
0000
0100
0000
0000
1000
0000
,  // measure 10
0100
0000
0000
0000
1000
0000
0000
0000
0001
0000
0000
0010
0000
0000
0001
0000
,  // measure 11
0010
0000
0001
0100
0001
0000
1000
0010
,  // measure 12
1000
0001
1000
0010
0100
0000
1001
0000
,  // measure 13
1000
0010
0100
0010
,  // measure 14
1000
0001
0010
0011
,  // measure 15
1001
0000
1010
0000
1000
0001
1000
0000
,  // measure 16
0001
0100
0000
0010
0000
1000
0000
0001
,  // measure 17
1000
0010
0100
0001
,  // measure 18
0010
0100
1000
1100
,  // measure 19
0011
0000
1001
0000
0001
0100
0001
0000
,  // measure 20
1001
0000
0000
0000
0000
0000
0000
0000
1000
0000
0000
0001
0000
0000
1000
0000
,  // measure 21
0010
0000
1000
0001
1000
0000
0100
0010
,  // measure 22
0100
0000
0010
0000
0001
0010
0001
0000
,  // measure 23
0100
0000
0000
0000
0010
0000
0000
0000
1000
0000
0000
0010
0000
0000
1000
0000
,  // measure 24
0000
0001
0010
0000
0001
1000
0010
0100
,  // measure 25
0001
0000
1000
0000
0010
0100
0010
1000
,  // measure 26
0010
0000
1000
0000
0001
0010
0001
1000
,  // measure 27
0001
0000
0000
0000
0010
0000
0000
0000
0100
0000
0000
1000
0000
0000
0000
0000
,  // measure 28
0010
0000
0100
0000
0001
0010
0001
1000
,  // measure 29
0010
0000
0100
0000
0001
1000
0001
0100
,  // measure 30
0001
0000
0010
0000
0100
1000
0010
1000
,  // measure 31
0001
0000
0100
0000
0010
0100
0010
1000
,  // measure 32
0020
2030
3002
0013
,  // measure 33
0100
0000
1000
0000
0010
1000
0010
0100
,  // measure 34
0001
0000
0010
0000
0100
0001
0100
1000
,  // measure 35
0010
0000
0100
0000
0001
1000
0001
0010
,  // measure 36
0002
0203
0320
1030
,  // measure 37
1001
0000
0000
0000
1001
0000
0000
0000
1000
0000
0000
0001
0000
0000
1000
0000
,  // measure 38
0001
0000
1000
0000
0010
0000
0100
0010
,  // measure 39
0100
0000
0001
0000
0010
0000
0100
1000
,  // measure 40
0100
1000
0010
0100
,  // measure 41
0001
0100
0001
0100
0010
1000
0010
1000
,  // measure 42
0010
0100
0001
0101
,  // measure 43
0001
0000
0010
0000
0100
0000
1000
0100
,  // measure 44
1000
0001
0100
0110
,  // measure 45
0010
0000
1000
0000
0010
0100
0001
0010
,  // measure 46
0100
1000
0020
1030
,  // measure 47
0100
1000
0002
1003
,  // measure 48
0001
0000
0100
0000
0010
1000
0020
0000
,  // measure 49
1030
0000
0100
0000
1000
0001
0010
0001
,  // measure 50
1000
0100
0020
0130
,  // measure 51
0010
0001
0200
0301
,  // measure 52
0100
0000
0010
0000
1000
0100
2000
0000
,  // measure 53
3001
0000
1000
0000
0010
1000
0001
0100
,  // measure 54
0010
0000
0100
0000
0001
0010
0001
0000
,  // measure 55
1000
0000
0000
0001
0000
0000
1000
0000
0100
0000
0000
0000
0010
0000
0000
0000
,  // measure 56
0001
0000
0000
0010
0000
0000
0001
0000
0010
0000
0000
0000
0100
0000
0000
0000
,  // measure 57
1000
0000
0000
0100
0000
0000
1000
0000
0100
0000
0000
0000
1000
0000
0000
0000
,  // measure 58
0010
1000
0010
0000
0100
0010
0100
0000
,  // measure 59
0001
0000
0000
0001
0000
0000
0001
0000
1000
0000
0000
0000
0001
0000
0000
0000
,  // measure 60
0010
0000
0000
0010
0000
0000
0010
0000
0100
0000
1000
0000
0100
0000
0000
0000
,  // measure 61
1000
0000
0000
1000
0000
0000
1000
0000
0001
0000
0000
0000
1000
0000
0000
0000
,  // measure 62
0001
0010
0001
0000
1000
0001
1000
0000
,  // measure 63
0001
0000
1000
0000
0100
1000
0100
0000
,  // measure 64
1000
0001
1001
1001
,  // measure 65
0001
0000
0100
0000
0010
0100
0010
0000
,  // measure 66
1000
0000
0001
0000
1000
0001
1000
0000
,  // measure 67
0001
0100
0101
0101
,  // measure 68
0100
0000
0010
0000
1000
0010
1000
0010
,  // measure 69
1000
0100
0011
0011
,  // measure 70
0001
0000
1000
0000
0010
1000
0001
0000
,  // measure 71
0001
0010
0100
0000
0100
1000
0001
0000
,  // measure 72
0001
0000
0100
0000
0010
0000
0000
0100
0000
0000
0000
0000
0000
0000
0000
0000
;

//---------------dance-single - ----------------
#NOTEDATA:;
#CHARTNAME:;
#STEPSTYPE:dance-single;
#DESCRIPTION:;
#CHARTSTYLE:;
#DIFFICULTY:Easy;
#METER:4;
#RADARVALUES:0.310,0.267,0.033,0.057,0.000,254.000,4.000,7.000,0.000,0.000,0.000,0.000,0.000,0.310,0.267,0.033,0.057,0.000,254.000,4.000,7.000,0.000,0.000,0.000,0.000,0.000;
#CREDIT:;
#NOTES:
// measure 0
0000
0000
0000
0000
,  // measure 1
0000
0000
0000
0000
,  // measure 2
0000
0000
0000
0000
,  // measure 3
0000
0000
0000
0000
,  // measure 4
1000
0010
0100
0100
,  // measure 5
0001
0010
0100
0100
,  // measure 6
0010
0001
1000
1000
,  // measure 7
0001
1000
0001
1000
,  // measure 8
0010
0100
0001
0001
,  // measure 9
1000
0100
0010
0010
,  // measure 10
0001
1000
0010
0010
,  // measure 11
0100
0000
0010
0000
,  // measure 12
1000
0001
2000
3001
,  // measure 13
1000
0010
0100
0010
,  // measure 14
1000
0001
0010
0100
,  // measure 15
0100
0100
0010
0001
,  // measure 16
0100
0000
0010
0000
,  // measure 17
1000
0010
1000
0010
,  // measure 18
1000
0001
1000
0001
,  // measure 19
0010
0001
0010
0001
,  // measure 20
1001
0000
1001
0000
,  // measure 21
1000
1000
0001
0001
,  // measure 22
0100
0010
1000
1000
,  // measure 23
0001
1000
0002
0000
,  // measure 24
0013
0100
2000
0000
,  // measure 25
3010
0100
0010
1000
,  // measure 26
0001
0001
1000
1000
,  // measure 27
0001
0010
0100
0000
,  // measure 28
1000
1000
0010
0010
,  // measure 29
0100
0001
0010
0001
,  // measure 30
1000
0100
0001
0100
,  // measure 31
1000
1000
0010
0010
,  // measure 32
0100
0001
0100
0001
,  // measure 33
0100
0001
0010
0100
,  // measure 34
0001
0100
1000
0010
,  // measure 35
0100
0100
0010
0010
,  // measure 36
1000
0100
0010
0100
,  // measure 37
1000
0001
1001
0000
,  // measure 38
1000
0010
0100
0010
,  // measure 39
1000
0100
0001
0100
,  // measure 40
0010
0001
0100
0010
,  // measure 41
0100
0001
1000
0001
,  // measure 42
1000
0100
0010
0100
,  // measure 43
1000
0010
0100
1000
,  // measure 44
0100
0001
1000
0001
,  // measure 45
0010
0001
1000
0001
,  // measure 46
0100
0010
1000
1000
,  // measure 47
0010
1000
0001
0001
,  // measure 48
1000
0001
0010
0010
,  // measure 49
0100
1000
0010
1000
,  // measure 50
0001
0100
0001
0001
,  // measure 51
1000
0001
1000
1000
,  // measure 52
0100
1000
0100
0010
,  // measure 53
0100
0010
0001
0100
,  // measure 54
0001
1000
1001
0000
,  // measure 55
0010
1000
0001
0001
,  // measure 56
1000
0100
0010
0010
,  // measure 57
0001
0100
0001
0001
,  // measure 58
1000
0000
0001
0000
,  // measure 59
1000
0010
1000
1000
,  // measure 60
0001
0010
0100
0010
,  // measure 61
0100
1000
0001
0001
,  // measure 62
1000
0000
0001
0000
,  // measure 63
0100
0010
0100
0001
,  // measure 64
1000
0100
0010
0010
,  // measure 65
0001
0100
0010
0100
,  // measure 66
0001
1000
0001
0000
,  // measure 67
1000
0010
1000
0100
,  // measure 68
0010
0001
0100
0001
,  // measure 69
0100
0010
0100
0001
,  // measure 70
1000
0001
2000
0000
,  // measure 71
3002
0000
0203
0000
,  // measure 72
0320
0000
0030
0000
;

//---------------dance-single - ----------------
#NOTEDATA:;
#CHARTNAME:;
#STEPSTYPE:dance-single;
#DESCRIPTION:;
#CHARTSTYLE:;
#DIFFICULTY:Beginner;
#METER:2;
#RADARVALUES:0.157,0.177,0.000,0.000,0.000,134.000,0.000,0.000,0.000,0.000,0.000,0.000,0.000,0.157,0.177,0.000,0.000,0.000,134.000,0.000,0.000,0.000,0.000,0.000,0.000,0.000;
#CREDIT:;
#NOTES:
// measure 0
0000
0000
0000
0000
,  // measure 1
0000
0000
0000
0000
,  // measure 2
0000
0000
0000
0000
,  // measure 3
0000
0000
0000
0000
,  // measure 4
1000
0000
1000
0000
,  // measure 5
0010
0010
0010
0000
,  // measure 6
0100
0000
0100
0000
,  // measure 7
0001
0000
1000
0000
,  // measure 8
0001
0000
1000
0000
,  // measure 9
0010
0010
0010
0000
,  // measure 10
0100
0000
0001
0000
,  // measure 11
1000
1000
1000
0000
,  // measure 12
0001
0001
0001
0000
,  // measure 13
1000
0000
0000
0000
,  // measure 14
0000
0000
0000
0001
,  // measure 15
0001
0001
0000
0000
,  // measure 16
0100
0000
0100
0000
,  // measure 17
0100
0000
0000
0000
,  // measure 18
0000
0000
0000
0010
,  // measure 19
0010
0010
0000
0000
,  // measure 20
0100
0000
0001
0000
,  // measure 21
1000
0000
0010
0000
,  // measure 22
0100
0100
0100
0000
,  // measure 23
0010
0000
0010
0000
,  // measure 24
0100
0000
0100
0000
,  // measure 25
1000
0000
0001
0000
,  // measure 26
0010
0000
0100
0000
,  // measure 27
1000
1000
1000
0000
,  // measure 28
0001
0000
0100
0000
,  // measure 29
0010
0000
0000
0000
,  // measure 30
0100
0000
0100
0000
,  // measure 31
0001
0000
0000
0000
,  // measure 32
1000
1000
1000
1000
,  // measure 33
1000
0000
0000
0000
,  // measure 34
1000
0000
0001
0000
,  // measure 35
0010
0000
0000
0000
,  // measure 36
0001
0001
0001
0000
,  // measure 37
1000
1000
1000
0000
,  // measure 38
0001
0000
0001
0000
,  // measure 39
0100
0000
0100
0000
,  // measure 40
0010
0000
0010
0000
,  // measure 41
0100
0100
0100
0100
,  // measure 42
0100
0000
0010
0000
,  // measure 43
1000
0000
0001
0000
,  // measure 44
1000
0000
1000
0000
,  // measure 45
0001
0000
0001
0000
,  // measure 46
1000
0000
0000
0000
,  // measure 47
0010
0000
0000
0000
,  // measure 48
0100
0000
0100
0000
,  // measure 49
0100
0000
0001
0000
,  // measure 50
0010
0000
0000
0000
,  // measure 51
0100
0000
0000
0000
,  // measure 52
1000
0000
1000
0000
,  // measure 53
0010
0000
0010
0000
,  // measure 54
0100
0000
0000
0000
,  // measure 55
0010
0000
0000
0000
,  // measure 56
1000
0000
1000
0000
,  // measure 57
0001
0000
0000
0000
,  // measure 58
0100
0000
0100
0000
,  // measure 59
0001
0000
0000
0000
,  // measure 60
0010
0000
0010
0000
,  // measure 61
0100
0000
0000
0000
,  // measure 62
1000
0000
1000
0000
,  // measure 63
0001
0000
0001
0000
,  // measure 64
0100
0000
0100
0100
,  // measure 65
0100
0000
0010
0000
,  // measure 66
1000
0000
0001
0000
,  // measure 67
1000
0000
0001
0000
,  // measure 68
0010
0000
0001
0001
,  // measure 69
0001
0000
0100
0000
,  // measure 70
0010
0000
1000
0000
,  // measure 71
0001
0000
1000
0000
,  // measure 72
0001
0000
0000
0000
;
