#VERSION:0.81;
#TITLE:I Like That (Doman & Gooding Remix);
#SUBTITLE:;
#ARTIST:Richard Vission & Static Revenger starring Luciana;
#TITLETRANSLIT:;
#SUBTITLETRANSLIT:;
#ARTISTTRANSLIT:;
#GENRE:;
#ORIGIN:;
#CREDIT:;
#BANNER:[ROUND 6] - I Like That (Doman & Gooding Remix).png;
#BACKGROUND:[ROUND 6] - I Like That (Doman & Gooding Remix)-bg.png;
#PREVIEWVID:;
#JACKET:[ROUND 6] - I Like That (Doman & Gooding Remix)-jacket.png;
#CDIMAGE:;
#DISCIMAGE:;
#LYRICSPATH:;
#CDTITLE:cdtitle.png;
#MUSIC:[ROUND 6] - I Like That (Doman & Gooding Remix).mp3;
#OFFSET:-0.525;
#SAMPLESTART:30.523;
#SAMPLELENGTH:15.000;
#SELECTABLE:YES;
#DISPLAYBPM:128.000;
#BPMS:0.000=128.000;
#STOPS:;
#DELAYS:;
#WARPS:;
#TIMESIGNATURES:0.000=4=4;
#TICKCOUNTS:0.000=4;
#COMBOS:0.000=1;
#SPEEDS:0.000=1.000=0.000=0;
#SCROLLS:0.000=1.000;
#FAKES:;
#LABELS:0.000=Song Start;
#BGCHANGES:;
#KEYSOUNDS:;
#ATTACKS:
;

//---------------dance-single - ----------------
#NOTEDATA:;
#CHARTNAME:;
#STEPSTYPE:dance-single;
#DESCRIPTION:;
#CHARTSTYLE:;
#DIFFICULTY:Hard;
#METER:7;
#RADARVALUES:0.494,0.513,0.058,0.386,0.012,258.000,5.000,33.000,0.000,0.000,0.000,0.000,0.000,0.494,0.513,0.058,0.386,0.012,258.000,5.000,33.000,0.000,0.000,0.000,0.000,0.000;
#CREDIT:;
#DISPLAYBPM:128.000;
#NOTES:
// measure 0
0000
0000
0000
0000
,  // measure 1
0000
0000
0000
0000
,  // measure 2
0000
0000
0000
0000
,  // measure 3
0000
0000
0000
0000
,  // measure 4
1000
0010
0100
0010
0000
1000
0100
0010
,  // measure 5
0000
0001
0100
0010
0200
0300
0020
0030
,  // measure 6
0100
0001
1000
0001
0000
0010
0100
1000
,  // measure 7
0000
0010
0100
0001
2000
0100
3100
0000
,  // measure 8
1000
0001
0100
0001
0000
1000
0100
1000
,  // measure 9
0000
0001
1000
0010
1000
0100
0020
0030
,  // measure 10
0001
0100
0010
0100
0000
0001
0010
0001
,  // measure 11
0000
1000
0100
0010
0001
1000
0020
0030
,  // measure 12
1000
0001
0010
1000
0010
0001
1000
0010
,  // measure 13
0100
0001
1000
0001
0020
0030
0200
0300
,  // measure 14
0010
0001
0100
1000
0100
0001
1000
0100
,  // measure 15
0010
0100
1000
0010
0200
0310
0020
1030
,  // measure 16
0001
0010
1000
0010
0001
0010
0100
0010
,  // measure 17
0001
0010
1000
0010
0002
0003
2000
3000
,  // measure 18
0001
0100
1000
0100
0001
0100
0010
0100
,  // measure 19
0001
0100
1000
0100
0002
2003
3020
2030
,  // measure 20
3001
0010
0100
0010
0001
0100
0010
0100
,  // measure 21
0001
1000
0100
0010
0200
0300
2000
3000
,  // measure 22
0010
0100
1000
0100
0010
1000
0001
0100
,  // measure 23
0001
1000
0001
0010
0100
0010
0001
1000
,  // measure 24
0020
0100
0100
0130
0000
0000
0001
1000
,  // measure 25
0200
0010
0010
0310
0100
0000
1000
0001
,  // measure 26
0020
0000
0100
0000
0100
0000
0000
0000
0130
0000
0000
1000
0000
0000
0001
0000
,  // measure 27
0200
0010
0010
0310
0200
0300
0002
0003
,  // measure 28
1000
0100
0010
0200
0000
0300
1000
0010
,  // measure 29
0100
0001
1000
0001
0010
0000
0001
0010
,  // measure 30
0100
0000
1000
0000
0200
0000
0000
0000
0010
0000
0000
0010
0300
0000
0100
0000
,  // measure 31
1000
0001
0100
0001
0020
0030
0200
0300
,  // measure 32
0010
0011
0001
0101
,  // measure 33
0100
0110
0010
1010
,  // measure 34
1000
0010
0100
0010
1000
0001
0100
0001
,  // measure 35
0010
1000
0010
0001
2000
3000
0020
0030
,  // measure 36
1000
0100
0001
0100
0010
0001
1000
0010
,  // measure 37
1000
0100
0010
0001
1000
0010
1000
0000
,  // measure 38
0001
0100
0010
0100
0001
1000
0010
1000
,  // measure 39
0100
0001
0100
1000
0020
0030
0200
0300
,  // measure 40
0001
0010
1000
0010
0100
1000
0010
0100
,  // measure 41
0010
1000
0001
0100
0001
0010
0100
0000
,  // measure 42
0220
0000
0000
0000
,  // measure 43
0000
0000
0000
0000
0000
0000
0000
0330
;

//---------------dance-single - ----------------
#NOTEDATA:;
#CHARTNAME:;
#STEPSTYPE:dance-single;
#DESCRIPTION:;
#CHARTSTYLE:;
#DIFFICULTY:Medium;
#METER:5;
#RADARVALUES:0.352,0.333,0.093,0.374,0.000,171.000,8.000,32.000,0.000,0.000,0.000,0.000,0.000,0.352,0.333,0.093,0.374,0.000,171.000,8.000,32.000,0.000,0.000,0.000,0.000,0.000;
#CREDIT:;
#DISPLAYBPM:128.000;
#NOTES:
0000
0000
0000
0000
,
0000
0000
0000
0000
,
0000
0000
0000
0000
,
0000
0000
0000
0000
,
1000
0000
0001
0100
0000
0001
1000
0100
,
0000
1000
0010
1000
0001
0000
0011
0000
,
0010
0000
0100
1000
0000
0001
1000
0010
,
0000
1000
0001
0010
0100
0000
1100
0000
,
1000
0010
0100
0001
,
1000
0000
0001
0000
0010
0100
0010
0000
,
0001
0100
0010
1000
,
0001
0000
1000
0000
0100
0010
0100
0000
,
2000
3100
0002
0103
,
2000
0000
3100
0000
0001
0100
0001
0000
,
2000
3010
0002
0013
,
2000
0000
3010
0000
0001
0010
0001
1000
,
0002
0103
2000
3010
,
0002
0013
0100
1100
,
2000
3010
0002
0103
,
2000
0000
3100
0000
0001
0010
0100
0010
,
0002
0103
2000
3010
,
0002
0103
0001
1001
,
2000
3100
0002
0013
,
2000
0000
3100
0000
1000
0010
1000
0010
,
0200
0000
0000
0000
0000
0300
0010
0000
,
2000
0000
0000
0000
0000
3000
0001
0000
,
0020
0000
0000
0000
0000
0030
0100
0000
,
2000
0000
0000
3000
0001
0000
0100
0000
,
0002
0000
0000
0000
0000
0003
1000
0000
,
0200
0000
0000
0000
0000
0300
0010
0000
,
0002
0000
0000
0000
0000
0003
0100
0000
,
0020
0000
0000
0030
1000
0000
0001
0000
,
2000
3100
0002
0103
,
2000
3010
0002
0013
,
0001
0100
0010
0100
0000
0001
1000
0100
,
0000
1000
0010
0100
0010
0000
1010
0000
,
1000
0100
0010
0100
0000
1000
0010
0100
,
0000
0010
1000
0001
1000
0000
1100
0000
,
0010
0001
0100
0010
0000
0100
0001
1000
,
0000
0100
1000
0010
0100
0000
0110
0000
,
0010
1000
0100
0010
0000
0001
1000
0010
,
0000
1000
0100
0010
0001
0100
0010
0000
,
0220
0000
0000
0000
,
0000
0000
0000
0000
0000
0000
0000
0330
;

//---------------dance-single - ----------------
#NOTEDATA:;
#CHARTNAME:;
#STEPSTYPE:dance-single;
#DESCRIPTION:;
#CHARTSTYLE:;
#DIFFICULTY:Easy;
#METER:2;
#RADARVALUES:0.179,0.230,0.117,0.164,0.000,83.000,10.000,14.000,0.000,0.000,0.000,0.000,0.000,0.179,0.230,0.117,0.164,0.000,83.000,10.000,14.000,0.000,0.000,0.000,0.000,0.000;
#CREDIT:;
#DISPLAYBPM:128.000;
#NOTES:
0000
0000
0000
0000
,
0000
0000
0000
0000
,
0000
0000
0000
0000
,
0000
0000
0000
0000
,
0001
0000
0001
0000
,
1000
0000
1000
1100
,
1000
0000
1000
0000
,
0001
0000
0001
0101
,
0001
0000
0010
0000
,
0001
0000
1000
0010
,
1000
0000
0100
0000
,
1000
0000
0001
0100
,
0001
0000
0010
0000
,
0100
0000
1000
0001
,
1000
0000
0010
0000
,
0100
0000
0001
1000
,
0001
0000
0100
0000
,
1000
0000
0100
0001
,
1000
0000
0100
0000
,
0001
0000
0100
1000
,
0001
0000
0100
0000
,
0010
0000
1000
0100
,
1000
0000
0010
0000
,
0100
0000
0001
1000
,
1002
0000
0000
0003
,
2000
0000
0000
3000
,
0020
0000
0000
0030
,
0200
0000
0000
0300
,
0102
0003
0020
0030
,
0200
0300
2000
3000
,
0020
0030
0200
0300
,
0002
0003
2000
3000
,
0001
0000
0101
0000
,
1000
0000
1100
0000
,
1000
0000
0010
0000
,
1000
0000
1001
0000
,
0001
0000
0100
0000
,
0001
0000
1001
0000
,
1000
0000
0100
0000
,
1000
0000
1001
0000
,
0001
0000
0010
0000
,
0001
0000
1000
0000
,
2002
0000
0000
0000
,
0000
0000
0000
3003
;
