#TITLE:HIDI HIDI DO;
#SUBTITLE:(KCP Re-Edit);
#ARTIST:ZIPPERS;
#TITLETRANSLIT:;
#SUBTITLETRANSLIT:;
#ARTISTTRANSLIT:;
#GENRE:;
#CREDIT:;
#BANNER:HIDI HIDI DO.png;
#BACKGROUND:HIDI HIDI DO-bg.png;
#LYRICSPATH:;
#CDTITLE:;
#MUSIC:[ROUND 6] - HIDI HIDI DO (KCP Re-Edit).mp3;
#OFFSET:-0.035;
#SAMPLESTART:44.715;
#SAMPLELENGTH:12.380;
#SELECTABLE:YES;
#BPMS:0.000=150.000
;
#STOPS:
;
#BGCHANGES:;
#KEYSOUNDS:;
#ATTACKS:;

//---------------dance-single - ----------------
#NOTES:
     dance-single:
     :
     Challenge:
     9:
     0.592,0.582,0.106,0.059,0.312,338.000,9.000,5.000,0.000,0.000,0.000,0.592,0.582,0.106,0.059,0.312,338.000,9.000,5.000,0.000,0.000,0.000:
0000
0000
0000
0000
,
0000
0000
0000
0000
,
0001
0010
0100
0100
1000
0100
0010
0010
,
0001
0100
1000
0100
0002
0000
1003
0000
,
0001
0010
0100
1000
0000
1000
0001
0001
,
1000
0100
0010
0001
0000
0001
1000
1000
,
0001
0010
1000
0010
0000
0001
1000
1000
,
1010
0110
0101
0000
,
1000
0010
0100
0001
0000
0001
1000
1000
,
0001
0100
0010
1000
0000
1000
0001
0001
,
1000
0010
0001
0010
0000
1000
0001
0001
,
0011
0110
1100
0000
,
1000
0000
0000
1000
0100
0000
0000
0100
0001
0000
0000
0001
0100
0000
0000
0100
,
1000
0010
0100
0001
0000
0000
0000
1000
,
0001
0001
0010
0010
0200
0000
1300
0000
,
0001
0100
1000
0100
0000
0000
0000
0001
,
0100
0010
0100
0001
0100
0010
1000
0100
,
0001
1000
0010
0001
0000
0000
0000
1000
,
0010
0100
0010
1000
0020
0000
1030
0001
,
1000
0000
0000
0001
0010
0000
0100
0000
1000
0001
0000
1000
0001
1000
0001
1000
,
0001
0000
0000
0001
0100
0000
0000
0100
1000
0000
0000
1000
0100
0000
0000
0100
,
0001
0010
0100
1000
0000
0000
0000
0001
,
1000
1000
0010
0010
0200
0000
0301
0000
,
1000
0100
0001
0100
0000
0000
0000
1000
,
0100
0010
0100
1000
0100
0010
0001
0100
,
1000
0001
0010
1000
0000
0000
0000
0001
,
0010
0100
0010
0001
0020
0000
0031
1000
,
0001
0000
0000
1000
0010
0000
0100
0000
0001
1000
0000
0001
1000
0001
1000
0001
,
1000
0000
0000
1000
0010
0000
0100
0000
0001
0000
0000
0001
0010
0000
0100
0000
,
1000
0000
0000
1000
0001
0000
1000
0000
0001
0000
0000
0000
0000
0000
0000
0000
,
1000
0000
0010
1000
0010
0000
0000
0000
0100
0000
0001
0100
0001
0000
0100
0001
,
0100
0000
0000
0100
0010
0000
0000
0010
1000
0000
0000
0000
0000
0000
0000
0000
,
0001
0000
0000
0001
0100
0000
0010
0000
1000
0000
0000
1000
0100
0000
0010
0000
,
0001
0000
0000
0001
1000
0000
0001
0000
1000
0000
0000
0000
0000
0000
0000
0000
,
0001
0000
0100
0010
0100
0000
0010
0000
1000
0000
0000
0000
0001
0000
0010
0100
,
0010
0000
0000
0010
0100
0000
0000
0100
1000
0000
0000
0000
0000
0000
0000
0000
,
0001
0100
1000
0100
0000
0001
1000
1000
,
0100
0001
0100
1000
0000
0001
0100
0100
,
1000
0000
0001
0000
0010
0000
1000
0000
0000
0000
0001
0000
0100
0000
0010
1000
,
0100
0000
0000
0100
0010
0000
0000
0010
0001
0000
0000
0000
0000
0000
0000
0000
,
1000
0100
0001
0100
0000
1000
0001
0001
,
0100
1000
0100
0001
0000
1000
0100
0100
,
0001
0000
1000
0000
0010
0000
0001
0000
0000
0000
1000
0000
0010
0000
0100
0001
,
0010
0000
0000
0010
0100
0000
0000
0100
1000
0000
0000
0000
0000
0000
0000
0000
,
0001
0000
0000
0001
0010
0000
0100
0000
1000
0000
0000
1000
0010
0000
0100
0000
,
0001
0000
1000
0100
1000
0000
0100
0000
1100
0000
0000
0000
0000
0000
0000
0000
,
1000
0000
0100
1000
0100
0000
0010
0000
0000
0000
0001
0000
0100
0000
0010
1000
,
0010
0000
0000
0010
0100
0000
0000
0100
0001
0000
0000
0000
0000
0000
0000
0000
,
1000
0000
0000
1000
0100
0000
0010
0000
0001
0000
0000
0001
0100
0000
0010
0000
,
1000
0000
0001
0100
0001
0000
0100
0000
0101
0000
0000
0000
0000
0000
0000
0000
,
0001
0000
0100
0001
0100
0000
0010
0000
0000
0000
1000
0000
0100
0000
0010
0001
,
0010
0000
0000
0010
0100
0000
0000
0100
1000
0000
0000
0000
0000
0000
0000
0000
,
1001
0000
0000
0000
;

//---------------dance-single - ----------------
#NOTES:
     dance-single:
     :
     Hard:
     7:
     0.542,0.459,0.224,0.436,0.047,266.000,19.000,37.000,0.000,0.000,0.000,0.542,0.459,0.224,0.436,0.047,266.000,19.000,37.000,0.000,0.000,0.000:
0000
0000
0000
0000
,
0000
0000
0000
0000
,
1000
0010
0100
0100
0001
0010
0100
0100
,
1000
0010
0001
0010
2000
0000
3001
0000
,
1000
0000
1010
0000
0000
1000
0010
0001
,
0010
0000
0110
0000
0000
0100
0001
0010
,
0001
0000
0011
0000
0000
0001
0010
1000
,
1100
0101
1001
0000
,
0001
0000
0101
0000
0000
0001
0100
1000
,
0100
0000
0110
0000
0000
0010
1000
0100
,
1000
0000
1010
0000
0000
1000
0010
0001
,
0101
1100
1001
0000
,
0002
0203
2300
3200
,
0301
0010
0100
1000
0000
0000
0000
0001
,
0100
0100
1000
1000
0200
0000
0301
0000
,
1000
0100
0010
0001
0000
0000
0000
1000
,
0020
0000
0032
0000
0203
0000
1300
0100
,
0001
0000
1000
0010
0000
0000
0000
0001
,
0200
0000
2300
0000
3200
0000
0301
1000
,
0002
0000
1003
0000
1000
0001
1000
0001
,
2000
3020
0032
0023
,
1030
0010
0100
0001
0000
0000
0000
1000
,
0100
0100
0001
0001
0200
0000
1300
0000
,
0001
0010
0100
1000
0000
0000
0000
0001
,
0200
0000
2300
0000
3020
0000
0031
0100
,
1000
0000
0001
0010
0000
0000
0000
1000
,
0200
0000
0302
0000
0203
0000
1300
0001
,
2000
0000
3001
0000
0001
1000
0001
1000
,
0001
0000
1000
0010
0100
0000
0001
0010
,
0100
0000
0000
1000
0100
0000
1000
0000
0100
0000
0000
0000
0000
0000
0000
0000
,
1000
0010
1000
0000
0001
0100
0001
0000
,
0101
0110
1010
0000
,
1000
0000
0001
0010
0100
0000
1000
0010
,
0100
0000
0000
0001
0100
0000
0001
0000
0100
0000
0000
0000
0000
0000
0000
0000
,
0001
0001
0100
1000
0100
0000
0001
0010
,
0011
0110
1100
0000
,
1000
0100
0001
0100
0000
1000
0001
0001
,
0100
1000
0100
0001
0000
1000
0100
0100
,
0001
1000
0010
0001
0000
1000
0010
0010
,
0200
0302
2000
3003
,
0001
0100
1000
0100
0000
0001
1000
1000
,
0100
0001
0100
1000
0000
0001
0100
0100
,
1000
0001
0010
1000
0000
0001
0100
0100
,
0020
2030
0002
3003
,
0001
0000
0000
0001
0010
0000
0100
0000
1000
0000
0000
1000
0010
0000
0100
0000
,
0001
0000
0000
0001
1000
0000
0001
0000
1000
0000
0000
0000
0000
0000
0000
0000
,
0001
0100
1000
0100
0000
0001
0010
0010
,
0200
2300
0002
3003
,
1000
0000
0000
1000
0010
0000
0100
0000
0001
0000
0000
0001
0010
0000
0100
0000
,
1000
0000
0000
1000
0001
0000
1000
0000
0001
0000
0000
0000
0000
0000
0000
0000
,
1000
0100
0001
0100
0000
1000
0010
0010
,
0200
0302
2000
3003
,
1001
0000
0000
0000
;

//---------------dance-single - ----------------
#NOTES:
     dance-single:
     :
     Medium:
     5:
     0.318,0.367,0.400,0.000,0.000,155.000,34.000,0.000,0.000,0.000,0.000,0.318,0.367,0.400,0.000,0.000,155.000,34.000,0.000,0.000,0.000,0.000:
0000
0000
0000
0000
,
0000
0000
0000
0000
,
0001
0000
0010
0000
,
0100
1000
1001
0000
,
0001
0000
0000
0001
,
0010
0000
0000
0001
,
0010
0000
0000
0001
,
0010
0100
1100
0000
,
1000
0000
0000
1000
,
0010
0000
0000
1000
,
0010
0000
0000
1000
,
0010
0100
0101
0000
,
0001
0010
0100
1000
,
1100
0000
0000
0000
,
1000
0010
0100
0001
,
0101
0000
0000
0000
,
0001
0001
1000
1000
,
1001
0000
0000
0000
,
1000
1000
0001
0001
,
1001
1000
1001
0001
,
1001
0011
0110
1100
,
1001
0000
0000
0000
,
1001
1010
0110
0101
,
1001
0000
0000
0000
,
0001
0010
0001
0010
,
0011
0000
0000
0000
,
1000
0010
1000
0010
,
1010
1000
1001
0000
,
0001
0000
0010
0100
1000
0000
0010
0100
,
0001
1000
1001
0000
,
0001
1001
1000
1001
,
0011
0110
1100
0000
,
1000
0000
0010
0100
0001
0000
0010
0100
,
1000
0001
1001
0000
,
0001
0010
0100
1000
,
0001
0001
1001
0000
,
1000
0010
0000
1000
,
0010
0100
0000
1000
,
0010
0100
0000
1000
,
0010
0100
0001
0000
,
0001
0010
0000
0001
,
0010
0100
0000
0001
,
0010
0100
0000
0001
,
0010
0100
1000
0000
,
0001
0101
0100
0110
,
0010
1000
0010
1000
0010
0000
0000
0000
,
1000
0001
0000
1000
,
0001
1000
0001
0000
,
1000
1010
0010
0110
,
0100
0001
0100
0001
0100
0000
0000
0000
,
0001
1000
0000
0001
,
1000
0001
1000
0000
,
1001
0000
0000
0000
;

//---------------dance-single - ----------------
#NOTES:
     dance-single:
     :
     Easy:
     3:
     0.232,0.337,0.236,0.000,0.000,118.000,20.000,0.000,0.000,0.000,0.000,0.232,0.337,0.236,0.000,0.000,118.000,20.000,0.000,0.000,0.000,0.000: // measure 0
0000
0000
0000
0000
,  // measure 1
0000
0000
0000
0000
,  // measure 2
0001
0000
0001
0000
,  // measure 3
1000
0000
1000
0000
,  // measure 4
0001
0000
0000
0000
,  // measure 5
0001
0000
0000
0000
,  // measure 6
0001
0000
0000
0000
,  // measure 7
0001
0010
0100
0000
,  // measure 8
1000
0000
0000
0000
,  // measure 9
1000
0000
0000
0000
,  // measure 10
1000
0000
0000
0000
,  // measure 11
1000
0010
0100
0000
,  // measure 12
0001
0000
1000
0000
,  // measure 13
0001
1000
0001
0000
,  // measure 14
1000
0000
0001
0000
,  // measure 15
1000
0001
1000
0000
,  // measure 16
0001
0010
0001
0010
,  // measure 17
0001
0000
0001
0000
,  // measure 18
1000
0010
1000
0010
,  // measure 19
1000
0000
1000
0000
,  // measure 20
0001
0000
0001
0000
,  // measure 21
0001
0000
0000
0000
,  // measure 22
1000
0000
1000
0000
,  // measure 23
1000
0000
0000
0000
,  // measure 24
0001
1000
0001
1000
,  // measure 25
0001
0000
0000
0000
,  // measure 26
1000
0001
1000
0001
,  // measure 27
1000
0000
0001
0000
,  // measure 28
0011
0000
0110
0000
,  // measure 29
1100
0000
0000
0000
,  // measure 30
0001
1001
1000
1001
,  // measure 31
1000
0001
1001
0000
,  // measure 32
1010
0000
0110
0000
,  // measure 33
0101
0000
0000
0000
,  // measure 34
0001
1001
1001
1000
,  // measure 35
1001
0001
1001
0000
,  // measure 36
0001
0000
0000
0001
,  // measure 37
1000
0000
0000
0001
,  // measure 38
1000
0000
0000
0001
,  // measure 39
1000
0001
1001
0000
,  // measure 40
1000
0000
0000
1000
,  // measure 41
0001
0000
0000
1000
,  // measure 42
0001
0000
0000
1000
,  // measure 43
0001
1000
1001
0000
,  // measure 44
0001
0010
0100
1000
,  // measure 45
0001
1000
1001
0000
,  // measure 46
0001
0000
0000
0001
,  // measure 47
1000
0001
1001
0000
,  // measure 48
1000
0010
0100
0001
,  // measure 49
1000
0001
1001
0000
,  // measure 50
0001
0000
0000
0001
,  // measure 51
1000
0001
1001
0000
,  // measure 52
1001
0000
0000
0000
;
