#TITLE:Finale;
#SUBTITLE:;
#ARTIST:Madeon;
#TITLETRANSLIT:;
#SUBTITLETRANSLIT:;
#ARTISTTRANSLIT:;
#CREDIT:;
#BANNER:[ROUND 6] - Finale.png;
#BACKGROUND:[ROUND 6] - Finale-bg.png;
#LYRICSPATH:;
#CDTITLE:;
#MUSIC:[ROUND 6] - Finale.ogg;
#OFFSET:-6.655;
#SAMPLESTART:92.379;
#SAMPLELENGTH:22.826;
#SELECTABLE:YES;
#BPMS:0.000=92.000;
#STOPS:;
#BGCHANGES:;

//---------------dance-single - ----------------
#NOTES:
     dance-single:
     :
     Hard:
     7:
     0.338,0.349,0.263,0.093,0.151:
0001
0000
0000
0000
0000
0000
0000
0000
0010
0000
0000
0100
0000
1000
0000
0000
,
0010
0100
0110
0000
0100
0010
0110
0000
,
0010
0000
0000
0000
1000
0000
0000
0000
0001
0000
0000
0010
0000
0001
0000
0000
,
0100
0010
0100
0010
1000
0001
2000
0000
,
3001
0000
0000
0001
1000
0000
0100
0000
1000
0000
0010
0000
0110
0000
0000
0000
,
0100
0000
0000
0001
0100
0000
0010
0000
1000
0000
0001
0000
1001
0000
0000
0000
,
0100
0000
0000
0100
0010
0000
0001
0000
0100
0000
0010
0000
0110
0000
0000
0000
,
0010
0000
0000
0010
1000
0000
0001
0000
0010
0000
0100
0000
1100
0000
1001
0000
,
0001
0000
0000
0001
0100
0000
0010
0000
0100
0000
0001
0000
0011
0000
0000
0000
,
0010
0000
0000
0010
0100
0000
1000
0000
0010
0000
0100
0000
0101
0000
0000
0000
,
0001
0000
0000
0001
1000
0000
0100
0000
0010
0000
0100
0000
1100
0000
0000
0000
,
1000
0000
0000
1000
0010
0000
0001
0000
0010
0000
1000
0000
1100
0000
0110
0000
,
0012
0000
0000
0000
,
0203
0000
0000
0000
,
0320
0000
0000
0000
,
2030
0000
0000
0000
,
3002
0000
0000
0000
,
0013
0100
1000
0010
,
0100
0000
0001
0000
0010
0000
0100
1000
,
0010
0100
0001
1000
,
0100
0000
0001
0000
0100
0000
1000
0001
,
0100
0000
0010
0000
0100
0000
0001
1000
,
1100
0000
0100
0000
0010
0000
0001
1000
,
0110
0000
0100
0000
0001
0000
0010
0100
,
1001
0000
0010
0000
0100
0000
0001
1000
,
0100
0000
0010
0000
0001
0000
0100
0010
,
1001
0000
0100
0000
0010
0000
0001
0100
,
1010
0000
0010
0000
1000
0000
0100
0010
,
0011
0000
0001
0000
0100
0000
0010
0100
,
1001
1000
0100
0000
0011
0001
0100
0000
,
0110
1000
0001
0000
0011
0010
0100
0000
,
1000
0010
0200
0000
0301
0010
0200
0000
,
1300
0010
0100
0001
2000
0000
0000
0000
,
3001
0000
0100
0000
0110
0000
0010
0000
1000
0000
0001
1000
0000
0100
0000
0010
,
0100
0000
0000
0100
1000
0000
0001
0000
0100
0000
0010
0100
0000
0001
0000
0010
,
0100
0000
1000
0000
1100
0000
0001
0000
0100
0000
0010
0100
0000
0001
0000
0010
,
0100
0000
1000
0001
0000
0100
0000
0000
0020
0000
0000
0000
1030
0000
0001
0000
,
1000
0000
0010
0000
0110
0000
0100
0000
0001
0000
1000
0100
0000
1000
0000
0010
,
0100
0000
0000
0001
0100
0000
0010
0000
1000
0000
0001
0010
0000
0100
0000
0000
,
0001
0000
0100
0000
0110
0000
0001
0000
0100
0000
1000
0100
0000
0010
0000
1000
,
0000
0001
0000
0010
0000
0100
0000
0000
2000
0000
0000
0000
3001
0100
0010
1000
,
0001
0000
1001
0000
0010
0100
0101
0001
,
1000
0100
1100
1000
0010
0000
0110
0000
,
0010
0000
0110
0000
0100
0001
1001
1000
,
0010
0000
0000
0100
0000
0000
0001
0000
2000
0000
0000
0000
3100
0000
0010
0000
,
1001
0000
0000
0000
;

//---------------dance-single - ----------------
#NOTES:
     dance-single:
     :
     Medium:
     4:
     0.227,0.227,0.054,0.085,0.000:
0010
0100
0020
0000
,
1030
0001
2000
0000
,
3001
0010
0002
0000
,
1003
0100
2000
0000
,
3010
0000
0110
0000
0100
0001
1000
0000
,
0100
0000
0010
0000
0001
0100
0010
0000
,
1000
0000
1001
0000
0001
0010
1000
0000
,
0010
0000
0100
0000
1000
0001
0100
0000
,
0010
0000
1010
0000
1000
0100
0001
0000
,
0100
0000
0010
0000
0001
1000
0010
0000
,
0100
0000
0101
0000
0001
1000
0100
0000
,
0010
0000
0001
0000
1000
0000
0010
0100
,
0020
0000
0000
0000
,
2030
0000
0000
0000
,
3200
0000
0000
0000
,
0302
0000
0000
0000
,
2003
0000
0000
0000
,
3010
0100
1000
0001
,
0100
0000
0010
0000
1000
0000
0001
0010
,
0100
1000
0001
0100
,
0010
0000
1000
0000
0001
0000
1000
0100
,
0010
0001
0100
1000
,
0100
0000
0001
0000
0010
0000
0100
1000
,
0100
0010
0001
1000
,
0010
0000
0001
0000
0100
0000
1000
0010
,
0100
0000
0001
0000
1000
0100
1000
1000
,
0010
0000
0100
0000
0001
0010
0001
0001
,
0010
0000
0100
0000
1000
0001
0100
0100
,
0001
0000
0010
0000
0100
1000
0010
0010
,
1000
0001
0010
0100
,
1000
0010
0100
0001
,
0010
0100
0010
0000
0001
1000
0001
0000
,
1000
0001
2002
3003
,
0010
0000
1000
0000
0100
1000
0100
0000
,
0010
0001
1000
0010
,
0100
0000
0001
0000
0010
0100
0010
0000
,
0001
0100
1000
0100
,
0010
0000
1000
0000
0001
0010
0100
0000
,
1000
0000
0010
0000
0100
0001
1000
0000
,
0100
0000
0010
0000
0100
1000
0001
0000
,
0100
0010
1000
0001
,
0000
1001
0100
0010
,
0001
0010
0100
1000
,
0010
0000
0100
0000
0001
1000
0100
0000
,
0010
0000
0000
0100
0000
0000
1000
0000
,
1001
0000
0000
0000
;

//---------------dance-single - ----------------
#NOTES:
     dance-single:
     :
     Easy:
     2:
     0.135,0.157,0.031,0.186,0.000: // measure 1
1000
0000
0010
0000
,  // measure 2
0100
0000
0001
0000
,  // measure 3
0010
0000
0100
0000
,  // measure 4
1000
0000
0001
0000
,  // measure 5
0100
0000
0100
0000
,  // measure 6
0010
0000
0100
0000
,  // measure 7
0001
0000
0010
0000
,  // measure 8
0100
0000
1000
0000
,  // measure 9
0010
0000
0100
0000
,  // measure 10
1000
0000
0001
0000
,  // measure 11
0010
0000
1000
0000
,  // measure 12
0100
0000
0001
0000
,  // measure 13
1001
0000
0000
0000
,  // measure 14
0002
0000
0000
0000
,  // measure 15
0203
0000
0000
0000
,  // measure 16
2300
0000
0000
0000
,  // measure 17
3002
0000
0000
0000
,  // measure 18
0013
0001
0010
0000
,  // measure 19
0100
1000
0100
0000
,  // measure 20
1000
0001
1000
0000
,  // measure 21
0010
0100
0010
0000
,  // measure 22
1000
0100
1000
0000
,  // measure 23
0001
0010
0001
0000
,  // measure 24
0100
0010
0100
0000
,  // measure 25
0001
1000
0001
0000
,  // measure 26
0010
0000
0100
0000
,  // measure 27
1000
0000
0001
0000
,  // measure 28
0100
0000
0010
0000
,  // measure 29
1000
0000
0001
0000
,  // measure 30
0010
0000
0100
0000
,  // measure 31
1000
0000
0001
0000
,  // measure 32
0100
0010
0100
0010
,  // measure 33
0220
0000
0330
0000
,  // measure 34
0020
0030
2000
3000
,  // measure 35
0002
0003
2000
3000
,  // measure 36
0200
0300
0002
0003
,  // measure 37
2000
0000
3001
0000
,  // measure 38
0200
0300
0020
0030
,  // measure 39
0002
0003
0020
0030
,  // measure 40
0200
0300
2000
3000
,  // measure 41
0020
0000
1030
0000
,  // measure 42
0000
1001
0000
0200
,  // measure 43
0300
0020
0030
0002
,  // measure 44
0003
2000
3000
0000
,  // measure 45
0010
0000
0100
0000
,  // measure 46
1001
0000
0000
0000
;

//---------------dance-single - ----------------
#NOTES:
     dance-single:
     :
     Beginner:
     1:
     0.098,0.122,0.031,0.015,0.000: // measure 1
1000
0000
0010
0000
,  // measure 2
0100
0000
0001
0000
,  // measure 3
0010
0000
0100
0000
,  // measure 4
1000
0000
0001
0000
,  // measure 5
0100
0000
0100
0000
,  // measure 6
0010
0000
0100
0000
,  // measure 7
0001
0000
0010
0000
,  // measure 8
0100
0000
1000
0000
,  // measure 9
0010
0000
0100
0000
,  // measure 10
1000
0000
0001
0000
,  // measure 11
0010
0000
1000
0000
,  // measure 12
0100
0000
0001
0000
,  // measure 13
1001
0000
0000
0000
,  // measure 14
0001
0000
0000
0000
,  // measure 15
0100
0000
0000
0000
,  // measure 16
1000
0000
0000
0000
,  // measure 17
0001
0000
0000
0000
,  // measure 18
0010
0000
0010
0000
,  // measure 19
0100
0000
0100
0000
,  // measure 20
1000
0000
1000
0000
,  // measure 21
0010
0000
0010
0000
,  // measure 22
1000
0000
1000
0000
,  // measure 23
0001
0000
0001
0000
,  // measure 24
0100
0000
0100
0000
,  // measure 25
0001
0000
0001
0000
,  // measure 26
0010
0000
0100
0000
,  // measure 27
1000
0000
0001
0000
,  // measure 28
0100
0000
0010
0000
,  // measure 29
1000
0000
0001
0000
,  // measure 30
0010
0000
0100
0000
,  // measure 31
1000
0000
0001
0000
,  // measure 32
0100
0000
0010
0000
,  // measure 33
0220
0000
0330
0000
,  // measure 34
0010
0000
1000
0000
,  // measure 35
0001
0000
1000
0000
,  // measure 36
0100
0000
0001
0000
,  // measure 37
1000
0000
0001
0000
,  // measure 38
0100
0000
0010
0000
,  // measure 39
0001
0000
0010
0000
,  // measure 40
0100
0000
1000
0000
,  // measure 41
0010
0000
1000
0000
,  // measure 42
0000
1001
0000
0100
,  // measure 43
0000
0010
0000
0001
,  // measure 44
0000
1000
0000
0000
,  // measure 45
0010
0000
0000
0000
,  // measure 46
1001
0000
0000
0000
;
