#VERSION:0.81;
#TITLE:Coming Out;
#SUBTITLE:;
#ARTIST:Playmaker feat. Robin;
#TITLETRANSLIT:;
#SUBTITLETRANSLIT:;
#ARTISTTRANSLIT:;
#GENRE:;
#ORIGIN:;
#CREDIT:;
#BANNER:[ROUND 6] - Coming Out.png;
#BACKGROUND:[ROUND 6] - Coming Out-bg.png;
#PREVIEWVID:;
#JACKET:[ROUND 6] - Coming Out-jacket.png;
#CDIMAGE:;
#DISCIMAGE:;
#LYRICSPATH:;
#CDTITLE:cdtitle.png;
#MUSIC:[ROUND 6] - Coming Out.ogg;
#OFFSET:0.000;
#SAMPLESTART:75.420;
#SAMPLELENGTH:14.000;
#SELECTABLE:YES;
#BPMS:0.000=130.000;
#STOPS:;
#DELAYS:;
#WARPS:;
#TIMESIGNATURES:0.000=4=4;
#TICKCOUNTS:0.000=4;
#COMBOS:0.000=1;
#SPEEDS:0.000=1.000=0.000=0;
#SCROLLS:0.000=1.000;
#FAKES:;
#LABELS:0.000=Song Start;
#BGCHANGES:;
#KEYSOUNDS:;
#ATTACKS:
;

//---------------dance-single - ----------------
#NOTEDATA:;
#CHARTNAME:;
#STEPSTYPE:dance-single;
#DESCRIPTION:;
#CHARTSTYLE:;
#DIFFICULTY:Hard;
#METER:6;
#RADARVALUES:0.463,0.425,0.075,0.589,0.000,276.000,8.000,63.000,0.000,0.000,0.000,0.000,0.000,0.463,0.425,0.075,0.589,0.000,276.000,8.000,63.000,0.000,0.000,0.000,0.000,0.000;
#CREDIT:;
#NOTES:
0000
0000
0000
0000
,
0000
0000
0000
0000
,
0000
0000
0000
0000
,
0000
0000
0000
0000
,
1000
0000
0001
0100
0001
0000
1000
0100
,
2000
0010
0001
3010
,
1000
0000
0001
0010
0001
0000
1000
0010
,
2000
0100
0001
3100
,
0001
0000
0010
0100
0010
0000
0001
0100
,
0002
0003
2000
3000
0200
0300
0020
0030
,
0001
0000
0100
0010
0100
0000
0001
0010
,
0002
0003
0200
0300
0020
0030
2000
3000
,
0100
0000
1000
0010
1000
0000
0001
0100
,
0002
0003
2000
3000
0200
0300
2000
3000
,
0010
0000
0100
0001
0100
0000
0001
1000
,
0002
0003
0020
0030
0200
0300
0020
0030
,
0001
0100
1000
0100
0001
1000
0010
1000
,
0100
0010
0001
1000
0001
0100
0010
0000
,
1000
0100
0001
0100
1000
0001
0010
0001
,
0100
0010
1000
0001
1000
0100
0010
0100
,
1000
0010
0200
0300
0001
0010
0200
0300
,
0010
0001
0200
0300
0010
1000
0200
0300
,
1000
0010
0100
0001
0010
0100
0010
0001
,
2000
3010
0002
0103
,
1000
0100
1000
0001
0100
0001
0010
0001
,
0000
0101
0000
0001
0000
1001
0000
2000
,
3000
0001
0100
0001
1000
0100
1000
0000
,
0002
0013
2000
3100
,
0001
0100
0001
1000
0010
1000
0100
1000
,
0000
1010
0000
1000
0000
1001
0000
0002
,
0003
1000
0010
1000
0001
0000
0010
0000
,
0200
1300
0020
0031
,
1000
0010
0001
0010
0100
0001
0100
0000
,
0002
0003
0020
0030
2000
3000
0200
0300
,
0001
0010
1000
0010
0100
1000
0100
0000
,
2000
3000
0020
0030
0002
0003
0200
0300
,
2000
0000
0010
3000
,
0002
0000
0100
0003
,
2000
0000
0100
3000
,
0002
0000
0010
0003
,
2000
0000
0000
0000
0000
3000
0000
0000
,
0010
0100
0001
0100
0010
1000
0001
0000
,
0010
0110
0100
1100
,
1000
0010
0100
0010
1000
0001
0010
0000
,
0002
0103
2000
3010
,
0001
0010
0100
0010
0001
1000
0010
0000
,
0100
0110
0010
1010
,
1000
0100
0010
0100
1000
0000
0010
0000
,
2000
3100
0002
0013
,
1000
0010
0001
0010
1000
0100
0010
0000
,
0002
0003
0200
0300
2000
3000
0020
0030
,
0001
0100
1000
0100
0001
0010
0100
0000
,
2000
3000
0020
0030
0002
0003
0200
0300
,
1000
0010
0100
0001
1000
0100
0010
0000
,
0200
0300
2000
3000
0002
0003
0200
0300
,
0001
0010
0100
1000
0001
0100
0010
0000
,
0200
0300
0002
0003
2000
3000
0200
0300
;

//---------------dance-single - ----------------
#NOTEDATA:;
#CHARTNAME:;
#STEPSTYPE:dance-single;
#DESCRIPTION:;
#CHARTSTYLE:;
#DIFFICULTY:Medium;
#METER:5;
#RADARVALUES:0.344,0.371,0.075,0.383,0.000,209.000,8.000,41.000,0.000,0.000,0.000,0.000,0.000,0.344,0.371,0.075,0.383,0.000,209.000,8.000,41.000,0.000,0.000,0.000,0.000,0.000;
#CREDIT:;
#NOTES:
// measure 0
0000
0000
0000
0000
,  // measure 1
0000
0000
0000
0000
,  // measure 2
0000
0000
0000
0000
,  // measure 3
0000
0000
0000
0000
,  // measure 4
1000
0010
0100
0001
,  // measure 5
2000
0100
0000
3100
,  // measure 6
0010
0001
1000
0010
,  // measure 7
0200
0001
0000
0301
,  // measure 8
1000
0000
0100
0000
1000
0001
1000
0000
,  // measure 9
0001
0101
1000
1100
,  // measure 10
0001
0000
0100
0000
0001
1000
0001
0000
,  // measure 11
1000
1100
0001
0101
,  // measure 12
1000
0000
0001
0000
0100
0010
0100
0000
,  // measure 13
0001
0011
1000
1010
,  // measure 14
0001
0000
1000
0000
0100
0010
0100
0000
,  // measure 15
1000
1010
0001
0011
,  // measure 16
1000
0010
1000
0000
0001
0100
0001
0000
,  // measure 17
2000
3000
0200
0300
0020
0030
0002
0003
,  // measure 18
1000
0100
1000
0000
0001
0010
0001
0000
,  // measure 19
2000
3000
0020
0030
0200
0300
0002
0003
,  // measure 20
1000
0100
0010
0000
0100
1000
0010
0000
,  // measure 21
0100
0001
1000
0100
,  // measure 22
0010
0001
0100
0000
0010
0100
0001
0000
,  // measure 23
0020
0000
0200
0330
,  // measure 24
2000
3100
0002
0103
,  // measure 25
1000
0100
0010
0000
0001
0100
0010
0000
,  // measure 26
1000
0100
0010
0002
,  // measure 27
0000
0000
0000
0003
,  // measure 28
2000
3010
0002
0013
,  // measure 29
1000
0010
0100
0000
0001
0010
0100
0000
,  // measure 30
1000
0010
0100
0001
,  // measure 31
2000
0000
0000
3000
,  // measure 32
0001
0010
0100
0000
0010
0000
0001
0000
,  // measure 33
2000
3010
0002
0013
,  // measure 34
1000
0100
0010
0000
0100
0000
1000
0000
,  // measure 35
0002
0103
2000
3100
,  // measure 36
0002
0000
0000
0003
,  // measure 37
0200
0000
0000
0300
,  // measure 38
0020
0000
0000
0030
,  // measure 39
2000
0000
0000
3000
,  // measure 40
0002
0000
0003
0000
,  // measure 41
2000
3100
0002
0013
,  // measure 42
1000
0010
0100
0000
0010
1000
0100
0000
,  // measure 43
1000
0010
0100
0000
,  // measure 44
0002
0000
0000
0003
,  // measure 45
2000
3010
0002
0103
,  // measure 46
1000
0100
0010
0000
0100
1000
0010
0000
,  // measure 47
1000
0100
0010
0001
,  // measure 48
2000
0000
0000
3000
,  // measure 49
0001
0100
0010
0000
0100
0000
0001
0000
,  // measure 50
2000
3100
0002
0103
,  // measure 51
1000
0100
0010
0000
0100
0000
1000
0000
,  // measure 52
0002
0103
2000
3100
,  // measure 53
0001
0010
0100
0010
0001
1000
0100
0000
,  // measure 54
2000
3010
0002
0013
,  // measure 55
1000
0010
0100
0010
1000
0001
0100
0000
,  // measure 56
0002
0013
2000
3010
;

//---------------dance-single - ----------------
#NOTEDATA:;
#CHARTNAME:;
#STEPSTYPE:dance-single;
#DESCRIPTION:;
#CHARTSTYLE:;
#DIFFICULTY:Easy;
#METER:2;
#RADARVALUES:0.203,0.212,0.103,0.383,0.000,100.000,11.000,41.000,0.000,0.000,0.000,0.000,0.000,0.203,0.212,0.103,0.383,0.000,100.000,11.000,41.000,0.000,0.000,0.000,0.000,0.000;
#CREDIT:;
#NOTES:
0000
0000
0000
0000
,
0000
0000
0000
0000
,
0000
0000
0000
0000
,
0000
0000
0000
0000
,
1000
0000
0001
0000
,
0200
0000
0000
0300
,
0001
0000
1000
0000
,
0200
0000
0000
0300
,
1000
0000
1000
0000
,
2200
0000
3300
0000
,
0001
0000
0001
0000
,
0202
0000
0303
0000
,
1000
0000
1000
0000
,
2020
0000
3030
0000
,
0001
0000
0001
0000
,
0022
0000
0033
0000
,
0001
0000
1000
0000
,
0010
0000
0010
0000
,
1000
0000
0001
0000
,
0010
0000
0010
0000
,
0001
0000
1000
0000
,
0100
0000
0100
0000
,
1000
0000
0001
0000
,
2002
0000
0000
3003
,
2000
0000
3100
0000
,
0002
0000
0103
0000
,
1000
0100
0010
0002
,
0000
0000
0000
0003
,
2000
0000
3010
0000
,
0002
0000
0013
0000
,
1000
0010
0100
0001
,
0020
0000
0000
0030
,
0001
0100
0001
0000
,
0202
0000
0303
0000
,
1000
0010
1000
0000
,
2020
0000
3030
0000
,
0002
0000
0103
0000
,
2000
0000
3100
0000
,
0002
0000
0103
0000
,
2000
0000
3100
0000
,
0002
0000
0000
0000
0000
0003
0000
0000
,
2000
0000
3010
0000
,
0002
0000
0103
0000
,
0001
0010
0100
2000
,
0000
0000
0000
3000
,
0002
0000
0103
0000
,
2000
0000
3010
0000
,
1000
0100
0010
0001
,
0200
0000
0000
0300
,
0001
0100
0001
0000
,
0202
0000
0303
0000
,
1000
0100
1000
0000
,
2200
0000
3300
0000
,
0001
0010
0001
0000
,
0022
0000
0033
0000
,
1000
0010
1000
0000
,
2020
0000
0000
3030
;
