#TITLE:Candy & Baguette;
#SUBTITLE:;
#ARTIST:sound piercer (Ruby.G);
#TITLETRANSLIT:;
#SUBTITLETRANSLIT:;
#ARTISTTRANSLIT:;
#GENRE:;
#CREDIT:;
#BANNER:[ROUND 6] - Candy & Baguette.png;
#BACKGROUND:[ROUND 6] - Candy & Baguette-bg.png;
#LYRICSPATH:;
#CDTITLE:cdtitle.png;
#MUSIC:[ROUND 6] - Candy & Baguette.ogg;
#OFFSET:1.110;
#SAMPLESTART:43.135;
#SAMPLELENGTH:10.726;
#LASTBEATHINT:0.211;
#SELECTABLE:YES;
#DISPLAYBPM:179.000;
#BPMS:0.000=179.000
,260.000=89.500
,262.000=179.000
;
#STOPS:
;
#BGCHANGES:3.000=[ROUND 6] - Candy & Baguette.avi=1.000=0=0=1=====,
379.000=[ROUND 6] - Candy & Baguette-bg.png=1.000=1=0=1===CrossFade==,
99999=-nosongbg-=1.000=0=0=0 // don't automatically add -songbackground-
;
#KEYSOUNDS:;
#ATTACKS:;

//---------------dance-single - ----------------
#NOTES:
     dance-single:
     X-3:
     Beginner:
     2:
     0.235,0.345,0.251,0.182,0.000,159.000,33.000,24.000,0.000,0.000,0.000,0.235,0.345,0.251,0.182,0.000,159.000,33.000,24.000,0.000,0.000,0.000:
0000
0000
0000
0000
,
0000
0000
0000
0000
,
0000
0000
0000
0000
,
0000
0000
0000
0000
,
0000
0000
0000
0000
,
0020
0000
0000
0030
0000
0000
2000
0000
,
0000
3000
0000
0000
0002
0000
0003
0000
,
2000
0000
0000
3000
0000
0000
0200
0000
,
0000
0300
0000
0000
0020
0000
0030
0000
,
1001
0000
0000
0000
,
1000
0000
0000
0000
,
0001
0000
0001
0000
,
0100
0100
0100
0000
,
1001
0000
0000
0000
,
0001
0000
0000
0000
,
1000
0000
1000
0000
,
0100
0100
0100
0000
,
2000
0000
3100
0000
,
1000
0000
0000
0000
,
0002
0000
0103
0000
,
0001
0000
0000
0000
,
2000
0000
3020
0000
,
1030
0000
1000
0000
,
0002
0000
0023
0000
,
0031
0000
0001
0000
,
1000
1000
1000
0000
,
1001
0000
0000
0000
,
0001
0001
0001
0000
,
1001
0000
0000
0000
,
0100
0000
1001
0000
,
0010
0000
1001
0000
,
0110
0000
1001
0000
,
2000
0000
0000
3002
0000
0000
0003
0000
,
1000
0000
0100
0000
,
0010
0010
0010
0000
,
0001
0000
0100
0000
,
0020
0000
0000
0030
0000
0000
1000
0000
,
1000
0000
0010
0000
,
0100
0100
0100
0000
,
0001
0000
0010
0000
,
0100
0100
0100
0000
,
1000
0000
0001
0000
,
0110
0000
1001
0000
,
0001
0000
1000
0000
,
0110
0000
1001
0000
,
1000
0000
0110
0000
,
0001
0000
0110
0000
,
1001
0000
0110
0000
,
1001
0000
0000
0000
,
2000
3000
0000
0000
,
0000
0000
0000
0000
,
0002
0003
0000
0000
,
0000
0000
0000
0000
,
0200
0000
0000
0300
,
0000
0000
0000
0000
,
0020
0000
0000
0030
,
0000
0000
1001
0000
,
1000
0000
0100
0000
,
0001
0000
0100
0000
,
1000
0000
0010
0000
,
0001
0000
0010
0000
,
1000
0000
0001
0000
,
1000
0000
0001
0000
,
0100
0100
0100
0100
,
0100
0100
0100
0100
,
0100
0000
0000
0000
,
0000
0000
0001
0000
,
0010
0000
0100
0100
,
0100
0000
1000
0000
,
0010
0000
0200
0300
,
0002
0003
0001
0000
,
0100
0000
0010
0010
,
0010
0000
1000
0000
,
0100
0000
0000
0000
0010
0000
0000
0010
,
0000
0000
0001
0000
,
1000
0000
0110
0000
,
1001
0000
1000
0000
,
0001
0000
0110
0000
,
1001
0000
0001
0000
,
0110
0000
1000
0000
,
0110
0000
1001
0000
,
0110
0000
2002
3003
,
0000
0000
0110
0000
,
0000
0000
0000
0000
,
0000
0000
1000
0000
,
0001
0000
1000
0000
,
0002
0003
0100
0100
,
0100
0000
0010
0010
,
0010
0000
1001
0000
,
1001
0000
0110
0000
,
0000
0000
1001
1001
;

//---------------dance-single - Rygon----------------
#NOTES:
     dance-single:
     :
     Hard:
     8:
     0.543,0.540,0.479,0.418,0.008,382.000,63.000,55.000,0.000,0.000,0.000,0.543,0.540,0.479,0.418,0.008,382.000,63.000,55.000,0.000,0.000,0.000:
0000
0000
0000
0000
,
0000
0000
0000
0000
,
0000
0000
0000
0000
,
0000
0000
0000
0000
,
0000
0000
0000
0000
,
0011
0000
0000
0101
0000
0000
1010
0000
,
0000
1100
0000
0000
0110
0000
1001
0000
,
1000
0000
0100
0010
0000
0010
0001
0000
,
0001
1000
0010
0100
0001
0010
0000
2200
,
3300
0000
1000
0000
0010
0100
0000
0002
,
0000
0000
0100
0000
1000
0000
0010
0010
,
0013
0001
0100
0010
,
2000
0100
0000
0010
0000
3001
1000
0010
,
0000
0101
1000
0011
,
0001
1100
0001
1010
,
0010
0100
0000
0001
0000
0011
0000
1010
,
0000
1100
0000
2002
0000
3000
0003
1000
,
0001
0000
0001
0000
0010
0001
0100
0020
,
0000
1000
0100
0001
,
1030
0000
1000
0000
0010
1000
0100
0020
,
0000
0001
0100
1000
,
0031
0000
1000
0000
0100
1000
0010
0200
,
0000
1000
0001
0010
,
0301
0010
0100
1000
,
0010
0100
0001
1000
0000
0100
0000
0000
,
0011
0000
1100
0000
1000
0020
0000
0230
,
0000
0310
0010
1000
0001
0000
1001
0000
,
1000
0100
0001
0100
0000
1000
0010
0001
,
0000
1000
0100
0001
1000
0000
0010
0000
,
0010
0100
0002
2000
3003
0000
1001
0000
,
0010
0100
2000
0002
3003
0000
1001
0000
,
1100
0000
0000
0110
0000
0000
0101
0000
,
0001
1000
0000
0220
0000
0000
0330
0000
,
1010
0000
0101
0000
0000
0001
0010
0100
,
1000
0000
0010
0100
0000
0100
0001
1000
,
0100
2000
0000
0000
0010
0000
3001
0000
,
0011
0000
0000
1100
0000
0000
1010
0000
,
0010
0100
0001
0010
0000
0001
1000
0100
,
0010
0001
0000
0101
0000
1010
0000
0000
,
2000
0000
0000
0002
3000
0000
0000
0000
,
0013
0001
0000
0110
0000
1001
0000
0000
,
1000
0100
0010
0100
0000
1000
0010
0100
,
0001
0000
0010
0100
0000
0010
0001
0100
,
0010
0000
2000
0000
0000
0000
0000
0000
0010
0000
0000
0010
0000
3000
0010
0000
,
1000
0000
0100
0010
0000
0011
0000
2002
,
3003
0000
0000
2200
0000
0000
3300
0000
,
2002
3003
0000
0101
0000
0000
1001
0000
,
1000
0100
0000
0020
0000
0000
0000
0000
,
0031
0010
0100
0010
1000
0010
0000
0002
,
0003
0000
0000
0000
,
1000
0100
0000
0001
0000
0100
1000
0010
,
0001
0000
0000
0000
,
0010
1000
0000
0100
0001
0100
1000
0000
,
0010
0000
0100
0001
0000
1000
0100
0000
,
0010
0100
0000
1000
0000
0001
0100
0010
,
0100
0000
0010
1000
0000
0001
0010
0000
,
0100
0010
0000
0001
1000
0000
1010
0000
,
0010
0100
0001
0100
0010
0000
0000
0100
,
1000
0100
0020
0000
2030
0000
3100
0000
,
0100
0010
0001
0010
0100
0000
0000
0010
,
1000
0010
0200
0000
0320
0000
0031
0000
,
1000
0010
0001
0010
2000
0000
3000
0000
,
0001
0010
1000
0010
0002
0000
0003
0000
,
1000
0001
0100
1000
0000
1000
0100
0001
,
0000
1000
0100
0001
0100
0000
2002
0000
,
3003
0000
0110
1001
,
0000
0001
0010
0100
2000
0000
0010
0000
,
3100
1000
0010
0100
0001
0000
0010
0100
,
0000
0100
1000
0000
0002
0000
0100
0000
,
1000
0103
0001
0011
,
1100
0000
1001
0000
1000
0000
0010
0100
,
0000
0100
0001
0010
0001
0000
0010
0100
,
0000
0100
1000
0000
0020
0000
0001
0000
,
1000
0000
0130
0000
0010
1000
0000
1100
,
0000
1001
0000
1000
0001
0000
0001
0100
,
0000
0100
0001
0010
0100
0000
1000
0020
,
0000
0130
0002
0010
,
1000
0000
0000
1000
0000
0000
1000
0000
1003
0000
0000
0000
0110
0000
0000
0000
,
0001
1000
0000
2010
0000
0000
3020
0000
,
0032
0023
2030
3200
,
0320
0000
0032
0010
0013
0000
0100
0000
,
1100
0000
1000
0000
0010
0100
0110
0000
,
0000
0000
1001
0000
,
0000
0000
1000
0000
,
0000
0000
0001
0020
0000
0000
1000
0000
,
0100
0000
0031
0000
0010
0100
1000
0010
,
0000
1001
0110
1010
,
1000
0001
0000
0011
0000
0001
1000
0000
,
1010
0101
0110
1001
,
0001
0020
0000
0200
0330
0000
0000
0000
,
0000
0000
0110
2002
,
0000
0000
0000
0000
,
0000
0000
0000
0000
,
0000
0000
0000
0000
,
0000
0000
0000
3003
;

//---------------dance-single - Rygon----------------
#NOTES:
     dance-single:
     :
     Medium:
     6:
     0.401,0.504,0.236,0.266,0.000,303.000,31.000,35.000,0.000,0.000,0.000,0.401,0.504,0.236,0.266,0.000,303.000,31.000,35.000,0.000,0.000,0.000:
0000
0000
0000
0000
,
0000
0000
0000
0000
,
0000
0000
0000
0000
,
0000
0000
0000
0000
,
0000
0000
0000
0000
,
1000
0000
0000
0100
0000
0000
0010
0000
,
0000
0001
0000
0000
1000
0000
0001
0000
,
0101
0000
0000
0110
0000
0000
1010
0000
,
0000
1001
0000
0000
0020
0000
0200
0000
,
0330
0100
1000
0001
,
0100
0100
0010
0100
,
0101
0001
0010
0100
,
1000
0000
0001
0000
1000
0000
0010
0100
,
0010
0010
1000
1000
,
0100
0100
0010
0010
,
0001
1000
0000
1000
0000
0010
0000
0010
,
0000
0100
0000
2002
0000
0000
3003
0000
,
1000
1000
0100
0001
,
0100
0100
1000
1000
,
0001
0001
0100
1000
,
0100
0100
0001
0001
,
1000
1000
0010
0001
,
0010
0010
1000
1000
,
0001
0001
0010
1000
,
0010
0000
0010
0000
0001
0000
0001
1000
,
0001
1000
0100
0100
,
0010
0100
2000
3000
,
1000
0001
0100
0010
,
0100
0100
0002
0003
,
1000
0000
0100
0020
0000
0000
0030
0000
,
0001
0000
0100
0020
0000
0000
0030
0000
,
1001
0000
0000
0110
0000
0000
1001
0000
,
1000
0001
0000
0010
0000
0000
0100
0000
,
1000
1001
0001
1001
,
1000
0010
0100
0001
,
1000
1001
0001
1001
,
1000
0000
0000
0100
0000
0000
0010
0000
,
0001
1001
1000
1001
,
0001
0010
0100
1000
,
0001
0000
0000
1000
0000
0000
0000
0000
,
0001
0100
0000
0010
0000
1001
0000
0000
,
1000
0100
0001
0100
,
1000
0001
1001
1000
,
0001
0000
0100
0000
1000
0000
0100
0001
,
1000
0000
0000
0001
0000
0001
0000
0000
,
1000
0010
0001
0010
,
1000
0100
0001
0100
,
1000
0010
1000
0000
0001
0010
0001
0000
,
0200
0000
0010
0000
0310
0100
0000
2002
,
3003
0000
0000
0000
,
1000
0000
0000
0001
0000
0000
0100
0000
,
0010
0000
0000
0000
,
0001
0000
0000
1000
0000
0000
0100
0000
,
0010
0000
0001
0000
,
0100
0000
1000
0000
,
0010
0000
1000
0000
,
0100
0000
0001
0000
,
0010
0100
1000
0000
,
0010
0100
0001
0000
,
0100
0001
0010
0000
,
0100
1000
0010
0000
,
1000
0001
0200
0300
,
0001
1000
0200
0300
,
1000
0010
0100
0001
,
0000
1000
0100
0010
0001
0000
1000
0000
,
1001
0000
0110
1001
,
0000
1000
0002
0013
,
0020
0130
0200
1300
,
2000
3001
2000
3010
,
0020
0130
0200
0301
,
0002
1003
2000
3100
,
0200
0301
0002
0103
,
0200
1300
0002
0203
,
2300
0000
3200
0000
0301
1000
0000
0100
,
0000
0010
0000
0000
1001
0000
1000
0000
,
0110
0100
1001
0001
,
0110
0010
1000
0001
,
1000
0000
0100
0010
0001
0000
1000
0000
,
0010
0100
0000
0002
0000
0000
1003
0000
,
0100
0010
0001
0010
,
0100
1000
0011
0010
,
1100
0000
0100
0000
1000
0001
1000
0000
,
0000
0000
0110
0000
,
0000
0000
1000
0000
,
0000
0000
1000
0001
0000
0000
0001
0000
,
0100
0100
0010
0200
,
0300
1001
1000
1000
,
0001
0100
0000
0010
0000
0010
1000
0000
,
0001
0001
1000
0100
,
0010
0002
0000
2000
3003
0000
0000
0000
,
0000
0000
0110
2002
,
0000
0000
0000
0000
,
0000
0000
0000
0000
,
0000
0000
0000
0000
,
0000
0000
0000
3003
;

//---------------dance-single - ----------------
#NOTES:
     dance-single:
     X-4:
     Easy:
     3:
     0.259,0.317,0.205,0.129,0.000,194.000,27.000,17.000,0.000,0.000,0.000,0.259,0.317,0.205,0.129,0.000,194.000,27.000,17.000,0.000,0.000,0.000:
0000
0000
0000
0000
,
0000
0000
0000
0000
,
0000
0000
0000
0000
,
0000
0000
0000
0000
,
0000
0000
0000
0000
,
0010
0000
0000
0010
0000
0000
0100
0000
,
0000
0100
0000
0000
1001
0000
0000
0000
,
0100
0000
0000
0100
0000
0000
0010
0000
,
0000
0010
0000
0000
2002
0000
0000
3003
,
0000
0000
1000
0000
,
0001
0000
0001
0000
,
0100
0000
0100
0000
,
0001
0001
0001
0000
,
0000
1000
0000
1000
,
0000
0100
0000
0100
,
0110
0000
0000
1000
0000
1000
0000
0001
,
0000
0001
0000
2002
0000
0000
3003
0000
,
0001
0100
1000
0000
,
0100
0000
0001
0000
,
1000
0100
0001
0000
,
0100
0000
1000
0000
,
0001
0010
1000
0000
,
0010
0000
0001
0000
,
1000
0010
0001
0000
,
0010
0000
1000
0000
,
0001
0001
0100
0000
,
1000
1000
0100
0000
,
0001
0000
1000
0000
,
0220
0000
0330
0000
,
1000
0000
0000
1100
0000
0000
0000
0000
,
0001
0000
0000
0101
0000
0000
0000
0000
,
1000
0000
0000
0001
0000
0000
0220
0000
,
0330
0000
0000
0000
,
1001
0000
1000
0000
,
0001
0001
0001
0000
,
1000
0000
0100
0000
,
0001
0100
1000
0000
,
1001
0000
0001
0000
,
1000
1000
1000
0000
,
0001
0000
0100
0000
,
1000
0100
0001
0000
,
1001
0000
1000
0000
,
0001
0001
0001
0000
,
1000
0000
0100
0000
,
0001
0100
1000
0000
,
1001
0000
0001
0000
,
1000
1000
1000
0000
,
0001
0000
0100
0000
,
1000
0100
0001
0000
,
2000
3000
0000
0000
,
0000
0000
0000
0000
,
0002
0003
0000
0000
,
0000
0000
0000
0000
,
1000
0100
0001
0000
,
0100
0000
0100
0000
,
1000
0000
0010
0000
,
2002
0000
3003
0000
,
0001
0100
1000
0000
,
0100
0000
0001
0000
,
1000
0100
0001
0000
,
0100
0000
1000
0000
,
0010
0100
0001
0000
,
0010
0100
1000
0000
,
0001
0001
1000
1000
,
0001
1000
0010
0100
,
0001
0000
1001
1001
,
0000
0000
1001
0000
,
0001
0000
1000
1000
,
1000
0000
0001
0000
,
0010
0000
1000
0010
,
0001
0000
1001
0000
,
1000
0000
0001
0001
,
0001
0000
1000
0000
,
0010
0000
0001
0010
,
1000
0000
1001
0000
,
0001
0000
1000
1000
,
1000
0000
0001
0000
,
0010
0000
1000
0010
,
0001
0000
1001
0000
,
1000
0000
0001
0001
,
0001
0000
1000
0000
,
0010
0000
0001
0020
,
0030
0000
1000
0000
,
0000
0000
0000
0000
,
0000
0000
0001
0000
,
0010
0000
0100
0000
,
0000
1001
1001
0000
,
1000
0000
0110
0000
,
0010
0000
1001
0000
,
0110
0000
2002
3003
,
0000
0000
1001
2002
,
0000
0000
0000
0000
,
0000
0000
0000
3003
;

//---------------dance-double - ----------------
#NOTES:
     dance-double:
     X-14:
     Challenge:
     9:
     0.635,0.648,0.464,0.228,0.129,494.000,61.000,30.000,0.000,0.000,0.000,0.635,0.648,0.464,0.228,0.129,494.000,61.000,30.000,0.000,0.000,0.000: // measure 0
00000000
00000000
00000000
00000000
,  // measure 1
00000000
00000000
00000000
00000000
,  // measure 2
00000000
00000000
00000000
00000000
,  // measure 3
00000000
00000000
00000000
00000000
,  // measure 4
00000000
00000000
00000000
00000000
,  // measure 5
00000100
00000001
00000010
00000100
00001000
00000010
00010000
00001000
,  // measure 6
00100000
01000000
10000000
00100000
01100000
00000000
10010000
00000000
,  // measure 7
10000000
00100000
01000000
00010000
00100000
00001000
00000100
00000001
,  // measure 8
00000010
00000100
00010000
00001000
00100000
02000000
00000000
20000000
,  // measure 9
33000000
00000000
01000000
00000000
10000000
01000000
00100000
00010000
,  // measure 10
00000000
00001000
00000100
00000010
00000001
00000100
00001000
00000100
,  // measure 11
00000001
00000101
00001010
00101000
,  // measure 12
00100000
01000000
00000000
11000000
00000000
00010000
01000000
00010000
,  // measure 13
00100000
00000000
00001000
00010000
00000000
00010000
00000010
00000000
,  // measure 14
00000100
00000001
00000010
00000100
00001000
00000000
00001010
00000000
,  // measure 15
00010000
00001000
00000000
00101000
00000000
01100000
00000000
11000000
,  // measure 16
00000000
10100000
00000000
00220000
00030000
00000000
00302000
00000000
,  // measure 17
00013000
00000000
00010000
00000000
00001000
00010000
00000100
00000010
,  // measure 18
00000000
00000010
00000001
00000100
00001000
00010000
00100000
01000000
,  // measure 19
00001000
00000000
00001000
00000000
00010000
00001000
00100000
01000000
,  // measure 20
00000000
01000000
10000000
00100000
00010000
00001000
00000100
00000010
,  // measure 21
00010000
00000000
00010000
00000000
00001000
00010000
00000010
00000100
,  // measure 22
00000000
00000100
00000001
00000010
00001000
00010000
01000000
00100000
,  // measure 23
00001000
00010000
00001000
00100000
00000000
00001000
01000000
00100000
,  // measure 24
10000000
01000000
00010000
00001000
00000000
00000011
00000000
00000100
,  // measure 25
00001000
00000000
00001100
00000000
00000100
00010000
00000000
00011000
,  // measure 26
00000000
00001000
01000000
00100000
10000000
00000000
11000000
00000000
,  // measure 27
01000000
00010000
00001000
00000100
00000000
00000001
00000010
00001000
,  // measure 28
00000000
00010000
00100000
10000000
01000000
00000000
10010000
00000000
,  // measure 29
00010000
00100000
00001000
00020000
00000000
00000000
00031000
00000000
,  // measure 30
00010000
00000010
00010000
00002000
00000000
00000000
00013000
00000000
,  // measure 31
00010000
00000100
00000010
00000001
00000100
00001000
00010000
00100000
,  // measure 32
10000000
01000000
00000000
22000000
00000000
00000000
33000000
00000000
,  // measure 33
10010000
00000000
00000000
10000000
00010000
00000000
00000000
01000000
00001000
00000000
00000000
00100000
00001000
00000000
00001000
00000000
,  // measure 34
00010000
00000000
00000000
00000010
00001000
00000000
00000000
00000001
00000100
00000000
00000000
00000001
00000010
00000000
00000010
00000000
,  // measure 35
00000100
00010000
00000000
00001000
00011000
00000000
01001000
00000000
,  // measure 36
01010000
00010000
10000000
12000000
00000000
03100000
00010000
00100000
,  // measure 37
00001000
00010000
00000100
00000010
00000001
00000100
00000010
00010000
,  // measure 38
00001000
01000000
00100000
10000000
01000000
00100000
00010000
01000000
,  // measure 39
00002000
00000000
00000000
00020000
00000000
00000000
00033000
00000000
,  // measure 40
00010000
00000100
00000000
00001100
00000000
00000011
00000000
00000000
,  // measure 41
00001001
00000000
00000000
00000001
00001000
00000000
00000000
00000010
00010000
00000000
00000000
00000100
00010000
00000000
00010000
00000000
,  // measure 42
00001000
00000000
00000000
01000000
00010000
00000000
00000000
10000000
00100000
00000000
00000000
10000000
01000000
00000000
01000000
00000000
,  // measure 43
00100000
00000000
00001000
00000000
00000000
00000000
00010000
00000000
00001000
00000000
00000000
00010000
00000000
00000000
00010010
00000000
,  // measure 44
00000010
00001000
00000001
00000021
00000000
00000130
00001000
00000100
,  // measure 45
00010000
00001000
00100000
01000000
10000000
00100000
01000000
00010000
,  // measure 46
00100000
00001000
00000010
00000001
00000100
00000010
00010000
00000100
,  // measure 47
00020000
00001000
00000000
00002000
00000000
00000000
00033000
00000000
,  // measure 48
00010000
00001000
00010000
00001000
00100000
00000000
00010000
00000000
00000000
00000000
01000000
00000000
00100000
10000000
00100000
10000000
,  // measure 49
02000000
03000000
00000000
00000000
00000000
00000000
00000000
00000000
00000000
00000000
00000000
00000000
00000000
00000000
00000000
00000000
,  // measure 50
00000100
00000000
00000001
00001000
00000000
00000100
00010000
00001000
,  // measure 51
00010000
00000000
00000000
00000000
,  // measure 52
01000000
00000000
10000000
00000000
00010000
00000000
01000000
00000000
00001000
00000000
00000000
00001000
00010000
00000000
00000000
00000000
,  // measure 53
00001000
00010000
00000100
00000010
00000001
00000000
00000000
00001000
,  // measure 54
00000010
00010000
00001000
00000000
00000000
00010000
00001000
00010000
,  // measure 55
00010000
00000000
00001000
01000000
00000000
00100000
10000000
00010000
,  // measure 56
00100000
00000000
00001000
00010000
00001000
00000000
00001001
00000000
,  // measure 57
00000001
00000010
00000100
00001000
00000010
00000000
00010000
00000100
,  // measure 58
00000010
00001000
00010000
00000000
00011000
00000000
01100000
00000000
,  // measure 59
10000000
01000000
00100000
00010000
01000000
00000000
00001000
00100000
,  // measure 60
01000000
00010000
00001000
00000000
00011000
00000000
00000110
00000000
,  // measure 61
00000001
00000010
00000100
00010000
00011000
00000000
00000000
00001000
,  // measure 62
00100000
00000000
00010000
00000000
01000000
00000000
00100000
00000000
20020000
00000000
00000000
00000000
00030000
30000000
00000000
00000000
,  // measure 63
10010000
00100000
00011000
00000010
,  // measure 64
00001001
00000000
00000000
00000100
00000010
00000000
00000000
00000010
00010000
00000000
00000000
00001000
00100000
00000000
01000000
00000000
,  // measure 65
10000000
00000000
00011000
00000110
,  // measure 66
00000000
00000000
00000100
00000000
00000010
00000000
00000001
00000000
00001001
00000000
00000000
00000001
00001000
00000000
00000000
00000010
,  // measure 67
00010000
00000000
00000000
00000100
00010000
00000000
00010000
00000000
00001000
00000000
00000000
01000000
00010000
00000000
00000000
10000000
,  // measure 68
00100000
00000000
00000000
10000000
01000000
00000000
01000000
00000000
00100000
00000000
00000000
00000000
00001000
00000000
00000000
00000000
,  // measure 69
00011000
00010010
00001010
00000021
,  // measure 70
00000230
00000000
00001300
00000100
00010000
00001000
00100000
01000000
,  // measure 71
10000000
00100000
01000000
00001000
00010000
00000010
00000100
00000001
,  // measure 72
00000010
00000100
00001000
00000010
00020000
00000000
00000000
00002000
,  // measure 73
00000000
00000000
00033000
00000000
00001000
00100000
00000000
00110000
,  // measure 74
00000000
00000000
11000000
00000000
00000000
00000000
00000000
00000000
10010000
00000000
00000000
10000000
00010000
00000000
00000000
01000000
,  // measure 75
00001000
00000000
00000000
00100000
00001000
00000000
00001000
00000000
00010000
00000000
00000000
00000010
00001000
00000000
00000000
00000001
,  // measure 76
00000100
00000000
00000000
00000001
00000010
00000000
00000010
00000000
00000100
00000000
00000000
00000000
00010000
00000000
00001000
00000000
,  // measure 77
00010000
00000000
00000000
00001000
00000000
00000000
01001000
00000000
01000000
00000000
00010000
00000000
10000000
00000000
00000000
00000000
,  // measure 78
01000000
00100000
00000000
00101000
00000000
00010000
00000100
00000010
,  // measure 79
00000001
00000100
00000010
00001000
00000100
00010000
01000000
10000000
,  // measure 80
00100000
01000000
00001000
00100000
00101000
00000000
00001000
00000000
,  // measure 81
00010100
00000000
00010000
00000000
00000100
00000010
00000110
00000000
,  // measure 82
00000000
00000000
00011000
00000000
,  // measure 83
00000000
00000000
10000000
00000000
,  // measure 84
00000000
00000000
00010000
00200000
00000000
00000000
00302000
00000000
,  // measure 85
00023000
00000000
00030200
00000000
00000310
00000001
00001000
00000100
,  // measure 86
00000000
00010000
00011000
00000000
00100000
00000000
01100000
00000000
,  // measure 87
01000000
10000000
00000000
10100000
00000000
01000000
00010000
00000000
,  // measure 88
00101000
00000000
00011000
00000000
00010000
00000100
00000001
00001000
,  // measure 89
00000010
00000001
00000200
00002000
00003300
00000000
00000000
00000000
,  // measure 90
00000000
00000000
00000110
00022000
,  // measure 91
00000000
00000000
00000000
00000000
,  // measure 92
00000000
00000000
00000000
00000000
,  // measure 93
00000000
00000000
00000000
00000000
,  // measure 94
00000000
00000000
00000000
00033000
;
