#TITLE:Brodyquest;
#SUBTITLE:;
#ARTIST:Lemon Demon;
#TITLETRANSLIT:;
#SUBTITLETRANSLIT:;
#ARTISTTRANSLIT:;
#CREDIT:Lisek;
#BANNER:bn.png;
#BACKGROUND:bg.png;
#LYRICSPATH:;
#CDTITLE:Lisek.png;
#MUSIC:Brodyquest.ogg;
#OFFSET:-0.030;
#SAMPLESTART:91.940;
#SAMPLELENGTH:10.220;
#SELECTABLE:YES;
#BPMS:0.000=188.000;
#STOPS:;
#BGCHANGES:;

//---------------dance-single - Lisek----------------
#NOTES:
     dance-single:
     Lisek:
     Hard:
     8:
     0.557,0.661,0.122,0.321,0.000: // measure 1
0000
0000
0000
0000
,  // measure 2
0000
0000
0000
0000
,  // measure 3
0000
0000
0000
0000
,  // measure 4
0000
0000
0000
0000
,  // measure 5
1000
0001
0100
0000
,  // measure 6
0010
0000
0100
0000
,  // measure 7
0001
1000
0100
0000
,  // measure 8
0010
0000
0100
0000
,  // measure 9
1000
0010
0100
0000
,  // measure 10
0010
0000
1000
0000
0010
1000
0000
0000
,  // measure 11
0100
0010
0100
0000
,  // measure 12
1000
0000
0010
0000
0100
0010
0000
0000
,  // measure 13
0100
0010
1000
0000
,  // measure 14
0001
0000
0010
0000
0001
0010
0000
0000
,  // measure 15
0001
1000
0010
0000
,  // measure 16
0100
0000
0010
0000
0100
0010
0000
0000
,  // measure 17
1000
0100
0020
0000
,  // measure 18
0030
0000
0001
0100
0010
1000
0010
0000
,  // measure 19
1000
0100
0010
0200
,  // measure 20
0300
0000
1000
0010
0100
0010
1000
0000
,  // measure 21
0010
0000
1000
0000
0002
0000
0003
0100
,  // measure 22
0010
1000
0010
0000
1000
0000
0100
0000
,  // measure 23
2000
0000
3002
0000
,  // measure 24
1003
0000
0001
0000
1000
0010
0000
1000
,  // measure 25
0000
0000
0001
0100
0000
0000
0001
1000
,  // measure 26
0010
0000
1000
0000
0100
1000
0000
0001
,  // measure 27
0000
0100
0001
1000
,  // measure 28
0001
0000
0100
0001
1000
0010
0000
0020
,  // measure 29
0000
0000
1030
0100
0010
0000
0100
0000
,  // measure 30
1000
0001
0000
0100
0000
0010
0000
1000
,  // measure 31
0000
0100
1000
0000
0010
0000
0100
0000
,  // measure 32
0001
0010
0100
0000
0010
0001
0000
0000
,  // measure 33
1000
0010
0001
0000
,  // measure 34
0011
0000
1010
0000
,  // measure 35
1100
1000
0001
0000
,  // measure 36
0101
0000
0110
0000
,  // measure 37
1010
1000
0100
0000
,  // measure 38
2200
0000
0000
3300
,  // measure 39
2002
0000
0000
3003
,  // measure 40
0001
0010
0100
1000
,  // measure 41
0001
0000
0100
0010
0000
0100
0010
0100
,  // measure 42
0010
0000
0000
1000
0000
0100
0010
0001
,  // measure 43
1000
0000
0001
0000
0100
0000
0010
0100
,  // measure 44
0001
0000
0000
0010
0000
0100
1000
0100
,  // measure 45
0010
0000
0001
0000
1000
0000
0001
0100
,  // measure 46
0010
0000
0000
0100
0000
0010
1000
0010
,  // measure 47
0100
0000
0001
0000
0010
0000
0100
1000
,  // measure 48
0100
0000
0000
0010
0000
0001
1000
0010
,  // measure 49
2000
0000
0000
3100
2000
0000
0000
3000
,  // measure 50
0020
0030
0000
2000
3000
0002
0003
0200
,  // measure 51
0300
0000
0002
0003
0020
0030
0000
0000
,  // measure 52
0002
0003
0000
2000
3000
0002
0003
0200
,  // measure 53
0300
0000
0020
0030
2000
3000
0000
0000
,  // measure 54
0002
0003
0000
2000
3000
0020
0030
0000
,  // measure 55
2000
3000
0200
0300
0020
0030
0000
0000
,  // measure 56
0002
0003
0000
0200
0300
0020
0030
2000
,  // measure 57
3001
0000
0100
0010
1000
0000
0100
0010
,  // measure 58
0001
0000
1000
0010
0100
0000
0010
1000
,  // measure 59
0001
0000
0010
0001
1000
0000
0100
0010
,  // measure 60
0001
0000
1000
0010
0100
0000
0010
1000
,  // measure 61
0001
0000
0010
0100
1000
0000
0100
0010
,  // measure 62
0001
0000
1000
0010
0100
0000
0001
0100
,  // measure 63
0010
0000
0100
0001
1000
0000
0100
0010
,  // measure 64
0001
0000
1000
0001
1000
0000
0001
1000
,  // measure 65
0010
0100
0001
0000
0011
0000
0100
1000
,  // measure 66
0000
0010
0000
0000
1010
0000
1001
0000
,  // measure 67
1000
0100
0010
0000
0110
0000
0100
1000
,  // measure 68
0000
0010
0000
0000
0110
0000
1010
0000
,  // measure 69
1000
0100
0010
0001
1000
0010
0100
0001
,  // measure 70
1000
0001
0010
0100
1000
0001
0100
0010
,  // measure 71
1000
0100
0010
0001
1000
0001
0100
0010
,  // measure 72
1000
0001
0010
0100
1000
0001
0100
0010
,  // measure 73
1000
0000
0100
0010
0001
0000
1000
0010
,  // measure 74
0100
0000
0010
1000
0001
0000
0010
0001
,  // measure 75
1000
0000
0100
0010
0001
0000
1000
0010
,  // measure 76
0100
0000
0010
1000
0001
0000
0010
0100
,  // measure 77
1000
0000
0001
0100
0010
0000
1000
0100
,  // measure 78
0010
0000
0001
1000
0010
0000
0100
0010
,  // measure 79
1000
0000
0001
0010
0100
0000
1000
0001
,  // measure 80
0100
0000
0010
0100
0001
0000
1000
0100
,  // measure 81
0010
0001
1000
0001
0100
0010
0100
0000
,  // measure 82
0010
1000
0100
0010
0001
1000
0010
0000
,  // measure 83
0100
0010
1000
0100
0010
0001
1000
0000
,  // measure 84
0010
1000
0010
0100
0001
0010
0001
0000
,  // measure 85
1000
0100
0010
0001
1000
0010
0100
0000
,  // measure 86
0010
1000
0001
0010
0001
1000
0010
0000
,  // measure 87
0100
0010
1000
0001
0010
0100
1000
0000
,  // measure 88
0001
1000
0100
0010
0001
1000
0001
0000
,  // measure 89
0002
0000
0203
0000
,  // measure 90
0300
0020
0000
0000
1030
0000
0000
0000
;

//---------------dance-single - ----------------
#NOTES:
     dance-single:
     :
     Medium:
     4:
     0.328,0.389,0.070,0.122,0.000:
0000
0000
0000
0000
,
0000
0000
0000
0000
,
0000
0000
0000
0000
,
0000
0000
0000
0000
,
1000
0000
0001
0000
,
0100
0000
0010
0000
,
0100
0000
0001
0000
,
1000
0000
0100
0000
,
1000
0010
1000
0000
,
0001
0000
0100
0000
,
0010
0100
0010
0000
,
1000
0000
0100
0000
,
0010
0001
1000
0000
,
0001
0000
0100
0000
,
0010
1000
0100
0000
,
1000
0000
0010
0000
,
0100
0001
2000
0000
,
3100
0000
0010
0000
,
0001
0010
0100
1000
,
0010
0000
0100
0000
,
0010
1000
0010
0000
,
0100
0001
0100
0000
,
0002
0000
2003
0000
,
3001
0010
0100
1000
,
0001
0100
0001
0000
,
1000
0000
0010
0000
,
1000
0001
0100
0000
,
0010
1000
0100
0000
,
0010
0000
0100
0000
,
1000
0001
0100
0000
,
0010
0000
0100
0000
,
0001
1000
0001
0000
,
1000
0100
1000
0000
,
1010
0000
0110
0000
,
1010
1000
0010
0000
,
1010
0000
1001
0000
,
0101
0001
0100
0000
,
1001
0000
0000
0000
,
0110
0000
0000
0000
,
1000
0100
0010
0001
,
1000
0000
0001
0000
,
0100
0000
0010
0000
,
1000
0001
0100
0000
,
0001
0000
1000
0000
,
0010
1000
0100
0000
,
1000
0000
0001
0000
,
0100
0010
1000
0000
,
0001
0000
0010
0000
,
0001
1000
0010
0000
,
0100
0000
0010
0000
,
0100
0010
1000
0000
,
0100
0000
0010
0000
,
0100
1000
0010
0000
,
0100
0000
0010
0000
,
1000
0001
0100
0000
,
0001
0000
1000
0000
,
0010
1000
0010
0000
,
0100
0000
0010
0000
,
1000
0010
0100
0000
,
0001
0000
0010
0000
,
0100
1000
0100
0000
,
0010
0000
0001
0000
,
1000
0010
0100
0000
,
0010
0000
1000
0000
,
0001
0100
0001
0100
,
0001
0100
0001
0100
,
0010
1000
0010
1000
,
0010
1000
0010
1000
,
0002
0000
0023
0000
,
0032
0000
0203
0000
,
0320
0000
2030
0000
,
3200
0000
2300
0000
,
3001
0100
0001
1000
,
0010
0100
0010
1000
,
0100
0010
0001
1000
,
0010
0100
0010
1000
,
0001
0100
0010
0100
,
0001
1000
0100
0010
,
0001
1000
0010
0100
,
0010
1000
0100
1000
,
0010
0100
0001
1000
,
0010
0100
0010
1000
,
0001
0010
0001
0100
,
0010
0100
0001
1000
,
0100
1000
0010
0100
,
0010
1000
0001
0010
,
0001
1000
0010
0100
,
0010
1000
0001
0100
,
0020
0000
0230
0000
,
0302
0000
1003
0000
;

//---------------dance-single - ----------------
#NOTES:
     dance-single:
     :
     Beginner:
     1:
     0.104,0.156,0.035,0.104,0.000:
0000
0000
0000
0000
,
0000
0000
0000
0000
,
0000
0000
0000
0000
,
0000
0000
0000
0000
,
0000
0000
0000
0000
,
0000
0000
0000
0000
,
0000
0000
0000
0000
,
0000
0000
0000
0000
,
1000
0000
0000
0000
,
0001
0000
0000
0000
,
0100
0000
0000
0000
,
0010
0000
0000
0000
,
1000
0000
0000
0000
,
0001
0000
0000
0000
,
0100
0000
0000
0000
,
0010
0000
0000
0000
,
2000
0000
0000
0000
,
0000
0000
0000
0000
,
3002
0000
0000
0000
,
0000
0000
0000
0000
,
0203
0000
0000
0000
,
0000
0000
0000
0000
,
0320
0000
0000
0000
,
0000
0000
0000
0000
,
2030
0000
0000
0000
,
0000
0000
0000
0000
,
3200
0000
0000
0000
,
0000
0000
0000
0000
,
0320
0000
0000
0000
,
0000
0000
0000
0000
,
0032
0000
0000
0000
,
0000
0000
0000
0000
,
1003
0000
0000
0000
,
0010
0000
0000
0000
,
1000
0000
0000
0000
,
0100
0000
0000
0000
,
1000
0000
0000
0000
,
0010
0000
0000
0000
,
1000
0000
0000
0000
,
0001
0000
0000
0000
,
1000
0000
0000
0000
,
0001
0000
0000
0000
,
0100
0000
0000
0000
,
0010
0000
0000
0000
,
1000
0000
0000
0000
,
0100
0000
0000
0000
,
1000
0000
0000
0000
,
0001
0000
0000
0000
,
0100
0000
0000
0000
,
0001
0000
0000
0000
,
0100
0000
0000
0000
,
0010
0000
0000
0000
,
0100
0000
0000
0000
,
0001
0000
0000
0000
,
0100
0000
0000
0000
,
0010
0000
0000
0000
,
1000
0000
0000
0000
,
0100
0000
0000
0000
,
1000
0000
0000
0000
,
0010
0000
0000
0000
,
1000
0000
0000
0000
,
0100
0000
0000
0000
,
1000
0000
0000
0000
,
0010
0000
0000
0000
,
1100
0000
0000
0000
,
0000
0000
0000
0000
,
0011
0000
0000
0000
,
0000
0000
0000
0000
,
2002
0000
0000
0000
,
0000
0000
0000
0000
,
0000
0000
0000
0000
,
0000
0000
0000
3003
,
0001
0000
0000
0000
,
0100
0000
0000
0000
,
0010
0000
0000
0000
,
1000
0000
0000
0000
,
0010
0000
0000
0000
,
0100
0000
0000
0000
,
0001
0000
0000
0000
,
1000
0000
0000
0000
,
0001
0000
0000
0000
,
0100
0000
0000
0000
,
0010
0000
0000
0000
,
0100
0000
0000
0000
,
0001
0000
0000
0000
,
1000
0000
0000
0000
,
0010
0000
0000
0000
,
1000
0000
0000
0000
,
2002
0000
0000
0000
,
0000
0000
3003
0000
;

//---------------dance-single - ----------------
#NOTES:
     dance-single:
     :
     Easy:
     2:
     0.195,0.233,0.009,0.052,0.000:
0000
0000
0000
0000
,
0000
0000
0000
0000
,
0000
0000
0000
0000
,
0000
0000
0000
0000
,
1000
0000
0000
0000
,
0000
0000
0000
0000
,
0001
0000
0000
0000
,
0000
0000
0000
0000
,
1000
0000
0000
0000
,
0010
0000
0000
0000
,
0100
0000
0000
0000
,
0001
0000
0000
0000
,
0010
0000
0000
0000
,
0100
0000
0000
0000
,
1000
0000
0000
0000
,
0001
0000
0000
0000
,
1000
0000
0010
0000
,
1000
0000
0100
0000
,
1000
0000
0010
0000
,
0100
0000
0001
0000
,
0010
0000
0001
0000
,
0100
0000
0010
0000
,
1000
0000
0001
0000
,
1000
0000
0000
0000
,
0001
0000
0100
0000
,
0010
0000
0100
0000
,
0001
0000
1000
0000
,
0100
0000
0010
0000
,
0001
0000
1000
0000
,
0010
0000
1000
0000
,
0001
0000
0100
0000
,
0001
0001
0000
0000
,
1000
0000
0100
0000
,
1000
0000
0100
0000
,
0010
0000
0001
0000
,
0010
0000
0001
0000
,
1000
0000
0010
0000
,
1000
0000
0010
0000
,
0100
0000
0001
0000
,
0100
0000
0001
0000
,
1000
0000
0100
0000
,
1000
0000
0010
0000
,
0100
0000
0010
0000
,
1000
0000
0100
0000
,
1000
0000
0010
0000
,
0100
0000
0010
0000
,
1000
0000
0001
0000
,
0100
0000
0010
0000
,
1000
0000
0001
0000
,
0100
0000
0001
0000
,
1000
0000
0001
0000
,
0100
0000
0001
0000
,
1000
0000
0001
0000
,
0010
0000
0001
0000
,
1000
0000
0001
0000
,
0010
0000
0001
0000
,
1000
0000
0010
0000
,
0100
0000
0010
0000
,
1000
0000
0001
0000
,
0010
0000
0100
0000
,
1000
0000
0001
0000
,
0100
0000
0010
0000
,
1000
0000
0100
0000
,
0010
0000
0001
0000
,
1000
0000
0010
0000
,
1000
0000
0010
0000
,
1000
0000
0100
0000
,
1000
0000
0100
0000
,
2000
0000
0000
0000
,
3002
0000
0000
0000
,
0203
0000
0000
0000
,
0320
0000
0000
0000
,
1030
0000
0100
0000
,
1000
0000
0010
0000
,
0100
0000
0001
0000
,
0010
0000
0001
0000
,
1000
0000
0010
0000
,
0100
0000
0001
0000
,
0010
0000
0001
0000
,
1000
0000
0010
0000
,
0100
0000
0010
0000
,
1000
0000
0001
0000
,
0100
0000
0001
0000
,
1000
0000
0010
0000
,
1000
0000
0001
0000
,
0100
0000
0001
0000
,
0010
0000
0100
0000
,
1000
0000
0001
0000
,
2002
0000
0000
0000
,
0000
0000
3003
0000
;
