#TITLE:Back 2 Back;
#SUBTITLE:(Cash Cash Remix);
#ARTIST:長沼英樹;
#TITLETRANSLIT:;
#SUBTITLETRANSLIT:;
#ARTISTTRANSLIT:Hideki Naganuma;
#GENRE:;
#CREDIT:;
#BANNER:[ROUND 6] - Back 2 Back (Cash Cash Remix).png;
#BACKGROUND:[ROUND 6] - Back 2 Back (Cash Cash Remix)-bg.png;
#LYRICSPATH:;
#CDTITLE:;
#MUSIC:[ROUND 6] - Back 2 Back (Cash Cash Remix).mp3;
#OFFSET:-0.628;
#SAMPLESTART:32.637;
#SAMPLELENGTH:12.800;
#SELECTABLE:YES;
#BPMS:0.000=150.002
;
#STOPS:
;
#BGCHANGES:;
#KEYSOUNDS:;
#ATTACKS:;

//---------------dance-single - ----------------
#NOTES:
     dance-single:
     :
     Hard:
     8:
     0.565,0.588,0.384,0.128,0.164,377.000,42.000,14.000,0.000,0.000,0.000,0.565,0.588,0.384,0.128,0.164,377.000,42.000,14.000,0.000,0.000,0.000:
0000
0000
0000
0000
,
0000
0000
0000
0000
,
0000
0000
0000
0000
,
0000
0000
0000
0000
,
1001
0001
0000
0001
,
0000
0100
0000
0100
,
0000
0010
0000
0010
,
0000
1000
0000
1000
,
1001
1000
0100
0000
0000
0100
0010
0000
,
0000
0000
0010
0000
0001
0000
0000
1000
0000
0000
1000
0000
0001
0000
0000
0000
,
0000
0001
0100
0000
0000
0100
0010
0000
,
1000
0000
0001
0000
0010
0000
0000
0110
0000
0000
0001
0000
1000
0001
1000
0100
,
0010
0000
0001
0100
0100
0000
1001
0000
,
1000
0000
0010
0100
0100
0000
1001
0000
,
0010
0000
0100
1000
1000
0000
1001
0000
,
0010
0000
0000
0000
0100
0000
0001
0000
0001
0000
1000
0000
0001
0100
0001
1000
,
0020
0000
0000
0030
0110
0000
0100
0000
0001
0000
0000
0000
1100
0000
0000
0000
,
0001
0000
0010
0100
1000
0000
0101
0000
,
2000
0000
0000
3000
0010
0000
0100
0000
0100
0000
0000
0000
1010
0000
0000
0000
,
0002
0000
0000
0000
0000
0000
1003
0001
1000
0100
1000
0100
0010
0000
0000
0000
,
0001
1000
0011
0000
0000
0001
1000
0000
,
0010
0100
0110
0000
0000
0100
0001
0000
,
1000
0001
1100
0000
0000
0100
0010
0000
,
0001
0000
1000
0000
1001
0000
0000
0000
0000
0000
0001
0000
0100
0010
0100
0010
,
0100
0001
0101
0000
0000
0001
1000
0000
,
0100
0010
0110
0000
0000
0100
1000
0000
,
0001
1000
0101
0000
0000
0100
0010
0000
,
1000
0000
0010
0000
0001
0000
0100
0000
1000
0000
0010
0000
1000
0001
1000
0001
,
1000
0100
0001
0000
0110
0000
1000
0000
,
0001
0100
1000
0000
0110
0000
0001
0000
,
1000
0100
0001
0000
0110
0000
1000
0000
,
0001
0000
0100
0000
1000
0000
0000
0000
0110
0000
0000
0000
0010
0000
1000
0001
,
1000
0010
0001
0000
0110
0000
1000
0000
,
0001
0010
1000
0000
0110
1000
0001
0000
,
0100
0001
0010
1000
0100
0001
0010
0100
,
1000
0000
0001
0000
0110
0000
1000
0001
0010
0001
1000
0000
0110
0000
0000
0000
,
0001
0100
0120
0000
0000
1030
0010
0100
,
0002
1000
1000
0000
0000
0013
0100
1000
,
0001
0010
0120
0000
0000
0130
0001
0100
,
2000
0001
0001
0000
3000
1000
0010
0000
,
1000
0100
0120
0000
0000
0031
0010
0100
,
2000
0001
0001
0000
0000
3010
0100
0001
,
1000
0100
0120
0000
0000
0130
0001
0100
,
1000
0000
0010
0000
0100
0000
0010
0000
1000
0010
1000
0010
0100
0000
0001
0000
,
1000
0000
0100
0000
0001
0000
0100
0010
0100
0000
0000
0000
2000
0000
0000
0000
,
3001
0000
0100
0000
1000
0000
0100
0010
0100
0000
0000
0000
0002
0000
0000
0000
,
1003
0000
0100
0000
0001
0000
0100
0010
0100
0000
0000
0000
1000
0000
0001
0000
,
1000
0000
0010
0000
0001
0000
0010
0100
0010
0000
0000
0000
2000
0000
0000
0000
,
3001
0000
0010
0000
1000
0000
0010
0100
0010
0000
0100
0000
0100
0000
0100
0000
,
1000
0000
0100
0000
0001
0100
0000
1000
0000
0000
0001
0000
1000
0000
0010
0000
,
0001
0000
0000
0001
0010
0000
0000
0010
1000
0000
0000
0001
0010
0100
0010
0100
,
0010
0000
0000
0000
,
0001
0100
1010
0000
0000
1000
0001
0000
,
0010
0100
0110
0000
0000
0100
1000
0000
,
0001
1000
0011
0000
0000
0010
0100
0000
,
1000
0000
0001
0000
1001
0000
0000
0000
0000
0000
1000
0000
0001
0010
0001
0010
,
0001
1000
1100
0000
0000
1000
0001
0000
,
0100
0010
0110
0000
0000
0100
0001
0000
,
1000
0001
1100
0000
0000
0100
0010
0000
,
0001
0000
0010
0000
1000
0000
0100
0000
0001
0000
0010
0000
0001
1000
0001
1000
,
0001
0100
1000
0000
0101
0000
0010
0000
,
1000
0100
0001
0000
1100
0000
0010
0000
,
0001
0100
1000
0000
0110
0000
0001
0000
,
1000
0000
0100
0000
0001
0000
0000
0000
0110
0000
0000
0000
0010
0100
0010
0100
,
1000
0001
1000
0000
0011
0001
0100
0000
,
0001
1000
0001
0000
1010
0010
0100
0000
,
0001
0100
1000
0010
0001
0100
0010
1000
,
0002
0000
0000
0003
;

//---------------dance-single - ----------------
#NOTES:
     dance-single:
     :
     Medium:
     7:
     0.449,0.464,0.146,0.155,0.009,311.000,16.000,17.000,0.000,0.000,0.000,0.449,0.464,0.146,0.155,0.009,311.000,16.000,17.000,0.000,0.000,0.000:
0000
0000
0000
0000
,
0000
0000
0000
0000
,
0000
0000
0000
0000
,
0000
0000
0000
0000
,
1001
0001
0000
1000
,
0000
0001
0000
1000
,
0000
0100
0000
0010
,
0000
0100
0000
0010
,
0110
0001
0000
0010
,
0100
1000
0000
0001
,
1000
0010
0000
0010
,
0100
0001
0100
0000
0010
1000
0010
0000
,
0100
0000
0000
0001
0100
0000
0010
0000
,
1000
0000
0000
1000
0100
0000
0010
0000
,
0001
0000
0000
1000
0001
0000
1000
0000
,
0010
0000
0000
0100
0001
0100
0010
1000
,
0002
0000
0003
0010
0100
0000
1100
0000
,
0001
0000
0000
1000
0001
0000
0011
0000
,
2000
0000
3000
0010
0100
0000
0101
0000
,
1000
0001
0100
0001
1000
0001
0010
0000
,
0100
0010
0200
0000
0300
1000
1000
0000
,
0001
1000
0001
0000
0000
0100
0100
0000
,
0010
0100
0020
0000
0030
1000
1000
0000
,
0001
1000
0001
0000
0000
0010
0010
0100
,
1000
0001
2000
0000
3000
0100
0100
0000
,
0010
0100
0010
0000
0000
0001
0001
0000
,
1000
0001
2000
0000
3000
0010
0010
0000
,
0100
0001
0010
1000
0100
0001
0010
0100
,
1000
0001
1000
0000
0110
0000
0000
0000
,
0001
1000
0001
0000
0110
0000
0000
0000
,
1000
0001
1000
0000
0110
0000
0000
0000
,
0001
1000
0001
0000
0010
0100
0010
0100
,
1000
0001
0100
0000
1010
0000
0000
0000
,
0001
1000
0100
0000
0011
0000
0000
0000
,
1000
0010
0001
0100
1000
0010
0100
0001
,
1000
0000
0000
0000
,
1000
0200
0001
0000
0000
0310
0100
0010
,
0002
0000
0000
0000
0000
1003
0010
0100
,
0001
0200
1000
0000
0000
0310
0100
0001
,
2000
0000
0000
0000
0000
3001
0100
0000
,
0001
0020
1000
0000
0000
0130
0010
0001
,
1000
0010
1000
0000
0000
0010
0100
0001
,
1000
0020
0001
0000
0000
0130
0010
0100
,
0001
1000
0001
1000
0100
1000
0100
0010
,
0001
0010
1000
0000
0010
0000
0001
1000
,
0001
0100
1000
0000
0100
0000
0001
1000
,
0001
0010
1000
0000
0010
0000
0001
0001
,
1000
0010
0001
0000
0010
0000
1000
0001
,
1000
0100
0001
0000
0100
0010
0100
1000
,
0001
0000
0100
0000
0001
1000
0000
0001
0000
0000
1000
0000
0100
0000
0010
0000
,
0001
0010
1000
0100
0001
0010
0100
1000
,
0001
0000
0000
0000
,
0100
0010
0200
0000
0300
0001
0001
0000
,
1000
0001
1000
0000
0000
0100
0100
0000
,
0010
0100
0020
0000
0030
0001
0001
0000
,
1000
0001
1000
0000
0000
0010
0010
0100
,
0001
1000
0002
0000
0003
0100
0100
0000
,
0010
0100
0010
0000
0000
1000
1000
0000
,
0001
1000
0002
0000
0003
0010
0010
0000
,
0100
1000
0010
0001
0100
1000
0001
1000
,
0010
0100
0001
0000
0101
0000
0000
0000
,
0010
0100
1000
0000
1100
0000
0000
0000
,
0010
0100
0001
0000
1001
0000
0000
0000
,
0010
0100
1000
0000
1001
0000
0000
0000
,
0010
0100
0010
0000
0011
0000
0000
0000
,
0010
0100
0010
0000
1010
0000
0000
0000
,
0001
0100
1000
0010
0001
0100
0010
1000
,
0002
0000
0000
0003
;

//---------------dance-single - ----------------
#NOTES:
     dance-single:
     :
     Easy:
     3:
     0.255,0.248,0.146,0.082,0.000,170.000,16.000,9.000,0.000,0.000,0.000,0.255,0.248,0.146,0.082,0.000,170.000,16.000,9.000,0.000,0.000,0.000:
0000
0000
0000
0000
,
0000
0000
0000
0000
,
0000
0000
0000
0000
,
0000
0000
0000
0000
,
1001
0000
0000
0000
,
0010
0000
0000
0000
,
0001
0000
0000
0000
,
0100
0000
0100
0000
,
1001
0000
0000
0000
,
0010
0000
0000
0000
,
1000
0000
0000
0000
,
0001
0000
1000
0000
,
1001
0001
0000
1000
,
0010
0010
0000
1000
,
0001
0001
0000
1000
,
0010
0010
0000
1000
,
0002
0003
0000
0001
,
0010
0010
0000
0001
,
2000
3000
0000
1000
,
0010
0100
0010
0100
,
0001
0001
0000
1000
,
0010
0100
0000
0001
,
1000
1000
0000
0001
,
0010
0100
0000
1000
,
0010
0010
0000
0100
,
0001
0100
0000
0001
,
0010
0010
0000
0100
,
1000
0010
0001
0100
,
1000
0001
1001
0000
,
0001
1000
1001
0000
,
1000
0001
1001
0000
,
0001
1000
1001
0000
,
0100
0010
0110
0000
,
0010
0100
0110
0000
,
0001
0010
1000
0100
,
0001
0000
0000
0000
,
1000
0020
0000
0100
,
2000
0000
0000
3030
,
0001
0020
0000
0100
,
0002
0000
0000
0033
,
1000
0002
0000
0010
,
2000
0000
0000
3003
,
0100
0010
0000
0110
,
1000
0001
1000
0001
,
0010
0010
0000
0100
,
1000
0100
0000
1000
,
0001
1000
0000
0001
,
0100
0001
0000
0000
,
0100
0100
0000
0001
,
0001
1000
0001
0000
,
1000
0100
0001
0010
,
1000
0000
0000
0000
,
0001
0001
0000
1000
,
0100
0010
0000
0001
,
1000
1000
0000
0001
,
0100
0010
0000
1000
,
0100
0100
0000
0010
,
0001
0010
0000
0001
,
0100
0100
0000
0010
,
1000
0100
0001
0010
,
1000
0001
1001
0000
,
0001
1000
1001
0000
,
1000
0001
1001
0000
,
0001
1000
1001
0000
,
0100
0010
0110
0000
,
0010
0100
0110
0000
,
0001
0100
1000
0010
,
0002
0000
0000
0003
;

//---------------dance-single - ----------------
#NOTES:
     dance-single:
     :
     Beginner:
     1:
     0.078,0.061,0.128,0.000,0.000,46.000,14.000,0.000,0.000,0.000,0.000,0.078,0.061,0.128,0.000,0.000,46.000,14.000,0.000,0.000,0.000,0.000: // measure 0
0000
0000
0000
0000
,  // measure 1
0000
0000
0000
0000
,  // measure 2
0000
0000
0000
0000
,  // measure 3
0000
0000
0000
0000
,  // measure 4
1001
0000
0000
0000
,  // measure 5
0000
0000
0000
0000
,  // measure 6
0000
0000
0000
0000
,  // measure 7
0000
0000
0000
0000
,  // measure 8
1001
0000
0000
0000
,  // measure 9
0000
0000
0000
0000
,  // measure 10
0000
0000
0000
0000
,  // measure 11
0000
0000
0000
0000
,  // measure 12
0010
0000
0000
0000
,  // measure 13
0010
0000
0000
0000
,  // measure 14
0010
0000
0000
0000
,  // measure 15
0010
0000
0000
0000
,  // measure 16
0100
0000
0000
0000
,  // measure 17
0100
0000
0000
0000
,  // measure 18
0100
0000
0000
0000
,  // measure 19
0100
0000
0000
0000
,  // measure 20
1001
0000
0000
0000
,  // measure 21
0000
0000
0000
0000
,  // measure 22
1001
0000
0000
0000
,  // measure 23
0000
0000
0000
0000
,  // measure 24
1001
0000
0000
0000
,  // measure 25
0000
0000
0000
0000
,  // measure 26
1001
0000
0000
0000
,  // measure 27
0000
0000
0000
0000
,  // measure 28
0010
0000
0000
0000
,  // measure 29
0010
0000
0000
0000
,  // measure 30
0010
0000
0000
0000
,  // measure 31
0010
0000
0000
0000
,  // measure 32
0100
0000
0000
0000
,  // measure 33
0100
0000
0000
0000
,  // measure 34
0100
0000
0000
0000
,  // measure 35
0100
0000
0000
0000
,  // measure 36
1001
0000
0000
0000
,  // measure 37
0000
0000
0000
0000
,  // measure 38
1001
0000
0000
0000
,  // measure 39
0000
0000
0000
0000
,  // measure 40
1001
0000
0000
0000
,  // measure 41
0000
0000
0000
0000
,  // measure 42
1001
0000
0000
0000
,  // measure 43
0000
0000
0000
0000
,  // measure 44
0010
0000
0000
0000
,  // measure 45
0010
0000
0000
0000
,  // measure 46
0010
0000
0000
0000
,  // measure 47
0010
0000
0000
0000
,  // measure 48
0100
0000
0000
0000
,  // measure 49
0100
0000
0000
0000
,  // measure 50
0100
0000
0000
0000
,  // measure 51
0100
0000
0000
0000
,  // measure 52
1001
0000
0000
0000
,  // measure 53
0000
0000
0000
0000
,  // measure 54
1001
0000
0000
0000
,  // measure 55
0000
0000
0000
0000
,  // measure 56
1001
0000
0000
0000
,  // measure 57
0000
0000
0000
0000
,  // measure 58
1001
0000
0000
0000
,  // measure 59
0000
0000
0000
0000
,  // measure 60
0010
0000
0000
0000
,  // measure 61
0010
0000
0000
0000
,  // measure 62
0010
0000
0000
0000
,  // measure 63
0010
0000
0000
0000
,  // measure 64
0100
0000
0000
0000
,  // measure 65
0100
0000
0000
0000
,  // measure 66
0100
0000
0000
0000
,  // measure 67
0100
0000
0000
0000
;
