#TITLE:murmur twins -4.6.0 beat mix-;
#SUBTITLE:;
#ARTIST:siromaru;
#TITLETRANSLIT:;
#SUBTITLETRANSLIT:;
#ARTISTTRANSLIT:;
#GENRE:;
#CREDIT:;
#BANNER:[ROUND 5] - murmur twins -4.6.0 beat mix-.png;
#BACKGROUND:[ROUND 5] - murmur twins -4.6.0 beat mix--bg.png;
#LYRICSPATH:;
#CDTITLE:;
#MUSIC:[ROUND 5] - murmur twins -4.6.0 beat mix-.mp3;
#OFFSET:-1.376;
#SAMPLESTART:22.052;
#SAMPLELENGTH:10.647;
#SELECTABLE:YES;
#BPMS:0.000=180.000
;
#STOPS:
;
#BGCHANGES:;
#KEYSOUNDS:;
#ATTACKS:;

//---------------dance-single - ----------------
#NOTES:
     dance-single:
     :
     Hard:
     9:
     0.615,0.694,0.398,0.059,0.088,590.000,61.000,9.000,0.000,0.000,0.000,0.615,0.694,0.398,0.059,0.088,590.000,61.000,9.000,0.000,0.000,0.000:
0000
0000
0000
0000
,
0000
0000
0000
0000
,
0000
0000
0000
0000
,
0000
0000
0000
0000
,
2000
0001
0000
3001
,
0200
0010
0000
0310
,
0002
1000
0000
1000
,
0010
0010
0013
0011
,
0110
0000
0000
0000
1000
0100
0010
0100
,
0001
0100
1000
0001
,
1010
0000
0110
0000
,
0101
0000
1000
0001
0100
0001
1000
0001
,
0010
0000
0100
0000
0010
0100
1000
0100
,
0001
0110
1000
1001
,
0011
0000
1000
0000
0010
1000
0010
0100
,
1000
0000
0100
0000
0010
0000
0100
0000
0001
1000
0001
1000
0001
1000
0001
1000
,
0100
0000
0110
0000
1000
0001
1000
0010
,
0100
0000
0110
0000
0001
0100
0001
1000
,
0001
0000
1100
0000
0100
0010
0001
1000
,
0001
0000
0100
0001
0100
0010
0100
1000
,
0100
0000
0110
0000
1000
0001
1000
0100
,
0000
0011
0100
1100
,
0001
0000
0101
0000
0100
0010
0100
0001
,
2000
0000
3000
0000
0001
1000
0020
0000
,
0130
0000
0001
0000
0000
0010
0000
0000
1000
0000
0000
0010
0000
0000
0001
0000
,
0000
0000
1000
0000
0000
0010
0000
0000
0001
0000
0000
0010
0000
0000
1000
0000
,
0001
0000
0010
0000
0000
0100
0000
1000
0100
0000
0000
1000
0000
0000
0001
0000
,
0100
0000
1000
0000
0000
0100
0000
0000
0010
0000
1000
0000
0010
0000
0100
0000
,
0001
0000
1000
0000
0000
0010
0000
0000
0001
0000
0000
0010
0000
0000
1000
0000
,
0000
0000
0001
0000
0000
0010
0000
0000
1000
0000
0000
0010
0000
0000
0001
0000
,
1000
0000
0010
0000
0000
0100
0000
0100
0001
0000
0000
1000
0000
0000
0100
0000
,
1100
1001
0101
1001
,
0100
0000
0000
0100
0010
0000
0000
0010
,
0001
1001
0100
0001
,
0100
0000
0000
0100
0010
0000
0000
0010
,
1000
1001
0100
1001
,
0010
0000
0000
0010
0100
0000
0000
0100
,
1000
1001
0001
0100
,
0010
0000
0000
0010
0100
0000
0000
0001
,
0000
1000
0001
0010
0000
0000
0010
0000
,
0100
1000
0100
0001
0000
0100
1000
0010
,
0000
0000
0100
0000
0010
0100
0001
0000
,
0100
0001
0100
1000
0000
0100
0001
0010
,
0000
0100
0000
1000
0000
0001
0000
1000
,
0010
0100
0010
0001
0000
0010
1000
0100
,
0000
0000
0010
0000
0100
1000
0100
0000
,
0010
0001
0010
0001
1000
0001
1000
0001
,
0100
0010
1000
0010
0100
1000
0100
0001
,
1000
0000
1100
0000
0001
0000
1000
0001
,
0010
0000
0100
0010
0100
0000
1000
0000
0000
0000
0001
1000
0001
0000
0100
0000
,
0010
0000
1010
0000
1000
0001
0000
0001
,
0010
0000
0100
0010
0100
0000
1000
0000
0000
0000
0001
0100
0001
0000
1000
0000
,
0100
0000
0110
0000
1000
0100
0010
0001
,
1000
1010
0001
0101
,
1000
0001
0010
0100
0000
1000
0001
0100
,
0010
1000
0000
0001
0010
0100
1000
0001
,
0100
0010
1000
0100
0000
0010
0001
0100
,
0010
1000
0000
0100
0010
0001
0100
0010
,
2000
0001
0000
0001
,
0010
0010
3010
1010
,
0110
0000
0001
0000
0000
0000
0001
0010
,
0000
0100
1000
0001
,
1000
0000
1000
0000
1000
0010
0100
0001
,
0000
0000
1000
0000
0001
0010
0001
0100
,
0000
0000
0000
0000
0010
0000
0100
0001
,
0000
1000
0000
0001
0000
0010
0000
0000
,
0100
0000
0100
0000
0100
0010
0100
1000
,
0000
0001
1000
0010
,
0110
0000
0000
0100
0101
0000
0000
1000
,
0000
1001
0011
0000
,
0110
0000
0000
0100
1100
0000
0000
0001
,
1000
1010
0110
0101
,
1001
0000
0000
1000
1010
0000
0000
0000
,
1001
0001
0011
0000
,
1001
0000
0000
0100
0110
0000
0000
0000
,
1000
0000
0001
0000
1000
0000
0001
0000
0010
0100
0010
0100
0010
0100
0010
0100
,
1000
0000
1001
0000
1000
0100
0010
0100
,
0001
0000
0110
0000
0001
1000
0001
0100
,
0010
0000
0110
0000
1000
0010
0100
1000
,
0100
0000
0010
1000
0010
0100
0010
1000
,
0001
0000
0011
0000
1000
0001
0010
0100
,
0001
0000
0110
0000
1000
0001
1000
0100
,
0010
0000
0011
0000
1000
0001
0100
0010
,
1000
0000
1010
0000
0100
0001
0100
0010
,
1000
0000
1100
0000
0100
0010
0001
0010
,
0100
0000
0110
0000
1000
0001
0100
0010
,
1000
0000
1010
0000
1000
0001
0010
0100
,
0001
0000
0110
0000
0001
1000
0001
0100
,
0010
0000
0110
0000
1000
0001
0100
0010
,
0001
0000
0110
0000
1000
0001
1000
0010
,
0100
0000
0101
0000
1000
0001
0010
0100
,
1000
0000
1001
0000
1000
0100
1000
0100
,
0010
0001
1000
0010
0000
0100
0001
0100
,
0010
0001
0010
1000
0010
0001
0010
1000
,
0100
0001
0100
0010
0000
0001
0010
0100
,
1000
0010
0001
0010
1000
0001
1000
0100
,
0010
0100
0010
0001
0000
1000
0001
1000
,
0100
0010
0001
1000
0010
0100
0001
0010
,
0100
1000
0100
0010
1000
0010
0001
0000
,
1000
0010
0100
0010
0001
0010
0100
0001
,
1000
0010
0100
0001
1000
0010
0100
0001
,
1000
0100
0010
0001
1000
0100
0010
0001
,
0100
0010
1000
0001
0100
0010
1000
0001
,
0010
0100
1000
0001
0010
0100
1000
0001
,
0100
0010
0001
0010
0100
0010
1000
0001
,
0010
0100
0010
1000
0010
0100
0010
0001
,
1000
0010
0100
0001
0010
0100
1000
0020
,
0001
0100
0001
1030
,
2002
0000
0000
0000
,
0000
0000
0000
0000
,
0000
0000
0000
0000
,
0000
0000
0000
0000
,
3003
0000
0000
0000
;

//---------------dance-single - ----------------
#NOTES:
     dance-single:
     :
     Medium:
     7:
     0.474,0.585,0.268,0.052,0.026,459.000,41.000,8.000,0.000,0.000,0.000,0.474,0.585,0.268,0.052,0.026,459.000,41.000,8.000,0.000,0.000,0.000:
0000
0000
0000
0000
,
0000
0000
0000
0000
,
0000
0000
0000
0000
,
0000
0000
0000
0000
,
1000
1100
0000
1000
,
0001
0101
0000
0001
,
0020
0001
0000
0001
,
0130
0010
0100
0110
,
1001
0000
1000
0010
,
0110
0000
0100
0001
,
1001
0000
1100
0000
,
0110
1100
1001
1010
,
0110
0001
0000
0001
,
0011
1000
0000
1000
,
1010
0100
0101
0001
,
1000
0100
1000
0001
2000
0000
0000
0000
,
3010
0000
0100
0000
0001
0100
0001
0100
,
0010
1000
0100
0010
,
0001
0000
1000
0000
0100
0010
0100
0010
,
1000
0001
0100
1000
,
0001
0000
0100
0000
0010
0100
0010
0100
,
0001
1000
0010
0100
,
0001
0000
1000
0000
0100
1000
0100
1000
,
0020
0000
1000
0130
,
0110
0000
0000
0000
0001
0000
0000
0000
1000
0000
0000
0001
0000
0000
1000
0000
,
0100
0000
0000
0000
0010
0000
0000
0000
0001
0000
0000
0010
0000
0000
0100
0000
,
1000
0000
0000
0000
0001
0000
0000
0000
1000
0000
0000
0001
0000
0000
1000
0000
,
0010
0000
0100
0000
0000
0001
0000
0000
0100
0000
0000
0010
0000
0000
1000
0000
,
0001
0000
0000
0000
1000
0000
0000
0000
0001
0000
0000
1000
0000
0000
0001
0000
,
0100
0000
0000
0000
0010
0000
0000
0000
1000
0000
0000
0010
0000
0000
0100
0000
,
0001
0000
0000
0000
1000
0000
0000
0000
0100
0000
0000
1000
0000
0000
0100
0000
,
0010
0110
0011
1001
,
1000
0000
0000
1000
0010
0000
0000
0100
,
0000
0100
0101
0000
,
0001
0000
0000
0001
0010
0000
0000
0100
,
0000
1000
1100
1000
,
0001
0000
0000
1000
0010
0000
0000
0100
,
0000
0010
1010
0000
,
0001
0000
0000
0010
0100
0000
0000
1000
,
0000
1000
0101
1000
,
0010
0000
0100
0010
0100
0000
0001
0000
,
0100
0010
0110
1000
,
0001
0000
0010
0100
0010
0000
0100
0000
,
1000
0001
0110
0001
,
1001
0000
1000
0100
1000
0000
0001
0000
,
0100
0001
1001
0000
,
1000
1010
0010
0110
,
0100
0000
0101
0000
1000
0001
0010
0100
,
1000
0000
0001
1000
0010
0000
0100
0001
,
1000
0010
0100
0001
0000
1000
0010
0100
,
0001
0000
1000
0000
0001
0010
0100
0000
,
1000
0001
0010
0100
0000
1000
0100
0010
,
0001
0000
1000
0000
0001
0100
0010
0001
,
0000
0010
0000
1000
0000
0001
0000
1000
,
0100
0010
0001
1000
0000
0000
0001
1000
,
0001
0100
0000
0000
0001
1000
0001
0100
,
0010
0010
0000
1000
0000
0000
1000
0100
,
1000
0001
0000
0000
0010
0100
1000
0000
,
0002
1000
0000
1000
,
0100
0100
0100
0103
,
1001
0000
0100
0000
,
0000
0000
0100
0000
,
0000
0000
0010
0000
,
0000
0000
0010
0000
,
0000
0000
0001
0000
,
0000
0000
1000
0000
,
0000
0000
0010
0000
,
0000
0000
0100
0000
,
0101
0000
0000
0001
1000
0000
0000
0000
,
0000
0100
1100
0000
,
0110
0000
0000
0010
0001
0000
0000
0000
,
1000
0010
1010
1000
,
1001
0000
0000
0001
0100
0000
0000
0000
,
0110
0100
0101
0001
,
2000
0001
0000
0001
,
3100
1000
0100
1000
0200
0000
0310
0000
,
0110
0000
0100
0000
1000
0100
1000
0100
,
0010
0001
0100
0010
,
1000
0000
0001
0000
0100
0010
0100
0010
,
0001
1000
0100
0001
,
1000
0000
0100
0000
0010
0100
0010
0100
,
1000
0001
0010
0100
,
1000
0000
0001
0000
0100
0001
0100
0001
,
0010
0000
0100
0000
1000
0001
1000
0010
,
0100
0000
0001
0000
0100
0010
1000
0001
,
1000
0100
0001
0100
,
0010
0000
0001
0000
1000
0100
0010
0100
,
0001
0100
1000
0010
,
0001
0000
0010
0000
0100
0010
1000
0001
,
0010
0100
0010
0001
,
1000
0000
0001
0000
1000
0100
1000
0100
,
0010
0001
2000
0000
,
3100
0010
0100
0010
0000
0000
0001
0000
,
1000
0010
1000
0000
0010
1000
0010
0000
,
0100
0001
0100
0001
0000
0000
1000
0000
,
0001
0010
0001
0000
0010
0001
0010
0000
,
0100
1000
0100
1000
0000
0000
0001
0000
,
0100
0010
0100
0000
0010
0100
0010
0000
,
1000
0010
1000
0010
0100
0000
0001
0000
,
0011
0100
1010
0100
,
0001
1000
0100
0000
0010
0001
1000
0000
,
0010
0100
0001
0000
1000
0010
0100
0000
,
0001
1000
0100
0000
0010
0001
1000
0000
,
0010
1000
0001
0000
0100
0010
1000
0000
,
0001
0010
0100
0000
1000
0001
0010
0000
,
0100
1000
0001
0000
0100
0001
1000
0000
,
0010
1000
0010
1000
0010
0100
0010
0100
,
0001
0100
0001
0100
0001
1000
0001
1000
,
0200
0000
0000
0000
,
0000
0000
0000
0000
,
0000
0000
0000
0000
,
0000
0000
0000
0000
,
0300
0000
0000
0000
;

//---------------dance-single - ----------------
#NOTES:
     dance-single:
     :
     Easy:
     5:
     0.282,0.352,0.294,0.039,0.000,251.000,45.000,6.000,0.000,0.000,0.000,0.282,0.352,0.294,0.039,0.000,251.000,45.000,6.000,0.000,0.000,0.000: // measure 0
0000
0000
0000
0000
,  // measure 1
0000
0000
0000
0000
,  // measure 2
0000
0000
0000
0000
,  // measure 3
0000
0000
0000
0000
,  // measure 4
0000
1000
0000
0001
,  // measure 5
0000
1000
0000
0001
,  // measure 6
0000
0100
0000
0010
,  // measure 7
0100
0010
0100
0010
,  // measure 8
1001
0000
0000
0000
,  // measure 9
1100
0000
0000
0000
,  // measure 10
1001
0000
1001
0000
,  // measure 11
0101
0001
0001
0001
,  // measure 12
1000
0000
0100
0000
,  // measure 13
0110
0000
0001
0000
,  // measure 14
1001
0000
1001
0000
,  // measure 15
2100
0000
0000
0000
,  // measure 16
3001
0000
0000
0000
,  // measure 17
0100
0000
0001
0000
,  // measure 18
1000
0000
0000
0000
,  // measure 19
0100
0000
0010
0000
,  // measure 20
0001
0000
0000
0000
,  // measure 21
1000
0000
0010
0000
,  // measure 22
0100
0000
0001
0000
,  // measure 23
2002
0000
0000
3003
,  // measure 24
1001
0001
0100
0010
,  // measure 25
0110
1000
0010
0100
,  // measure 26
1001
1000
0100
0010
,  // measure 27
0110
0001
0010
0001
,  // measure 28
1001
1000
0010
0100
,  // measure 29
0110
0001
0100
0010
,  // measure 30
1001
0001
0010
0100
,  // measure 31
0110
1000
0100
0001
,  // measure 32
1001
0000
1000
0000
,  // measure 33
0000
0001
1001
0000
,  // measure 34
0100
0000
0010
0000
,  // measure 35
0000
0100
0110
0100
,  // measure 36
0001
0000
0100
0000
,  // measure 37
0000
0001
0101
0000
,  // measure 38
1000
0000
0100
0000
,  // measure 39
0000
1000
1100
1000
,  // measure 40
0001
0000
0100
0000
,  // measure 41
0001
0000
0100
0000
,  // measure 42
0010
0000
0100
0000
,  // measure 43
1000
0000
0100
0000
,  // measure 44
0001
0000
0010
0000
,  // measure 45
0001
0000
0010
0000
,  // measure 46
0100
0000
0010
0000
,  // measure 47
0100
0100
0100
0100
,  // measure 48
0100
0000
1000
0100
,  // measure 49
0001
0000
0100
1000
,  // measure 50
0010
0000
0001
0010
,  // measure 51
1000
0000
0001
1000
,  // measure 52
0010
0000
0100
0001
,  // measure 53
0010
0000
0100
0010
,  // measure 54
0001
1000
0010
0100
,  // measure 55
0001
0010
0100
1000
,  // measure 56
0001
0100
0010
1000
,  // measure 57
0100
0010
0001
0100
,  // measure 58
0010
0000
0000
0000
,  // measure 59
0102
0000
0000
0000
,  // measure 60
1003
0000
1000
0000
,  // measure 61
0000
0000
0000
0000
,  // measure 62
0001
0000
0001
0000
,  // measure 63
0000
0000
0000
0000
,  // measure 64
0010
0000
0010
0000
,  // measure 65
0000
0000
0000
0000
,  // measure 66
0100
0000
0100
0000
,  // measure 67
0000
0000
0000
0000
,  // measure 68
1100
0000
0001
0000
,  // measure 69
0000
0000
0000
0000
,  // measure 70
0101
0000
1000
0000
,  // measure 71
0000
0000
0000
0000
,  // measure 72
1010
0000
0001
0000
,  // measure 73
0010
0001
1000
0000
,  // measure 74
0020
0000
0000
0000
,  // measure 75
0130
0010
0100
0010
,  // measure 76
1001
0000
0000
0000
,  // measure 77
0010
0000
0100
0000
,  // measure 78
1000
0000
0000
0000
,  // measure 79
0001
0000
1000
0000
,  // measure 80
0010
0000
0000
0000
,  // measure 81
0100
0000
0010
0000
,  // measure 82
1000
0000
0001
0000
,  // measure 83
0010
0000
0100
0000
,  // measure 84
1001
0000
0000
0000
,  // measure 85
1000
0000
0100
0000
,  // measure 86
0001
0000
0000
0000
,  // measure 87
0010
0000
1000
0000
,  // measure 88
0100
0000
0000
0000
,  // measure 89
0001
0000
0010
0000
,  // measure 90
1000
0000
0100
0000
,  // measure 91
0010
0000
0001
0000
,  // measure 92
1001
1000
0100
0010
,  // measure 93
0110
0001
0010
0100
,  // measure 94
1001
0001
0100
0010
,  // measure 95
0110
1000
0010
1000
,  // measure 96
1001
0001
0010
0100
,  // measure 97
0110
1000
0100
0010
,  // measure 98
1001
1000
0010
0100
,  // measure 99
0110
0001
0100
1000
,  // measure 100
1001
0001
0010
0010
,  // measure 101
0110
1000
0001
0001
,  // measure 102
1001
1000
0010
0010
,  // measure 103
0110
0001
1000
0001
,  // measure 104
0101
0100
0010
0010
,  // measure 105
1010
1000
0001
0001
,  // measure 106
0011
0010
0100
0100
,  // measure 107
2100
0000
0000
0000
,  // measure 108
3010
0000
0000
0000
;

//---------------dance-single - ----------------
#NOTES:
     dance-single:
     :
     Beginner:
     1:
     0.083,0.106,0.000,0.000,0.000,89.000,0.000,0.000,0.000,0.000,0.000,0.083,0.106,0.000,0.000,0.000,89.000,0.000,0.000,0.000,0.000,0.000:
0000
0000
0000
0000
,
0000
0000
0000
0000
,
0000
0000
0000
0000
,
0000
0000
0000
0000
,
0001
0000
0000
0000
,
0000
0000
0000
0000
,
1000
0000
0000
0000
,
0000
0000
0000
0000
,
0010
0000
0000
0000
,
0100
0000
0000
0000
,
0010
0000
0000
0000
,
0010
0000
0000
0000
,
1000
0000
0000
0000
,
0001
0000
0000
0000
,
1000
0000
0000
0000
,
0001
0000
0001
0000
,
0001
0000
0000
0000
,
0010
0000
0000
0000
,
0100
0000
0000
0000
,
1000
0000
0000
0000
,
0001
0000
0000
0000
,
0100
0000
0000
0000
,
0001
0000
0000
0000
,
1000
0000
0000
0000
,
0010
0000
0000
0000
,
0010
0000
0000
0000
,
0010
0000
0000
0000
,
0010
0000
0000
0000
,
0100
0000
0000
0000
,
0100
0000
0000
0000
,
0100
0000
0000
0000
,
0100
0000
0100
0000
,
0001
0000
0000
0000
,
0000
0000
0000
0000
,
1000
0000
0000
0000
,
0000
0000
0000
0000
,
0100
0000
0000
0000
,
0000
0000
0000
0000
,
0010
0000
0000
0000
,
0001
0000
0000
0000
,
1000
0000
0000
0000
,
0000
0000
0000
0000
,
0001
0000
0000
0000
,
0000
0000
0000
0000
,
0100
0000
0000
0000
,
0000
0000
0000
0000
,
0010
0000
0000
0000
,
0010
0000
0010
0000
,
1000
0000
0000
0000
,
0001
0000
0000
0000
,
1000
0000
0000
0000
,
0100
0000
0000
0000
,
0010
0000
0000
0000
,
0001
0000
0000
0000
,
0100
0000
0000
0000
,
0010
0000
0000
0000
,
1000
0000
0000
0000
,
0001
0000
0000
0000
,
0010
0000
0000
0000
,
0000
0000
0000
0000
,
0100
0000
0000
0000
,
0000
0000
0000
0000
,
0000
0000
0000
0000
,
0000
0000
0000
0000
,
0000
0000
0000
0000
,
0000
0000
0000
0000
,
0000
0000
0000
0000
,
0000
0000
0000
0000
,
0100
0000
0000
0000
,
0000
0000
0000
0000
,
0100
0000
0000
0000
,
0100
0000
0000
0000
,
0100
0000
0000
0000
,
0010
0000
0000
0000
,
0001
0000
0000
0000
,
1000
0000
0000
0000
,
0010
0000
0000
0000
,
0100
0000
0000
0000
,
0001
0000
0000
0000
,
0010
0000
0000
0000
,
1000
0000
0000
0000
,
0100
0000
0000
0000
,
0010
0000
0000
0000
,
0001
0000
0000
0000
,
0100
0000
0000
0000
,
1000
0000
0000
0000
,
0010
0000
0000
0000
,
0100
0000
0000
0000
,
0001
0000
0000
0000
,
0010
0000
0000
0000
,
1000
0000
0000
0000
,
0001
0000
0000
0000
,
0010
0000
0000
0000
,
0000
0000
0000
0000
,
0100
0000
0000
0000
,
0000
0000
0000
0000
,
1000
0000
0000
0000
,
0000
0000
0000
0000
,
0001
0000
0000
0000
,
1000
0000
0000
0000
,
0010
0000
0000
0000
,
0100
0000
0000
0000
,
0001
0000
0000
0000
,
1000
0000
0000
0000
,
0100
0000
0000
0000
,
0010
0000
0000
0000
,
0001
0000
0000
0000
,
0010
0000
1000
0000
,
0100
0000
0000
0000
;
