#TITLE:THE END;
#SUBTITLE:;
#ARTIST:Mortimer & The DNA Team;
#TITLETRANSLIT:;
#SUBTITLETRANSLIT:;
#ARTISTTRANSLIT:;
#CREDIT:Lisek;
#BANNER:bn.png;
#BACKGROUND:bg.png;
#LYRICSPATH:;
#CDTITLE:Lisek.png;
#MUSIC:[ROUND 5] - THE END.ogg;
#OFFSET:-0.071;
#SAMPLESTART:12.700;
#SAMPLELENGTH:12.720;
#SELECTABLE:YES;
#BPMS:0.000=152.000;
#STOPS:;
#BGCHANGES:;

//---------------dance-single - Lisek----------------
#NOTES:
     dance-single:
     Lisek:
     Hard:
     7:
     0.494,0.514,0.043,0.205,0.032: // measure 1
0000
0000
0000
0000
,  // measure 2
0000
0000
0000
0000
,  // measure 3
0000
0000
0000
0000
,  // measure 4
0000
0000
0000
0000
,  // measure 5
1000
0001
0010
0100
,  // measure 6
1000
0001
1000
0001
,  // measure 7
1000
0100
0010
0001
,  // measure 8
1001
0000
0000
0000
,  // measure 9
0001
0100
0010
0100
0000
0001
0010
0100
,  // measure 10
0000
1000
0010
0100
0010
1000
0001
0010
,  // measure 11
0001
1000
0010
0100
0000
0010
1000
0100
,  // measure 12
0000
0010
0001
0010
0100
1000
0020
0000
,  // measure 13
1030
0010
0100
0010
0000
0100
0010
1000
,  // measure 14
0000
0001
0010
0100
0010
0001
1000
0001
,  // measure 15
0100
0010
0100
0001
0000
0010
0100
0010
,  // measure 16
0000
0000
0001
0000
0100
0000
0010
0000
1000
0001
1000
0001
1000
0000
0000
0000
,  // measure 17
1001
0000
1000
0000
0010
1000
0100
1000
,  // measure 18
0010
0000
0100
0010
1000
0100
0010
0001
,  // measure 19
1000
0000
0010
0000
0100
0001
0010
0001
,  // measure 20
0000
0010
0000
0100
0000
1000
0000
0000
,  // measure 21
1001
0000
0001
0000
0100
0010
0100
0001
,  // measure 22
0100
0000
0010
1000
0100
0010
0001
0100
,  // measure 23
0010
0000
1000
0000
0001
0100
0010
0100
,  // measure 24
0000
0001
0000
1000
0000
0010
0000
0000
,  // measure 25
2000
0000
0000
3002
0000
0200
0003
2300
,  // measure 26
0000
0000
0000
3002
0000
0020
0003
2030
,  // measure 27
0000
3200
0000
0320
0000
0032
0000
2003
,  // measure 28
0000
3000
0001
1000
,  // measure 29
0010
0000
0100
0001
0000
0000
1000
0000
,  // measure 30
0001
0010
0000
0100
0000
0000
1000
0000
,  // measure 31
0001
1000
0000
0001
0000
0010
0000
0002
,  // measure 32
0000
0000
0000
0000
2000
0000
0000
3003
,  // measure 33
0001
0000
0100
1000
0100
0000
1000
0100
,  // measure 34
0001
0010
1000
0010
0000
0001
0100
0001
,  // measure 35
1000
0000
0100
0001
0100
0000
0001
0100
,  // measure 36
1000
0010
0001
0010
0000
1000
0001
0000
,  // measure 37
1000
0000
0100
0001
0100
0000
1000
0100
,  // measure 38
0001
0100
1000
0010
0001
0010
1000
0001
,  // measure 39
0100
0000
0001
0010
0100
0000
1000
0001
,  // measure 40
0100
0001
1000
0002
0000
0000
0003
0000
,  // measure 41
1000
0000
0100
0001
0100
0000
0001
0100
,  // measure 42
1000
0010
0100
0020
0000
1030
0100
0010
,  // measure 43
0001
0000
0100
1000
0100
0000
1000
0100
,  // measure 44
0001
0010
0100
0020
0000
0000
0030
0000
,  // measure 45
0001
0000
0100
1000
0100
0000
0001
0100
,  // measure 46
1000
0100
0010
0100
1000
0100
0001
1000
,  // measure 47
0100
0000
0100
0010
0001
0000
1000
0010
,  // measure 48
0100
0000
0010
0000
1000
0000
0002
0000
0000
0000
0000
0000
0103
0010
0100
0010
,  // measure 49
1000
0100
0010
0001
0000
0010
0100
0010
,  // measure 50
0000
0001
1000
0010
0100
0010
1000
0100
,  // measure 51
1000
0001
0100
0001
0000
1000
0100
0010
,  // measure 52
0000
0001
0010
0100
0010
0001
2000
0000
,  // measure 53
3010
0100
0001
0010
0000
0100
1000
0001
,  // measure 54
0000
0100
0010
1000
0100
0010
0100
1000
,  // measure 55
0001
0100
0010
0100
0000
0001
1000
0100
,  // measure 56
0000
0000
1000
0000
0001
0000
0100
0000
0001
1000
0001
1000
0001
0000
0000
0000
,  // measure 57
1001
0000
0000
0000
;

//---------------dance-single - Lisek----------------
#NOTES:
     dance-single:
     Lisek:
     Medium:
     4:
     0.275,0.272,0.000,0.054,0.000:
0000
0000
0000
0000
,
0000
0000
0000
0000
,
0000
0000
0000
0000
,
0000
0000
0000
0000
,
0000
1000
0100
0010
,
0001
0000
0000
0000
,
0000
0001
0010
0100
,
1000
0000
0000
0000
,
0001
0000
0100
0000
,
0010
0000
0100
0001
,
1000
0000
0010
0000
,
1000
0000
0010
0100
,
0001
0000
0010
0000
,
0100
0000
1000
0010
,
0100
0000
0010
0000
,
1000
0000
0001
1000
,
0001
0100
0010
0100
,
0001
0010
0100
0010
,
0001
1000
0010
0100
,
0010
1000
0001
0000
,
1000
0010
0100
0010
,
1000
0100
0010
0001
,
1000
0001
0100
0010
,
0100
0001
1000
0000
,
0001
0010
0001
0100
,
0010
0100
0001
1000
,
0010
1000
0001
0100
,
0010
0000
1000
0000
,
0001
0100
0010
0000
,
1000
0010
0100
0000
,
0001
1000
0001
0100
,
0020
0000
0230
0000
,
0310
1000
0001
0100
,
0010
1000
0100
0010
,
0001
1000
0010
0100
,
0001
1000
0001
0000
,
1000
0100
0010
0001
,
1000
0010
0100
0010
,
1000
0001
0010
0001
,
1000
0001
1000
0000
,
0001
0010
0100
1000
,
0010
0100
0010
1000
,
0001
0100
0010
1000
,
0100
0010
0001
0000
,
1000
0010
0100
0010
,
1000
0100
0010
0100
,
1000
0001
0100
0010
,
0200
0000
0000
0000
,
0310
1000
0100
0010
,
0001
0010
0100
1000
,
0001
0100
0010
0100
,
0001
1000
0002
0000
,
1003
0010
0100
0010
,
1000
0100
0010
0001
,
1000
0010
0100
0010
,
1000
0001
2000
0000
,
3001
0000
0000
0000
;

//---------------dance-single - Lisek----------------
#NOTES:
     dance-single:
     Lisek:
     Beginner:
     1:
     0.069,0.121,0.000,0.000,0.000:
0000
0000
0000
0000
,
0000
0000
0000
0000
,
0000
0000
0000
0000
,
0000
0000
0000
0000
,
1000
0000
0000
0000
,
0000
0000
0000
0000
,
0001
0000
0000
0000
,
0000
0000
0000
0000
,
1000
0000
0000
0000
,
0000
0000
0000
0000
,
0010
0000
0000
0000
,
0000
0000
0000
0000
,
0100
0000
0000
0000
,
0000
0000
0000
0000
,
0001
0000
0000
0000
,
0000
0000
0000
0000
,
1000
0000
0000
0000
,
0100
0000
0000
0000
,
1000
0000
0000
0000
,
0001
0000
0000
0000
,
0100
0000
0000
0000
,
0001
0000
0000
0000
,
1000
0000
0000
0000
,
0010
0000
0000
0000
,
1000
0000
0000
0000
,
0000
0000
0000
0000
,
0001
0000
0000
0000
,
0000
0000
0000
0000
,
1000
0000
0000
0000
,
0001
0000
0000
0000
,
1000
0000
0001
0000
,
1000
0000
0000
0000
,
0001
0000
0000
0000
,
0100
0000
0000
0000
,
0001
0000
0000
0000
,
0010
0000
0000
0000
,
0001
0000
0000
0000
,
1000
0000
0000
0000
,
0010
0000
0000
0000
,
1000
0000
0000
0000
,
0001
0000
0000
0000
,
0100
0000
0000
0000
,
0001
0000
0000
0000
,
1000
0000
0000
0000
,
0010
0000
0000
0000
,
1000
0000
0000
0000
,
0001
0000
0000
0000
,
0000
0000
0000
0000
,
1000
0000
0000
0000
,
0010
0000
0000
0000
,
1000
0000
0000
0000
,
0001
0000
0000
0000
,
0100
0000
0000
0000
,
0010
0000
0000
0000
,
0100
0000
0000
0000
,
0001
0000
0000
0000
,
1000
0000
0000
0000
;

//---------------dance-single - Lisek----------------
#NOTES:
     dance-single:
     Lisek:
     Easy:
     2:
     0.170,0.212,0.032,0.130,0.000:
0000
0000
0000
0000
,
0000
0000
0000
0000
,
0000
0000
0000
0000
,
0000
0000
0000
0000
,
1000
0000
0000
0000
,
0010
0000
0000
0000
,
0100
0000
0000
0000
,
0001
0000
0000
0000
,
1000
0000
0100
0000
,
1000
0000
0001
0000
,
0100
0000
0010
0000
,
0100
0000
0002
0000
,
1003
0000
0100
0000
,
1000
0000
0010
0000
,
0100
0000
0010
0000
,
1000
0000
0020
0000
,
1030
0000
0100
0000
,
1000
0000
0010
0000
,
1000
0000
0100
0000
,
1000
0000
0010
0000
,
0100
0000
0001
0000
,
0100
0000
0010
0000
,
0100
0000
0001
0000
,
0100
0000
0010
0000
,
1000
0000
0100
0000
,
0010
0000
0001
0000
,
1000
0000
0001
0000
,
1000
0000
0000
0000
,
0002
0000
0000
0000
,
2003
0000
0000
0000
,
3001
0000
1000
0000
,
2002
0000
0000
3003
,
0001
0000
0100
0000
,
0010
0000
0100
0000
,
0001
0000
1000
0000
,
0010
0000
1000
0000
,
0010
0000
0100
0000
,
0010
0000
1000
0000
,
0001
0000
1000
0000
,
2002
0000
0000
3003
,
0001
0000
0100
0000
,
0010
0000
0100
0000
,
0001
0000
1000
0000
,
0100
0000
1000
0000
,
0010
0000
1000
0000
,
0001
0000
0100
0000
,
0010
0000
1000
0000
,
2002
0000
0000
3003
,
1000
0000
0001
0000
,
0100
0000
0010
0000
,
0100
0000
0001
0000
,
1000
0000
0002
0000
,
1003
0000
0010
0000
,
1000
0000
0001
0000
,
0100
0000
0001
0000
,
1000
0000
0020
0000
,
1030
0000
0000
0000
;
