#TITLE:駄々っ子モンスター;
#SUBTITLE:;
#ARTIST:茶太;
#TITLETRANSLIT:Spoiled Brat Monster;
#SUBTITLETRANSLIT:;
#ARTISTTRANSLIT:Chata;
#GENRE:;
#CREDIT:;
#BANNER:[ROUND 5] - Spoiled Brat Monster.png;
#BACKGROUND:[ROUND 5] - Spoiled Brat Monster-bg.png;
#LYRICSPATH:;
#CDTITLE:cdtitle.png;
#MUSIC:[ROUND 5] - Spoiled brat monster.ogg;
#OFFSET:-0.586;
#SAMPLESTART:42.020;
#SAMPLELENGTH:10.492;
#SELECTABLE:YES;
#BPMS:0.000=183.000
,272.000=91.500
,284.000=183.000
;
#STOPS:
;
#BGCHANGES:15.000=[ROUND 5] - Spoiled Brat Monster.avi=1.000=0=0=1===CrossFade_Faster==,
313.750=[ROUND 5] - Spoiled brat monster-bg.png=1.000=0=0=1=====,
99999=-nosongbg-=1.000=0=0=0 // don't automatically add -songbackground-
;
#KEYSOUNDS:;
#ATTACKS:;

//---------------dance-single - ----------------
#NOTES:
     dance-single:
     :
     Hard:
     9:
     0.731,1.000,0.858,0.116,0.152,464.000,96.000,13.000,0.000,0.000,0.000,0.731,1.000,0.858,0.116,0.152,464.000,96.000,13.000,0.000,0.000,0.000: // measure 0
0000
0000
0000
0000
,  // measure 1
0000
0000
0000
0000
,  // measure 2
0000
0000
0000
0000
,  // measure 3
0000
0000
0000
0000
,  // measure 4
1000
0000
0010
0000
0100
0010
0000
0100
0000
0000
0001
0000
0010
0000
0100
0010
,  // measure 5
0001
0000
0100
0000
0001
0000
1000
0000
0001
0000
0010
0100
0010
0100
0010
0000
,  // measure 6
0000
0000
0000
0000
0001
0000
0000
0000
1000
0001
0000
0000
0100
0000
0000
0000
,  // measure 7
0010
0100
0001
0100
1000
0100
0010
1000
,  // measure 8
0100
0000
0000
0000
0010
0000
0000
0001
0100
0000
0010
0000
0100
0000
0010
0000
,  // measure 9
1000
0000
0000
0000
0100
0000
0000
0010
0100
0000
1000
0000
0010
0000
0001
0000
,  // measure 10
0010
0000
0100
0000
0001
0000
0000
0010
0001
0000
0100
0000
0001
0000
0010
0000
,  // measure 11
1000
0000
0010
0000
0100
0000
0000
1000
0001
0000
0100
0000
0010
0000
0100
0000
,  // measure 12
0110
0000
1100
1100
0000
0110
0000
0011
,  // measure 13
0000
0000
0001
0000
1000
0000
0010
0100
0000
0000
0000
0000
0010
0000
1000
0000
,  // measure 14
0010
0000
1000
0000
0100
0010
0000
0100
,  // measure 15
0000
0000
0010
0000
0001
1000
0000
0000
1000
0100
0000
0000
0100
1000
0000
0000
,  // measure 16
1010
0000
1100
0000
0100
0010
0000
0100
,  // measure 17
1000
0010
0110
0101
,  // measure 18
0001
0000
0010
0001
0000
0101
0000
0110
,  // measure 19
0000
0000
0010
0000
1000
0000
0000
0000
0100
0000
0010
0001
0010
0000
0001
0100
,  // measure 20
0001
1000
0010
0001
0010
0100
0000
0110
,  // measure 21
0000
0000
1100
0000
0000
0011
0000
0000
,  // measure 22
1001
0000
1000
0000
0010
1000
0000
0100
,  // measure 23
0001
0100
0010
0001
1000
0001
0100
0010
,  // measure 24
0110
1010
1100
0101
,  // measure 25
1100
0011
0101
0011
,  // measure 26
0101
0110
1001
1010
,  // measure 27
1100
0110
1100
1010
,  // measure 28
0010
0100
0010
0100
0010
0000
0110
0000
,  // measure 29
0100
0001
0100
0001
0100
0000
0101
0000
,  // measure 30
0011
0011
0000
1100
1100
0000
0110
0110
,  // measure 31
0000
1001
1001
0000
0000
1000
0010
0100
,  // measure 32
0010
0000
0110
0000
0001
0000
1100
0100
,  // measure 33
1000
0000
1010
0010
0100
0000
0010
1000
,  // measure 34
0001
0000
0101
0000
1000
0000
0011
0010
,  // measure 35
0100
0000
1100
0000
1000
0001
0010
0100
,  // measure 36
1000
0000
1001
1000
0001
0100
0010
0100
,  // measure 37
0001
0000
0101
0001
0100
0010
1000
0100
,  // measure 38
0011
0101
0110
0101
,  // measure 39
0011
0110
1100
1010
,  // measure 40
1000
0001
0100
0010
0100
0001
0010
0100
,  // measure 41
1000
0010
1000
0100
1000
0010
0100
0001
,  // measure 42
0000
1010
1100
0110
,  // measure 43
1100
1001
0101
0011
,  // measure 44
0001
0100
0001
0100
0010
1000
0010
1000
,  // measure 45
1001
0000
0000
0000
0000
1000
0010
0100
,  // measure 46
0010
0000
1000
0000
0100
0001
0100
1000
,  // measure 47
0010
0000
0100
0000
0001
1000
0100
0010
,  // measure 48
0001
1000
0010
0100
0010
0000
1000
0001
,  // measure 49
0010
0000
0011
0000
1100
1000
0010
0000
,  // measure 50
0100
0000
0010
1000
0010
0001
0010
1000
,  // measure 51
0001
0000
0100
0001
0010
0001
0100
0010
,  // measure 52
1000
0001
0010
0010
0000
0001
0010
0001
,  // measure 53
0100
0010
0100
0100
1000
0000
0100
0000
,  // measure 54
0001
1000
0100
0100
0000
0010
0001
0100
,  // measure 55
0010
0000
1000
0000
0001
0000
0001
0000
1000
0001
1000
0001
1000
0000
0010
0000
,  // measure 56
1000
0000
0010
0000
0100
0001
0000
0100
0000
0000
0001
0000
0100
0000
0010
0100
,  // measure 57
0010
0000
1000
0000
0001
0000
0010
0001
0010
0000
0001
1000
0001
1000
0001
0000
,  // measure 58
0000
1000
0100
0001
,  // measure 59
0100
1000
0010
0100
0001
0010
0001
1000
,  // measure 60
1001
0011
1010
1100
,  // measure 61
1010
0110
0101
0011
,  // measure 62
0110
0011
0101
1100
,  // measure 63
0101
1010
0110
1100
,  // measure 64
0001
0100
0010
0000
1010
0000
0101
0000
,  // measure 65
0100
0010
1000
0000
1100
0000
0011
0000
,  // measure 66
0101
0101
0000
0110
0110
0000
1010
1010
,  // measure 67
0000
1100
1100
0000
0000
0100
1000
0010
,  // measure 68
0200
0000
0000
0000
0302
0000
1000
1003
2000
0000
0000
3100
0200
0000
0001
0301
,  // measure 69
0001
0100
1000
0010
0200
0000
0301
0010
0002
0000
2003
0000
0010
0010
3020
0000
,  // measure 70
0230
0000
0000
0310
0100
0001
0010
0100
2000
0000
3020
0000
0032
0000
0023
0000
,  // measure 71
1030
0010
1000
0010
1000
0010
1000
0010
,  // measure 72
1000
0100
1000
0100
1000
0100
1000
0100
,  // measure 73
0010
0100
0010
0100
0010
0100
0010
0100
,  // measure 74
0010
0001
0100
0010
1000
0100
1000
0010
,  // measure 75
0000
0000
0100
0000
0001
0010
0000
1000
,  // measure 76
0000
0000
0010
0000
0001
0100
0000
0010
,  // measure 77
0000
1000
0001
0010
0000
1000
0010
0001
,  // measure 78
0100
0010
1000
0010
0110
0000
0000
0000
;

//---------------dance-single - ----------------
#NOTES:
     dance-single:
     :
     Medium:
     7:
     0.551,0.561,0.134,0.706,0.004,338.000,15.000,79.000,0.000,0.000,0.000,0.551,0.561,0.134,0.706,0.004,338.000,15.000,79.000,0.000,0.000,0.000:
0000
0000
0000
0000
,
0000
0000
0000
0000
,
0000
0000
0000
0000
,
0000
0000
0000
0000
,
1000
1010
0001
0101
,
0001
0010
0001
0000
0011
0000
0010
0100
,
0000
1100
1001
0110
,
0000
0010
1000
0010
0100
0010
1000
0001
,
1000
0000
0010
0000
0100
0010
0000
0100
,
0000
0010
1000
0100
,
0010
0000
0001
0010
0000
0001
0000
0100
,
0000
0010
0100
0000
0010
1000
0010
0000
,
0001
0000
0010
0100
0000
0001
0000
0100
,
0000
0001
1000
0000
0010
0000
0100
0001
,
0100
0000
0010
0000
1000
0001
0000
0100
,
0000
0000
0010
0000
1000
0001
0010
0001
,
0010
0000
0100
0000
0010
0001
0000
0100
,
0000
0010
0100
0001
,
0010
0000
0100
0010
0000
0100
0000
1000
,
0000
0100
0010
0000
0001
1000
0010
0100
,
0001
0100
0001
0100
0001
0100
0000
0010
,
0000
0000
1000
0000
0000
0100
0000
0000
,
0001
0000
0100
0000
1000
0010
0000
0100
,
0001
0010
0001
0010
0001
1000
0001
0000
,
1002
0010
0100
0010
,
1000
0010
0100
1003
,
2010
0100
0010
0001
,
0100
0001
0010
3100
,
0120
0001
0100
1000
,
0001
0001
1000
1030
,
1000
0100
0000
0010
0001
0000
0100
0001
,
0000
0100
0010
0000
0000
0000
0100
0000
,
0010
0020
1030
2000
,
3200
0320
0031
0002
,
0100
0000
0203
0000
0010
0000
0020
0300
,
2030
0000
3002
0000
0103
0001
0100
0000
,
0001
0002
1003
2000
,
3020
0230
0302
1003
,
0020
2030
3002
0023
,
0230
2300
3020
0230
,
0302
0023
0032
0203
,
0320
0000
1030
0000
0001
0100
0010
1000
,
0000
0002
0023
0130
,
0002
0203
2300
3020
,
0100
0230
0010
0310
,
1001
0000
0000
1000
,
0010
0000
0100
0000
0010
0000
1000
0100
,
1000
0000
0100
0000
0010
0000
0001
0010
,
0001
0000
0100
0001
0100
0000
0010
0100
,
0010
1000
0100
0010
,
0001
0000
0001
0000
1000
0001
1000
0000
,
0010
0000
0100
0000
0010
1000
0010
0000
,
0210
0010
0001
0001
,
1000
0001
0010
0310
,
2100
0100
0010
0010
,
0100
0001
0100
3001
,
1000
1000
0010
0010
,
0100
0100
0101
0101
,
0010
0010
1000
1000
,
0100
1000
0100
1000
0100
0010
0100
0010
,
0001
0002
0100
0203
,
0010
0320
1000
2030
,
3002
2003
3002
2003
,
3020
2030
3020
2030
,
3010
0100
0020
0000
0130
0000
0200
0000
,
0301
0010
0002
0000
0010
0000
0013
0000
,
0100
1000
0000
1000
0010
0000
0010
0100
,
0000
0100
0010
0000
0000
0000
0100
0000
,
0100
0001
0010
0100
,
1000
0000
0100
0000
1000
0000
0100
0000
1000
0000
0001
0000
0100
0001
0100
0000
,
0010
0000
0100
0000
0001
0010
0001
1000
,
0020
2030
3200
0302
,
0203
2300
3020
0230
,
0302
0203
0302
0203
,
0320
0000
2030
0000
3002
0000
1003
0001
,
0000
2000
3020
0230
,
0320
2030
3002
0023
,
0230
1000
2300
0001
,
3002
0103
0110
0000
;

//---------------dance-single - ----------------
#NOTES:
     dance-single:
     :
     Easy:
     4:
     0.296,0.316,0.018,0.000,0.000,230.000,2.000,0.000,0.000,0.000,0.000,0.296,0.316,0.018,0.000,0.000,230.000,2.000,0.000,0.000,0.000,0.000:
0000
0000
0000
0000
,
0000
0000
0000
0000
,
0000
0000
0000
0000
,
0000
0000
0000
0000
,
1000
1000
0010
0010
,
0100
0100
0100
0000
,
0001
0000
0010
0000
,
0100
0010
0001
1000
,
0001
0000
1000
0000
,
0010
0010
0100
0100
,
0010
0000
1000
0000
,
0100
0100
0001
0001
,
0100
0000
1000
0000
,
0010
1000
0001
0100
,
0010
0000
0100
0000
,
0001
0010
0001
1000
,
0010
0000
1000
0000
,
0100
0100
1000
1000
,
0001
0000
0100
0000
,
0010
0010
0100
0100
,
0001
0010
0001
0000
,
1000
0000
0010
0000
,
0100
0100
0010
0010
,
1000
0001
1000
0001
,
1000
0010
1000
0100
,
1000
0001
1000
0010
,
0100
0010
0100
1000
,
0100
0001
0100
0010
,
1000
1000
0001
0001
,
1000
0001
1000
1001
,
1000
0001
0000
0001
1000
0000
1000
0001
,
0000
0001
1000
0000
0000
0000
0000
0000
,
1000
0000
0010
0100
,
0010
0000
0100
0100
,
0001
0001
0010
0010
,
0100
0010
0100
1000
,
0001
0000
1000
0001
,
1000
0000
0010
1000
,
0010
0000
0100
0000
,
0001
0000
1000
0000
,
0100
0010
0100
0010
,
0001
0010
0001
0010
,
0001
0000
0100
0000
,
0010
0100
0010
0100
,
0010
0000
1000
0000
,
1010
0000
0000
0000
,
1000
0000
0001
1000
,
0001
0000
0010
0001
,
0010
0000
0100
0000
,
0010
0001
0010
0000
,
0001
0000
0100
0000
,
0010
0000
0100
0010
,
1000
0000
0010
0000
,
1000
0010
1000
0000
,
0001
0000
1000
0000
,
0001
1000
0001
0000
,
0010
0000
0100
0000
,
0010
0100
0010
0000
,
0100
0000
1000
0000
,
0010
1000
0001
1000
,
0010
0000
0010
0000
,
0100
0000
0100
0000
,
0001
0000
0001
0000
,
1000
0000
1000
0000
,
0100
0000
0010
0000
,
0100
0000
0010
0000
,
0100
1000
0000
1000
0100
0000
0100
1000
,
0000
1000
0100
0000
0000
0000
1000
0000
,
0100
1000
0010
0100
,
0001
0000
0100
0000
0010
0100
0010
0000
,
1000
0000
0001
0000
0010
0001
0010
0000
,
0001
0000
0001
0000
,
1000
0000
1000
0000
,
0010
0010
0010
0010
,
0100
0100
0100
0100
,
0010
0000
1000
0000
,
0001
0001
1000
1000
,
0001
0000
1000
0000
,
0001
1000
0001
0000
;

//---------------dance-single - ----------------
#NOTES:
     dance-single:
     :
     Beginner:
     2:
     0.189,0.210,0.018,0.000,0.000,146.000,2.000,0.000,0.000,0.000,0.000,0.189,0.210,0.018,0.000,0.000,146.000,2.000,0.000,0.000,0.000,0.000:
0000
0000
0000
0000
,
0000
0000
0000
0000
,
0000
0000
0000
0000
,
0000
0000
0000
0000
,
1000
0000
1000
0000
,
0010
0000
0010
0000
,
0100
0000
0100
0000
,
0010
0010
0010
0010
,
0010
0000
0100
0000
,
0001
0001
0001
0000
,
0010
0000
0010
0000
,
0100
0100
0100
0000
,
1000
0000
1000
0000
,
1000
0000
0000
0000
,
0010
0000
0010
0000
,
0100
0000
0100
0000
,
0001
0000
0001
0000
,
0100
0100
0100
0000
,
0010
0000
0010
0000
,
1000
1000
1000
0000
,
0001
0000
0001
0000
,
0100
0000
0100
0000
,
0010
0000
0000
0000
,
1000
0000
0010
0000
,
0100
0000
0100
0000
,
0100
0000
0100
0000
,
0001
0000
0001
0000
,
0001
0000
0001
0000
,
1000
0000
1000
0000
,
1000
0000
1000
0000
,
1001
0000
0000
0000
,
0000
0000
0000
0000
,
0010
0000
0000
0000
,
0010
0000
0000
0000
,
1000
0000
1000
0000
,
0001
0001
0001
0001
,
0001
0000
0001
0000
,
0100
0000
0100
0000
,
0010
0000
0000
0000
,
0010
0000
0000
0000
,
0010
0000
0100
0000
,
0001
0000
1000
0000
,
0001
0000
0000
0000
,
0010
0000
0000
0000
,
0100
0000
0100
0000
,
0100
0000
0000
0000
,
0010
0000
0010
0000
,
0001
0000
0001
0000
,
1000
1000
1000
0000
,
0010
0010
0010
0000
,
0100
0000
0100
0000
,
0010
0000
0010
0000
,
0100
0000
0100
0000
,
0100
0100
0100
0000
,
0001
0000
0001
0000
,
0001
0001
0001
0000
,
1000
0000
1000
0000
,
1000
1000
1000
0000
,
0100
0000
0100
0000
,
0100
0100
0100
0000
,
0010
0000
0010
0000
,
0010
0000
0010
0000
,
0001
0000
0001
0000
,
0001
0000
0001
0000
,
0100
0000
0100
0000
,
0100
0000
0100
0000
,
0110
0000
0000
0000
,
0000
0000
0000
0000
,
0010
0000
0010
0000
,
0100
0100
0100
0000
,
0001
0000
1000
0000
,
0010
0000
0000
0000
,
0010
0000
0000
0000
,
1000
0000
1000
0000
,
0100
0000
0100
0000
,
0010
0000
0000
0000
,
0001
0000
0000
0000
,
0100
0000
0010
0000
,
0100
0000
0010
0000
;
