#TITLE:Sorceress Elise;
#SUBTITLE:;
#ARTIST:Yahpp;
#TITLETRANSLIT:;
#SUBTITLETRANSLIT:;
#ARTISTTRANSLIT:;
#GENRE:;
#CREDIT:;
#BANNER:[ROUND 5] - Sorceress Elise.png;
#BACKGROUND:[ROUND 5] - Sorceress Elise-bg.png;
#LYRICSPATH:;
#CDTITLE:;
#MUSIC:[ROUND 5] - Sorceress Elise.mp3;
#OFFSET:-1.170;
#SAMPLESTART:16.491;
#SAMPLELENGTH:19.762;
#SELECTABLE:YES;
#BPMS:0.000=78.940
,8.000=157.880
;
#STOPS:64.000=0.380,
64.500=0.380,
65.000=0.180,
65.500=0.380,
66.000=0.380,
66.500=0.180,
67.000=0.380,
67.500=0.380,
68.000=0.180,
210.500=0.380,
211.000=0.380,
211.500=0.180,
212.000=0.380,
212.500=0.380,
213.000=0.180,
213.500=0.380,
214.000=0.380,
214.500=0.180
;
#BGCHANGES:;
#KEYSOUNDS:;
#ATTACKS:;

//---------------dance-single - ----------------
#NOTES:
     dance-single:
     :
     Hard:
     9:
     0.619,0.713,0.474,0.085,0.212,446.000,56.000,10.000,0.000,0.000,0.000,0.619,0.713,0.474,0.085,0.212,446.000,56.000,10.000,0.000,0.000,0.000: // measure 0
0000
0000
0000
0000
,  // measure 1
0000
0000
0000
0000
,  // measure 2
0001
0100
1000
0100
0000
0001
0010
0100
,  // measure 3
1000
0010
0001
0010
1000
0100
0001
0100
,  // measure 4
1000
0010
0001
0010
0000
1000
0100
0010
,  // measure 5
0001
0100
1000
0100
0001
0010
1000
0010
,  // measure 6
0001
0000
0000
0000
0000
0000
1000
0100
1000
0000
1100
0000
0000
0000
0100
0010
,  // measure 7
0100
0000
0010
0001
0010
0000
0001
0100
0001
0000
0100
0010
0100
0000
0010
1000
,  // measure 8
0010
1000
0010
1000
0010
1000
0010
1000
,  // measure 9
0001
0000
0001
0010
0000
0010
0100
0010
,  // measure 10
0100
0000
0100
1000
0000
1000
0010
1000
,  // measure 11
0010
0000
0010
0100
0000
0100
0001
0000
,  // measure 12
0100
0001
0100
0001
0100
0001
0100
0001
,  // measure 13
1000
0000
1000
0010
0000
0010
0100
0010
,  // measure 14
0100
0000
0100
0001
0000
0001
0010
0001
,  // measure 15
0010
0000
0010
0100
0000
0100
1000
0100
,  // measure 16
1100
0110
0011
0101
0110
1010
1100
0110
,  // measure 17
0011
1001
0000
0000
1000
0001
0000
0000
,  // measure 18
1000
0001
1000
0001
1000
0001
1000
0001
,  // measure 19
2000
0002
0000
0000
0000
0000
0000
3003
,  // measure 20
0000
0000
1000
0010
1000
0010
1000
0010
,  // measure 21
1000
0100
0000
0100
0010
0000
0010
0001
,  // measure 22
0010
0001
0000
0001
1000
0000
1000
0001
,  // measure 23
2000
0002
0000
0000
0000
0000
0000
0000
,  // measure 24
0000
0000
0000
0000
3003
0000
0000
0000
0000
0000
0001
0100
0000
0000
0001
0000
,  // measure 25
0100
0000
0000
0000
0001
0000
0010
0000
0100
0000
1000
0010
0000
0000
1000
0000
,  // measure 26
0010
0000
0000
0000
1000
0000
0100
0000
0010
0000
0001
0100
0000
0000
0001
0000
,  // measure 27
0100
0000
0000
0000
0001
0000
0010
0000
0100
0000
1000
0010
0000
0000
1000
0000
,  // measure 28
0010
0000
0000
0000
1000
0000
0100
0000
0010
0000
0001
0010
0001
0000
1000
0000
,  // measure 29
0001
0000
0100
0000
0001
0000
0010
0000
0100
0000
1000
0100
1000
0000
0001
0000
,  // measure 30
1000
0000
0010
0000
1000
0000
0100
0000
0010
0000
0001
0100
0001
0000
1000
0000
,  // measure 31
0001
0000
0010
0000
0001
0000
0100
0000
0010
0000
1000
0010
1000
0000
0001
0000
,  // measure 32
1000
0000
0100
0000
1000
0000
0010
0000
0100
0000
0001
0100
0000
0000
0100
0010
,  // measure 33
0000
0000
0010
1000
0000
0000
1000
0100
0000
0000
0100
0001
0000
0000
0001
0100
,  // measure 34
0000
0000
0100
1000
0000
0000
1000
0001
0000
0000
1000
0001
0100
0000
0000
0000
,  // measure 35
0001
1000
0100
0000
1100
0000
1000
0100
0000
0000
1000
0100
0000
0000
0100
0010
,  // measure 36
0000
0000
0010
0001
0000
0000
0001
1000
0000
0000
1000
0010
0000
0000
0010
0100
,  // measure 37
0000
0000
0100
0001
0000
0000
0001
0100
0000
0000
0100
1000
0000
0000
1000
0100
,  // measure 38
0000
0000
0100
0001
0000
0000
0001
1000
0000
0000
0001
1000
0100
0000
0000
0000
,  // measure 39
1000
0001
0100
0000
0101
0000
0001
0100
0000
0000
1001
0000
0000
0000
0000
0000
,  // measure 40
0001
0100
0001
0000
0101
0000
0000
0000
0001
0010
0001
0000
0010
0100
0010
0000
,  // measure 41
0100
1000
0100
0000
1000
0010
1000
0000
0010
0100
0010
0000
0100
0001
0100
0000
,  // measure 42
0001
0010
0001
0000
0010
0100
0010
0000
0100
1000
0100
0000
1000
0000
0100
0000
,  // measure 43
0010
0001
0010
0100
1000
2002
0000
0000
,  // measure 44
0000
0000
3003
0000
0000
0000
1000
0100
,  // measure 45
0001
0100
1000
0010
0100
0010
0000
0010
,  // measure 46
1000
0000
1000
0100
0010
0100
0000
0100
,  // measure 47
1000
0000
1000
0010
0001
0010
0000
0010
,  // measure 48
0100
0000
0100
0001
0000
0000
0001
0100
,  // measure 49
0010
0100
0001
0010
1000
0010
0000
0010
,  // measure 50
0001
0000
0001
0100
1000
0100
0000
0100
,  // measure 51
0001
0000
0001
0010
0100
0010
0000
0010
,  // measure 52
0001
0000
0001
0100
0001
0101
0110
1010
,  // measure 53
1100
0110
0011
0101
0110
1010
1001
0000
,  // measure 54
0000
0001
0100
0000
0000
0001
0100
1000
,  // measure 55
0100
0001
1000
0100
0001
0200
2000
0000
,  // measure 56
0000
0000
0000
0000
3300
0000
0000
1000
,  // measure 57
0100
0001
0100
1000
0010
0100
0010
0000
,  // measure 58
0010
1000
0000
1000
0100
0010
0100
0000
,  // measure 59
0100
1000
0000
1000
0010
0001
0010
0000
,  // measure 60
0010
0100
0000
0100
0001
0100
0101
0110
,  // measure 61
0000
1010
0000
1100
0000
1001
0001
0010
,  // measure 62
0100
1000
0001
0010
0100
1000
1100
0110
,  // measure 63
0000
0011
0000
0101
0000
1001
0001
0010
,  // measure 64
0100
1000
0001
0010
0100
1000
1001
0110
,  // measure 65
0000
1010
0000
0101
0000
1001
0110
1001
,  // measure 66
0000
1100
0000
1010
0000
1001
0110
1001
,  // measure 67
0000
0101
0000
0011
0000
1001
0101
1001
,  // measure 68
1010
1001
0000
0000
0000
0000
2002
0000
,  // measure 69
0000
0000
0000
0000
,  // measure 70
0000
3003
0000
0000
;

//---------------dance-single - ----------------
#NOTES:
     dance-single:
     :
     Medium:
     6:
     0.365,0.650,0.829,0.068,0.000,196.000,98.000,8.000,0.000,0.000,0.000,0.365,0.650,0.829,0.068,0.000,196.000,98.000,8.000,0.000,0.000,0.000:
0000
0000
0000
0000
,
0000
0000
0000
0000
,
0010
0100
0000
0001
,
0100
0010
1000
0100
,
0010
0001
0000
0100
,
0010
1000
0100
1000
,
1010
0000
0101
0000
,
0011
1100
1010
0101
,
0011
0100
1000
0001
,
1010
0000
0000
0101
0000
0000
0011
0000
,
1100
0000
0000
0101
0000
0000
1010
0000
,
1001
0000
0000
0110
0000
0000
1001
0000
,
0000
0001
1000
0001
,
0011
0000
0000
0110
0000
0000
1100
0000
,
1010
0000
0000
0110
0000
0000
0101
0000
,
0110
0000
0000
1001
0000
0000
1010
0000
,
1001
0110
1010
0101
0011
0110
1100
1010
,
0110
0101
0000
0000
0000
0001
0000
0000
,
0000
1000
0000
0010
0000
0100
0000
0001
,
0000
1001
0000
0000
0000
0000
0000
0000
,
0000
0000
0000
0010
0000
1000
0000
0001
,
0000
0011
0000
0000
0110
0000
0000
1100
,
0000
1010
0000
0000
0101
0000
0000
0011
,
0000
2200
0000
0000
0000
0000
0000
0000
,
0000
0000
3300
0000
0000
0001
0000
0000
,
1000
0000
0000
0000
0000
0010
0000
0000
,
0100
0000
0000
0000
0000
0001
0000
0000
,
1000
0000
0000
0000
0000
0010
0000
0000
,
0100
0000
0000
0000
0000
0001
0000
0000
,
0010
0000
0000
0000
0000
0100
0000
0000
,
1000
0000
0000
0000
0000
0010
0000
0000
,
0100
0000
0000
0000
0000
0001
0000
0000
,
1000
0000
0000
0000
0000
0001
0000
0010
,
0000
0100
0000
1000
0000
0010
0000
0100
,
0000
0001
0000
1000
0000
1001
0000
0000
,
0000
0110
0000
0000
0000
0001
0000
0010
,
0000
0100
0000
1000
0000
0010
0000
1000
,
0000
0100
0000
0010
0000
0001
0000
0100
,
0000
0001
0000
0010
0000
0110
0000
0000
,
0000
1001
0000
0000
0000
1010
0000
0000
,
0000
0101
0000
0000
0000
1010
0000
0101
,
0000
0110
0000
0110
0000
1001
0000
0110
,
0000
1001
0000
0110
0000
0011
0000
1100
,
0000
1010
0000
0101
0000
2002
0000
0000
,
0000
0000
0000
0000
3003
0000
0000
0001
,
0000
0010
0000
0100
0000
1000
0000
0000
,
0000
1000
0000
0000
0000
0001
0000
0000
,
0000
0001
0000
0000
0000
1000
0000
0000
,
0000
1000
0000
0000
0000
0010
0000
0100
,
0000
0001
0000
0010
0000
0100
0000
0000
,
0100
0000
0000
1000
0000
0010
0000
0000
,
0010
0000
0000
0100
0000
0001
0000
0000
,
0000
0001
0000
1000
0000
1010
0101
0011
,
0110
1100
1010
0110
0011
0011
0110
0000
,
0000
1100
0000
1010
,
0110
0101
0011
0220
,
0000
0000
0000
0000
0000
0330
0000
0000
,
0001
0010
0100
1000
,
0000
1000
0000
0000
0010
0000
0100
0000
,
0000
0001
0000
0000
0010
0000
0100
0000
,
0000
1000
0000
0000
0010
0000
0110
0000
,
0000
0101
0000
0011
0000
0000
1100
0000
,
0000
0000
0000
1010
,
0000
0110
0000
0101
0000
0000
0011
0000
,
0000
0000
0000
0110
,
0000
1100
0000
1010
0000
0000
0110
0000
,
0000
0101
0000
0011
0000
0000
0110
0000
,
0000
1100
0000
1001
0000
0000
0110
0000
,
1001
0000
0000
2002
,
0000
0000
0000
0000
0000
0000
0000
3003
;

//---------------dance-single - ----------------
#NOTES:
     dance-single:
     :
     Easy:
     3:
     0.264,0.621,0.482,0.051,0.000,155.000,57.000,6.000,0.000,0.000,0.000,0.264,0.621,0.482,0.051,0.000,155.000,57.000,6.000,0.000,0.000,0.000:
0000
0000
0000
0000
,
0000
0000
0000
0000
,
0001
0000
0001
0000
,
0010
0100
1000
0000
,
1000
0000
1000
0000
,
0010
0100
0001
0000
,
1001
0000
0110
0000
,
0110
1001
0110
1001
,
0110
0000
0000
0000
,
0001
0000
0001
0000
,
1000
0000
1000
0000
,
0001
0000
0001
0000
,
0000
0000
0000
0000
,
1000
0000
1000
0000
,
0001
0000
0001
0000
,
1000
0000
1000
0000
,
0110
1010
0101
0011
0110
1100
1010
0110
,
0101
0001
0000
0000
0000
0010
0000
0000
,
0000
0100
0000
1000
0000
0010
0000
0100
,
0000
0002
0000
0000
0000
0000
0000
0000
,
0003
0000
0000
1000
0000
0010
0000
0100
,
0000
0001
0000
0000
0000
0001
0000
0000
,
0000
1000
0000
0000
0000
1000
0000
0000
,
0000
0002
0000
0000
0000
0000
0000
0000
,
0000
0000
0003
0000
0000
1000
0000
0000
,
1000
0000
0000
0000
0000
0001
0000
0000
,
0001
0000
0000
0000
0000
1000
0000
0000
,
1000
0000
0000
0000
0000
0001
0000
0000
,
0001
0000
0000
0000
0000
0010
0000
0000
,
0100
0000
0000
0000
0000
1000
0000
0000
,
0001
0000
0000
0000
0000
0100
0000
0000
,
0010
0000
0000
0000
0000
1000
0000
0000
,
0001
0000
0000
0000
0000
0010
0000
0100
,
0000
1000
0000
0010
0000
0100
0000
0001
,
0000
0010
0000
0100
0000
1000
0000
0000
,
0000
0001
0000
0000
0000
0010
0000
0100
,
0000
1000
0000
0000
0000
0010
0000
0100
,
0000
0001
0000
0010
0000
0100
0000
1000
,
0000
0010
0000
0100
0000
0001
0000
0000
,
0000
1000
0000
0000
0000
1001
0000
0000
,
0000
0110
0000
0000
0000
1001
0000
0110
,
0000
1001
0000
0110
0000
1001
0000
0110
,
0000
1001
0000
0110
0000
0001
0000
0010
,
0000
0100
0000
1000
0000
2002
0000
0000
,
0000
0000
0000
0000
0000
3003
0000
0000
,
0000
0000
0000
0000
0000
0001
0000
0000
,
0000
0001
0000
0000
0000
1000
0000
0000
,
0000
1000
0000
0000
0000
0001
0000
0000
,
0000
0001
0000
0000
0000
0000
0000
0000
,
0000
0000
0000
0000
0000
1000
0000
0000
,
0000
1000
0000
0000
0000
0001
0000
0000
,
0000
0001
0000
0000
0000
1000
0000
0000
,
0000
1000
0000
0000
0000
0110
1001
0110
,
1001
0110
1001
0110
1001
0110
1001
0000
,
0000
1001
0000
1001
,
1001
1001
1001
1001
,
0000
0000
0000
0000
,
0000
0000
0000
0001
,
0000
0001
0000
1000
,
0000
1000
0000
0001
,
0000
0001
0000
1001
,
0000
0110
0000
1001
,
0000
0000
0000
0110
,
0000
1001
0000
0110
,
0000
0000
0000
1001
,
0000
0110
0000
1001
,
0000
0110
0000
1001
,
0000
0110
0000
1001
,
0000
0000
0000
2002
,
0000
0000
0000
0000
0000
0000
0000
3003
;
