#TITLE:Solitude Sun;
#SUBTITLE:;
#ARTIST:DJ Sharpnel;
#TITLETRANSLIT:;
#SUBTITLETRANSLIT:;
#ARTISTTRANSLIT:;
#CREDIT:;
#BANNER:sun-bn.png;
#BACKGROUND:sun-bg.png;
#LYRICSPATH:;
#CDTITLE:;
#MUSIC:[ROUND 5] - Solitude Sun.ogg;
#OFFSET:-8.241;
#SAMPLESTART:78.245;
#SAMPLELENGTH:16.440;
#SELECTABLE:YES;
#BPMS:0.000=174.900;
#STOPS:;
#BGCHANGES:;

//---------------dance-single - ----------------
#NOTES:
     dance-single:
     :
     Hard:
     8:
     0.570,0.589,0.253,0.096,0.070: // measure 1
0010
1100
0101
1001
,  // measure 2
0001
0000
0100
0000
0010
1000
0001
0000
,  // measure 3
0010
0000
0100
0000
1000
0001
0100
0000
,  // measure 4
0010
0000
0100
0000
0001
0010
0100
0000
,  // measure 5
2002
0003
0100
3100
,  // measure 6
0010
0000
0001
0100
0000
0100
0001
1000
,  // measure 7
0100
1000
0010
0100
0001
0000
0100
0000
,  // measure 8
0010
1010
1001
0101
,  // measure 9
0001
0000
0010
0000
0100
1000
0001
0000
,  // measure 10
0100
0000
0010
0000
0100
0001
1000
0000
,  // measure 11
0100
0000
0010
0001
0000
0001
1000
0000
,  // measure 12
0010
0000
0100
0001
0000
0001
1000
0000
,  // measure 13
0010
0110
0101
1001
,  // measure 14
1000
0100
0001
0100
1000
0010
0001
0000
,  // measure 15
0010
0100
0001
0000
0010
0100
1000
0000
,  // measure 16
0001
0000
0100
0010
0000
0010
0100
0000
,  // measure 17
0220
0300
1000
1030
,  // measure 18
0001
0000
0100
0010
0000
0010
0100
0001
,  // measure 19
0010
0100
1000
0001
0100
0000
0110
0000
,  // measure 20
0000
0010
0000
0000
1000
0000
0000
0100
0000
0000
1000
0000
0001
0000
0100
0000
,  // measure 21
0010
0000
0000
0000
0100
0000
0000
0001
0000
0000
0010
0000
0100
0000
1000
0000
,  // measure 22
0010
0000
0000
0000
0100
0000
0000
0001
0000
0000
0100
0000
0010
0000
1000
0000
,  // measure 23
0100
0001
0100
0000
1000
0001
1000
0000
,  // measure 24
0000
0001
0000
0000
0100
0000
0000
0010
0000
0000
0100
0000
0001
0000
0010
0000
,  // measure 25
0100
0000
0000
0000
1000
0000
0000
0010
0000
0000
0100
0000
0010
0000
1000
0000
,  // measure 26
0100
0000
0000
0000
0010
0000
0000
0100
0000
0000
1000
0000
0001
0000
0100
0000
,  // measure 27
0010
1000
0001
0100
1000
0100
0001
0010
,  // measure 28
0000
0100
0000
0000
1000
0000
0000
0100
0000
0000
0010
0000
0001
0000
0100
0000
,  // measure 29
0010
0000
0000
0000
0100
0000
0000
0001
0000
0000
1000
0000
0100
0000
0001
0000
,  // measure 30
0100
0000
0000
0000
1000
0000
0000
0001
0000
0000
0100
0000
0010
0000
1000
0000
,  // measure 31
0001
0010
1000
0001
0100
1000
0010
0100
,  // measure 32
0000
0001
0000
0000
0010
0000
0000
0100
0000
0000
0001
0000
0100
0000
1000
0000
,  // measure 33
0001
0000
0000
0000
0010
0000
0000
1000
0000
0000
0010
0000
0001
0000
0100
0000
,  // measure 34
0010
0000
0000
0000
1000
0000
0000
0100
0000
0000
0001
0000
0100
0000
0010
0000
,  // measure 35
0002
1000
0000
1000
0000
1000
0000
1000
,  // measure 36
1003
0010
0100
0001
0100
0010
1000
0000
,  // measure 37
0001
0010
0100
0010
0001
0100
0010
0000
,  // measure 38
0100
0001
0010
0100
1000
0001
0100
0000
,  // measure 39
0010
1000
0100
0001
0100
1000
0010
0100
,  // measure 40
0001
0010
0100
0010
0001
1000
0010
0000
,  // measure 41
0100
0001
0100
0010
1000
0001
0010
0000
,  // measure 42
0100
1000
0001
0100
1000
0100
0001
0000
,  // measure 43
0010
0100
1000
0001
0100
0010
0100
0001
,  // measure 44
0010
0100
1000
0001
0100
0010
0100
0000
,  // measure 45
0001
0010
1000
0001
0100
1000
0010
0000
,  // measure 46
0100
0001
0010
0100
1000
0010
0100
0000
,  // measure 47
0010
1000
0001
1000
0010
0100
0001
0100
,  // measure 48
0010
1000
0100
0001
0100
1000
0010
0100
,  // measure 49
0001
0010
1000
0010
0001
0100
1000
0100
,  // measure 50
0001
0010
0100
1000
0001
0100
0010
1000
,  // measure 51
2002
0000
0000
3003
,  // measure 52
0010
1100
0101
1001
,  // measure 53
0001
0000
0100
0010
0000
0010
0100
0001
,  // measure 54
1000
0000
0100
1000
0000
1000
0010
0000
,  // measure 55
0100
0000
0001
0010
0000
0010
0001
0000
,  // measure 56
0100
0000
0010
1000
0001
0000
0010
0000
,  // measure 57
0100
1100
1001
0101
,  // measure 58
0100
0000
0010
1000
0000
1000
0010
0100
,  // measure 59
0001
0000
0001
0010
0000
0001
0100
0000
,  // measure 60
0010
0000
0100
0001
0000
0001
1000
0000
,  // measure 61
2100
0000
0001
3001
,  // measure 62
0100
0000
0010
0100
0000
0100
0010
0100
,  // measure 63
0000
0010
0100
0001
1000
0000
1001
0000
,  // measure 64
0001
0011
0110
1100
,  // measure 65
1000
0000
0001
0100
0010
0000
0010
0100
,  // measure 66
0001
0000
1000
0100
0000
0100
1000
0000
,  // measure 67
0010
0000
0100
0001
0000
0001
0100
0000
,  // measure 68
0010
1000
0001
0010
,  // measure 69
0100
1100
1001
0101
,  // measure 70
0100
0000
0010
1000
0000
1000
0010
0000
,  // measure 71
0100
0000
0001
0010
0000
0010
0001
0000
,  // measure 72
0100
0000
0010
1000
0000
0001
0010
0000
,  // measure 73
0120
0000
0100
0130
,  // measure 74
1000
0000
0010
0100
0000
0100
0010
0000
,  // measure 75
2002
0000
0003
0000
,  // measure 76
3000
0000
0000
0000
;

//---------------dance-single - ----------------
#NOTES:
     dance-single:
     :
     Challenge:
     10:
     0.802,0.751,0.131,0.096,0.563: // measure 1
1001
0000
0001
0100
1000
0100
0001
0010
,  // measure 2
1000
0000
0010
0100
1000
0010
0100
0001
,  // measure 3
0010
0000
0100
1000
0010
0100
0001
1000
,  // measure 4
0100
0000
0010
0001
1000
0010
0100
0000
,  // measure 5
2002
0003
0010
0010
,  // measure 6
3010
0100
0000
0010
0100
0000
0010
0000
1000
0000
0100
0000
0010
0000
0001
0000
,  // measure 7
0100
0010
0100
0001
1000
0000
1001
0000
,  // measure 8
1000
0100
0010
0001
1000
0010
0100
0001
,  // measure 9
1000
0100
0001
1000
0001
0100
1000
0010
,  // measure 10
0100
0001
0010
1000
0001
0100
0010
0001
,  // measure 11
0100
1000
0100
0001
0010
0100
1000
0010
,  // measure 12
0001
1000
0100
0001
1000
0010
0001
0010
,  // measure 13
1000
0100
0010
0001
0100
0010
1000
0100
,  // measure 14
0001
0100
1000
0001
1000
0010
0001
0010
,  // measure 15
1000
0100
1000
0001
0100
0001
0010
0001
,  // measure 16
0100
0010
1000
0100
0010
0001
0100
0010
,  // measure 17
2002
0003
0001
0001
,  // measure 18
3001
0010
0000
0001
0010
0000
0100
0000
1000
0000
0010
0000
0100
0000
0001
0000
,  // measure 19
1000
0100
0001
0100
1000
0000
1001
0000
,  // measure 20
0001
0100
0000
0001
0100
0000
0010
1000
0000
0010
1000
0000
0100
0000
0010
0000
,  // measure 21
0100
1000
0000
0100
1000
0000
0001
0100
0000
0001
0100
0000
0010
0000
1000
0001
,  // measure 22
1000
0100
0000
1000
0100
0000
0010
0001
0000
0010
0001
0000
0100
0000
0010
0000
,  // measure 23
0100
0001
0100
0000
0010
0000
1000
0000
0001
0010
0001
0000
1000
0100
1000
0000
,  // measure 24
0010
0100
0000
0010
0100
0000
0001
1000
0000
0001
1000
0000
0100
0000
0010
0000
,  // measure 25
0001
0100
0000
0001
0100
0000
0010
1000
0000
0010
1000
0000
0100
0000
0010
0001
,  // measure 26
0010
0001
0000
0010
0001
0000
1000
0100
0000
1000
0100
0000
1000
0000
0010
0000
,  // measure 27
0100
0001
0100
0000
0010
0000
1000
0000
0100
1000
0100
0000
0010
0001
0010
0000
,  // measure 28
0100
1000
0000
0100
1000
0000
0001
0010
0000
0001
0010
0000
0100
0000
0001
0000
,  // measure 29
0100
1000
0000
0100
1000
0000
0010
0100
0000
0010
0100
0000
0001
0000
0010
0000
,  // measure 30
0100
1000
0000
0100
1000
0000
0001
0100
0000
0001
0100
0000
0010
0000
1000
0000
,  // measure 31
0001
0010
0001
0000
0100
0000
0010
0000
1000
0001
1000
0000
0010
0100
0010
0000
,  // measure 32
1000
0001
0000
1000
0001
0000
0100
0010
0000
0100
0010
0000
1000
0000
0001
0000
,  // measure 33
0010
0100
0000
0010
0100
0000
1000
0001
0000
1000
0001
0000
0100
0000
0010
1000
,  // measure 34
0010
1000
0000
0010
1000
0000
0001
0100
0000
0001
0100
0000
0010
0000
1000
0000
,  // measure 35
0002
1000
0000
1000
0000
1000
0000
1000
,  // measure 36
0013
1000
0000
0100
0010
0000
0001
0100
0000
0010
0100
0000
0001
0000
0010
0000
,  // measure 37
0100
1000
0000
0001
0100
0000
0010
1000
0000
0100
0010
0000
0001
0000
0100
0000
,  // measure 38
0010
0100
0000
0001
0010
0000
0100
1000
0000
0010
0100
0000
0001
0000
0010
0000
,  // measure 39
0100
1000
0001
0000
0100
0000
0010
0000
1000
0001
0010
0000
0100
1000
0001
0000
,  // measure 40
0100
0010
0000
0100
0001
0000
1000
0100
0000
0010
0100
0000
1000
0000
0010
0000
,  // measure 41
0100
0001
0000
0010
0100
0000
1000
0010
0000
0100
0001
0000
0010
0000
0100
0000
,  // measure 42
1000
0010
0000
0001
0010
0000
1000
0100
0000
0001
0100
0000
0010
0000
0001
0000
,  // measure 43
1000
0010
1000
0000
0010
0000
0100
0000
0001
0100
0001
0000
1000
0001
1000
0000
,  // measure 44
0010
0100
0000
0001
0010
0000
0100
1000
0000
0010
0100
0000
0001
0000
0010
0000
,  // measure 45
0001
0100
0000
0010
1000
0000
0100
0010
0000
0100
1000
0000
0010
0000
0100
0001
,  // measure 46
0100
0010
0000
0100
0001
0000
1000
0100
0000
0010
0100
0000
1000
0000
0010
0000
,  // measure 47
0100
0001
0100
0000
0010
0000
1000
0000
0001
0010
0001
0000
1000
0100
1000
0000
,  // measure 48
0010
0100
0000
0001
1000
0000
0100
0010
0000
0001
0100
0000
0010
0000
0100
0000
,  // measure 49
0001
0010
0000
1000
0010
0000
0001
0100
0000
0010
0100
0000
0001
0000
1000
0100
,  // measure 50
1000
0010
0000
0100
0001
0000
0010
0100
0000
1000
0010
0000
0100
0000
0001
0000
,  // measure 51
2002
0000
0000
3003
,  // measure 52
0110
0000
0010
1000
0100
0010
0100
1000
,  // measure 53
0010
0100
0001
0010
0100
1000
0010
0000
,  // measure 54
0010
0100
0001
1000
0100
0010
0100
1000
,  // measure 55
0010
0100
0001
0010
0100
1000
0001
0100
,  // measure 56
0010
1000
0100
0010
0100
1000
0010
0100
,  // measure 57
0001
0011
0110
1100
,  // measure 58
1000
0001
0100
0010
0100
0001
0010
0100
,  // measure 59
1000
0010
0001
0010
1000
0100
0001
0100
,  // measure 60
1000
0000
0010
0100
0000
0010
1000
0001
,  // measure 61
1002
0000
0100
0103
,  // measure 62
0010
1000
0000
0001
0010
0000
0100
0000
0000
0000
0100
0000
1000
0000
0010
0000
,  // measure 63
0000
0000
0100
0000
0001
0000
1000
0000
0100
0000
0000
0000
0010
0001
0010
0001
,  // measure 64
0010
0001
0100
1000
0100
0010
1000
0100
,  // measure 65
0001
1000
0010
0001
0100
0010
0100
0001
,  // measure 66
0010
1000
0001
0100
0010
0001
0100
0010
,  // measure 67
1000
0001
0010
0100
1000
0010
0001
1000
,  // measure 68
0001
0010
1000
0100
0010
0001
0100
0010
,  // measure 69
0100
0101
0110
1010
,  // measure 70
1000
0100
1000
0001
0010
0001
0100
0010
,  // measure 71
0100
0001
0010
1000
0010
0100
1000
0010
,  // measure 72
0100
0001
0010
1000
0010
0001
0100
0000
,  // measure 73
0220
0030
1000
0001
,  // measure 74
0310
1000
0000
0001
0010
0000
0100
0000
0000
0000
0100
0000
1000
0000
0010
0000
,  // measure 75
0000
0100
0001
1000
0200
0000
0300
0000
;

//---------------dance-single - ----------------
#NOTES:
     dance-single:
     :
     Medium:
     6:
     0.399,0.388,0.070,0.087,0.000: // measure 1
0010
1000
0010
0100
,  // measure 2
0001
0000
0010
0100
,  // measure 3
1000
0000
0010
0100
,  // measure 4
0001
1000
0100
0010
,  // measure 5
2002
0000
3003
0000
,  // measure 6
0010
0000
1000
0010
0000
0010
1000
0000
,  // measure 7
0100
0010
1001
0010
,  // measure 8
0100
0001
0010
0100
,  // measure 9
1000
0000
1000
0010
,  // measure 10
0100
0000
0100
0001
,  // measure 11
1000
0000
0100
0000
0010
0000
0001
1000
,  // measure 12
0010
0000
0100
0010
1000
0000
0001
0000
,  // measure 13
0010
0100
1000
0001
,  // measure 14
0100
0000
0010
0100
,  // measure 15
0001
0000
0001
1000
,  // measure 16
0100
0000
0010
0000
0001
1000
0010
0000
,  // measure 17
0220
0000
0000
0330
,  // measure 18
0010
0000
1000
0100
0000
0100
1000
0000
,  // measure 19
0001
0100
0010
1001
,  // measure 20
0001
0000
0010
0000
0100
1000
0010
0000
,  // measure 21
0100
0000
0001
0000
0010
0100
1000
0000
,  // measure 22
0010
0000
0100
0000
0001
1000
0100
0000
,  // measure 23
0010
0010
0010
0010
,  // measure 24
0100
0000
1000
0000
0010
0100
0001
0000
,  // measure 25
1000
0000
0100
0000
0010
0001
0010
0000
,  // measure 26
0100
0000
1000
0000
0001
0100
0010
0000
,  // measure 27
1000
1000
1000
1000
,  // measure 28
0010
0000
0100
0000
0001
1000
0100
0000
,  // measure 29
0010
0000
0001
0000
0100
0010
1000
0000
,  // measure 30
0100
0000
0010
0000
0100
1000
0010
0000
,  // measure 31
0100
0100
0100
0100
,  // measure 32
0010
0000
1000
0000
0100
0001
0100
0000
,  // measure 33
1000
0000
0010
0000
0100
0001
0010
0000
,  // measure 34
0100
0000
1000
0000
0010
0100
0010
0000
,  // measure 35
0001
0001
0001
0001
,  // measure 36
0010
0000
1000
0000
0100
0001
0100
0000
,  // measure 37
0010
0000
0001
0000
0100
0010
1000
0000
,  // measure 38
0100
0000
0010
0000
0001
0100
0010
0000
,  // measure 39
1000
0100
1000
0100
,  // measure 40
0010
0000
0001
0000
0100
0010
0100
0000
,  // measure 41
0001
0000
0010
0000
0100
1000
0010
0000
,  // measure 42
0100
0000
0001
0000
0010
0100
1000
0000
,  // measure 43
0010
0100
0010
0100
,  // measure 44
0010
0000
1000
0000
0100
0001
0100
0000
,  // measure 45
0010
0000
0001
0000
1000
0010
0100
0000
,  // measure 46
0010
0000
1000
0000
0100
0010
0001
0000
,  // measure 47
0100
0010
0100
0001
,  // measure 48
0100
0000
0010
0000
1000
0100
0001
0000
,  // measure 49
0100
0000
1000
0000
0001
0100
1000
0000
,  // measure 50
0100
0000
0010
0000
1000
0001
0010
0000
,  // measure 51
0220
0000
0000
0330
,  // measure 52
0100
0001
0100
1000
,  // measure 53
0010
0000
0010
0100
,  // measure 54
0001
0000
0001
1000
,  // measure 55
0100
0000
0100
0010
,  // measure 56
0100
0000
1000
0000
0010
0100
0010
0000
,  // measure 57
1000
0100
0010
0001
,  // measure 58
1000
0000
0010
0100
,  // measure 59
0001
0000
0010
0100
,  // measure 60
1000
0000
0010
0000
0100
0001
1000
0000
,  // measure 61
2002
0000
3003
0000
,  // measure 62
0010
0000
1000
0100
0000
0100
1000
0000
,  // measure 63
0010
0100
0001
0000
,  // measure 64
0010
0100
1000
0010
,  // measure 65
0001
0000
1000
0100
,  // measure 66
0001
0000
0010
0100
,  // measure 67
1000
0000
0010
0000
0100
0001
0100
0000
,  // measure 68
0010
0000
1000
0000
0001
0010
0001
0000
,  // measure 69
0010
0100
1000
0010
,  // measure 70
0001
0000
0010
1000
,  // measure 71
0100
0000
0010
0001
,  // measure 72
0100
0000
0010
0000
1000
0001
1000
0000
,  // measure 73
0220
0000
0330
0000
,  // measure 74
0010
0000
1000
0001
0000
0001
1000
0000
,  // measure 75
1001
0000
0000
0000
;

//---------------dance-single - ----------------
#NOTES:
     dance-single:
     :
     Easy:
     4:
     0.246,0.291,0.052,0.026,0.000:
0000
0010
0010
0010
,
0010
0000
1000
0000
,
0100
0000
0010
0000
,
0001
0100
0001
0000
,
1001
0000
0000
0000
,
0010
0000
0100
0000
,
0010
0010
0010
0000
,
0000
1000
1000
1000
,
1000
0000
0100
0000
,
0010
0000
0001
0000
,
0100
0000
0010
0000
,
1000
0001
1000
0000
,
0000
0001
0001
0001
,
0001
0000
0010
0000
,
1000
0000
0100
0000
,
0001
0000
0010
0000
,
1001
0000
0000
0000
,
0001
0001
0000
0100
,
0000
0010
0010
0000
,
1000
0000
0100
0000
,
0010
0001
0010
0000
,
0100
0000
1000
0000
,
0001
0100
0001
0000
,
0100
0000
0010
0000
,
1000
0100
1000
0000
,
0001
0000
0100
0000
,
0010
1000
0010
0000
,
1000
0000
0100
0000
,
0010
0001
0010
0000
,
0100
0000
0001
0000
,
0100
1000
0100
0000
,
1000
0000
0010
0000
,
0100
0001
0100
0000
,
0001
0000
0100
0000
,
0020
0000
0000
0030
,
1000
0100
1000
0100
,
1000
1000
0100
0000
,
0010
0001
0010
0001
,
0010
0010
0001
0000
,
0100
0010
0100
0010
,
0100
0100
0010
0000
,
1000
0001
1000
0001
,
1000
1000
0001
0000
,
0001
0010
0100
1000
,
0010
0010
0100
0000
,
0001
0010
1000
0010
,
0001
0001
0100
0000
,
0010
1000
0001
0010
,
0100
0100
0001
0000
,
0100
1000
0010
0100
,
2002
0000
3003
0000
,
0000
0010
0010
0010
,
0010
0000
0001
0000
,
0100
0000
0010
0000
,
1000
0000
0001
0000
,
0010
0100
0010
0000
,
0000
0001
0001
0001
,
0001
0000
0100
0000
,
0010
0000
1000
0000
,
0100
0000
0010
0000
,
1001
0000
0000
0000
,
0010
0000
0100
0000
,
0010
0100
0010
0000
,
0000
1000
0100
0010
,
0001
0000
0001
0000
,
0100
0000
0010
0000
,
1000
0000
0100
0000
,
0010
0001
0010
0000
,
0000
0100
0100
0100
,
0100
0000
1000
0000
,
0010
0000
0100
0000
,
0001
0000
1000
0000
,
1001
0000
0000
0000
,
0100
0100
0000
0010
,
1001
0000
0000
0000
;

//---------------dance-single - ----------------
#NOTES:
     dance-single:
     :
     Beginner:
     1:
     0.096,0.194,0.061,0.000,0.000:
1000
0000
0000
0000
,
1000
0000
0000
0000
,
0010
0000
0000
0000
,
0010
0000
0000
0000
,
1001
0000
0000
0000
,
0100
0000
0000
0000
,
0100
0000
0000
0000
,
0010
0000
0000
0000
,
0001
0000
0000
0000
,
0100
0000
0000
0000
,
0010
0000
0000
0000
,
1000
0000
0000
0000
,
0001
0000
0000
0000
,
0010
0000
0000
0000
,
0100
0000
0000
0000
,
1000
0000
0000
0000
,
1001
0000
0000
0000
,
0100
0000
0000
0000
,
0010
0000
0000
0000
,
0001
0000
0000
0000
,
0001
0000
0000
0000
,
0001
0000
0000
0000
,
0000
0000
0000
0000
,
0100
0000
0000
0000
,
0100
0000
0000
0000
,
0100
0000
0000
0000
,
0000
0000
0000
0000
,
0010
0000
0000
0000
,
0010
0000
0000
0000
,
0010
0000
0000
0000
,
0000
0000
0000
0000
,
1000
0000
0000
0000
,
1000
0000
0000
0000
,
1000
0000
0000
0000
,
1001
0000
0000
0000
,
0100
0000
0000
0000
,
0100
0000
0000
0000
,
0100
0000
0000
0000
,
0000
0000
0000
0000
,
0010
0000
0000
0000
,
0010
0000
0000
0000
,
0010
0000
0000
0000
,
0000
0000
0000
0000
,
0001
0000
0000
0000
,
0001
0000
0000
0000
,
0001
0000
0000
0000
,
0000
0000
0000
0000
,
1000
0000
0000
0000
,
1000
0000
0000
0000
,
1000
0000
0000
0000
,
1001
0000
0000
0000
,
0100
0000
0000
0000
,
0010
0000
0000
0000
,
0001
0000
0000
0000
,
0100
0000
0000
0000
,
0010
0000
0000
0000
,
1000
0000
0000
0000
,
0010
0000
0000
0000
,
0100
0000
0000
0000
,
0010
0000
0000
0000
,
1001
0000
0000
0000
,
0100
0000
0000
0000
,
0010
0000
0000
0000
,
0001
0000
0000
0000
,
0001
0000
0000
0000
,
1000
0000
0000
0000
,
1000
0000
0000
0000
,
0010
0000
0000
0000
,
0100
0000
0000
0000
,
0100
0000
0000
0000
,
0010
0000
0000
0000
,
0010
0000
0000
0000
,
1001
0000
0000
0000
,
0001
0000
1000
0000
,
1001
0000
0000
0000
;
