#TITLE:MAX 300 -from DANCE WARS MEGAMIX-;
#SUBTITLE:;
#ARTIST:Ω;
#TITLETRANSLIT:;
#SUBTITLETRANSLIT:;
#ARTISTTRANSLIT:OMEGA;
#GENRE:;
#CREDIT:;
#BANNER:[ROUND 5] - MAX 300 -from DANCE WARS MEGAMIX--bn.png;
#BACKGROUND:[ROUND 5] - MAX 300 -from DANCE WARS MEGAMIX--bg.png;
#LYRICSPATH:;
#CDTITLE:cdtitle.png;
#MUSIC:[ROUND 5] - MAX 300 -from DANCE WARS MEGAMIX-.ogg;
#OFFSET:-0.393;
#SAMPLESTART:34.431;
#SAMPLELENGTH:12.000;
#SELECTABLE:YES;
#DISPLAYBPM:300.000:302.000;
#BPMS:0.000=300.020
,56.000=304.000
,58.000=308.000
,60.000=312.000
,62.000=316.000
,64.000=317.838
,152.000=316.000
,154.000=314.000
,156.000=312.000
,158.000=310.000
,160.000=309.000
,162.000=308.000
,164.000=307.000
,166.000=306.000
,168.000=305.000
,170.000=303.000
,172.000=302.000
,174.000=301.000
,176.000=300.020
,212.000=304.000
,214.000=308.000
,216.000=310.000
,218.000=312.000
,220.000=314.000
,222.000=316.000
,224.000=317.838
,280.000=310.000
,280.500=300.000
,281.000=290.000
,281.500=280.000
,282.000=270.000
,282.500=260.000
,283.000=252.000
,283.500=244.000
,284.000=236.000
,284.500=228.000
,285.000=220.000
,285.500=212.146
,286.000=150.460
,287.000=131.341
,288.000=111.504
,289.000=91.716
,290.000=72.437
,291.000=53.980
,292.000=300.140
,353.000=302.000
,353.500=304.000
,354.000=306.000
,354.500=308.000
,355.000=310.000
,355.500=312.000
,356.000=314.000
,356.500=316.000
,357.000=317.838
,421.000=316.000
,421.500=314.000
,422.000=312.000
,422.500=310.000
,423.000=308.000
,423.500=306.000
,424.000=304.000
,424.500=302.000
,425.000=300.140
;
#STOPS:292.000=2.990
;
#BGCHANGES:;
#KEYSOUNDS:;
#ATTACKS:;

//---------------dance-single - ----------------
#NOTES:
     dance-single:
     :
     Hard:
     9:
     0.852,0.864,0.214,0.043,0.075,534.000,20.000,4.000,0.000,0.000,0.000,0.852,0.864,0.214,0.043,0.075,534.000,20.000,4.000,0.000,0.000,0.000: // measure 0
0000
0000
0000
0000
,  // measure 1
0000
0000
0000
0000
,  // measure 2
0000
0000
0000
0000
,  // measure 3
0000
0000
0000
0000
,  // measure 4
1000
0000
0010
0000
0100
0001
0000
0100
,  // measure 5
0001
0000
0010
0000
0100
1000
0000
0100
,  // measure 6
1000
0000
0010
0000
1000
0100
0000
1000
,  // measure 7
0100
1000
0001
0000
,  // measure 8
1000
0000
0100
0000
0010
0001
0000
0010
,  // measure 9
0001
0000
1000
0000
0010
1000
0000
0010
,  // measure 10
1000
0000
0001
0000
0010
0001
0000
0010
,  // measure 11
0001
1000
0010
1000
,  // measure 12
0001
0000
0100
0001
0100
0001
0100
0001
,  // measure 13
0100
0000
0010
1000
0010
1000
0010
1000
,  // measure 14
0010
1000
0001
0000
0010
0100
1000
0000
,  // measure 15
0010
0100
0001
1000
0100
0010
0001
1000
,  // measure 16
0010
1000
0001
1000
,  // measure 17
0100
0010
0001
0100
,  // measure 18
0001
0010
1000
0010
,  // measure 19
0001
1000
0010
0100
,  // measure 20
0001
0000
0010
0000
0001
0010
0000
0100
,  // measure 21
0010
0000
0100
0000
0010
0001
0000
1000
,  // measure 22
0001
0000
0100
0000
0001
0100
0000
0010
,  // measure 23
0100
0010
1000
0001
,  // measure 24
1000
0100
0010
0100
,  // measure 25
1000
0010
0100
0001
,  // measure 26
0010
0001
0100
0010
,  // measure 27
1000
0100
0001
0100
,  // measure 28
0010
0001
1000
0001
,  // measure 29
0100
0001
1000
0001
,  // measure 30
1000
0000
0000
1100
0000
0000
1001
0000
,  // measure 31
0001
0100
0010
0100
0001
0010
0100
1000
,  // measure 32
0100
1000
0010
1000
,  // measure 33
0001
0100
0010
0100
,  // measure 34
0001
0000
0010
0000
0100
1000
0001
1000
,  // measure 35
0100
1000
0010
1000
,  // measure 36
0001
0010
0100
0010
,  // measure 37
0001
1000
0010
0100
,  // measure 38
0010
0000
1000
0100
1000
0000
0001
1000
,  // measure 39
0001
1000
0010
1000
,  // measure 40
0100
0000
0010
0000
0001
0100
0010
0100
,  // measure 41
0001
1000
0001
0010
,  // measure 42
0100
0000
1000
0010
1000
0010
1000
0000
,  // measure 43
0010
0100
0110
0000
,  // measure 44
0010
1000
0010
0000
1000
0000
0100
0000
,  // measure 45
1000
0001
1000
0000
0001
0000
0100
0000
,  // measure 46
0001
0010
0001
0000
0010
0100
1000
0100
,  // measure 47
0010
0000
0001
0000
1000
0001
1000
0000
,  // measure 48
0001
0000
0100
0000
0010
1000
0010
0000
,  // measure 49
0100
0001
0100
0000
0010
0000
1000
0000
,  // measure 50
0001
0000
0010
0000
0100
1000
0001
0000
,  // measure 51
1000
0000
0010
0000
0100
0001
0010
0000
,  // measure 52
0001
0100
0010
0000
1000
0100
0010
0100
,  // measure 53
1000
0010
0100
0010
,  // measure 54
1000
0001
1001
0000
,  // measure 55
0110
0000
1001
0000
,  // measure 56
1000
0000
0100
1000
0000
0010
1000
0010
,  // measure 57
0100
0000
0010
0100
0000
0010
1000
0001
,  // measure 58
1000
0000
0001
0010
0000
0001
0100
0001
,  // measure 59
1000
1100
1001
0000
,  // measure 60
0001
0000
0100
0001
0000
0010
0001
1000
,  // measure 61
0001
0000
1000
0010
0000
1000
0100
1000
,  // measure 62
0010
0000
1000
0010
0000
1000
0001
0010
,  // measure 63
0001
0011
1001
0000
,  // measure 64
1000
0000
0001
0100
0000
0001
0010
1000
,  // measure 65
0010
0000
0100
0010
0000
0100
1000
0010
,  // measure 66
0100
0000
0001
0100
0000
0001
1000
0100
,  // measure 67
0010
1100
1001
0000
,  // measure 68
0101
0000
0001
0100
1000
0100
0010
0100
,  // measure 69
0001
0000
1000
0100
0001
0100
0010
0100
,  // measure 70
1000
0000
0100
0000
1000
0000
0010
0000
0100
0000
0010
0000
,  // measure 71
1000
0000
0001
0000
1000
0000
2002
0000
0000
0000
0000
0000
,  // measure 72
0000
0000
0000
0000
,  // measure 73
3003
0000
1000
0010
1000
0001
0100
0001
,  // measure 74
0010
0100
1000
0010
0100
0001
1000
0000
,  // measure 75
0100
0000
1100
0000
1000
0010
0100
0010
,  // measure 76
0100
0000
0001
0010
0100
0010
0100
0000
,  // measure 77
0010
0001
0100
1000
0100
0001
0100
0010
,  // measure 78
0100
0001
1000
0000
0001
0010
0001
1000
,  // measure 79
0100
0000
1000
0010
1000
0000
1010
0000
,  // measure 80
0010
0100
0001
1000
0100
0010
0100
0000
,  // measure 81
1000
0000
0001
0100
0001
0100
0001
0000
,  // measure 82
1000
0010
1000
0010
1000
0000
0001
0010
,  // measure 83
0001
0010
0001
0000
1000
0100
1000
0100
,  // measure 84
1000
0000
0010
0100
0010
1000
0001
0000
,  // measure 85
0100
0010
0100
0001
1000
0000
0001
0010
,  // measure 86
0100
0010
0001
0000
1000
0010
0100
0010
,  // measure 87
1000
0000
0010
0100
0001
1000
0100
0000
,  // measure 88
0010
0001
0100
0010
1000
0001
0010
0100
,  // measure 89
0010
0001
1000
0000
0010
1000
0000
1000
,  // measure 90
0001
0000
0010
0000
0100
0000
0000
0110
,  // measure 91
0000
0000
0010
0000
0001
0100
0000
0100
,  // measure 92
0010
0000
1000
0000
0001
0000
0000
1001
,  // measure 93
0000
0000
1000
0000
0010
0100
0000
0010
,  // measure 94
0100
0000
0010
0000
1000
0001
0000
1000
,  // measure 95
0001
0000
0010
0000
0100
1000
0000
0100
,  // measure 96
1000
0000
0001
0000
0100
0000
0000
0101
,  // measure 97
0000
0000
0001
0000
1000
0100
1000
0010
,  // measure 98
0100
0001
0010
0000
0001
1000
0001
0010
,  // measure 99
0100
1000
0010
0000
0100
0010
0100
0001
,  // measure 100
1000
0100
0010
0000
0100
1000
0001
1000
,  // measure 101
0010
0100
0001
0010
0100
1000
0010
0100
,  // measure 102
0001
1000
0100
0010
0100
1000
0010
0100
,  // measure 103
0001
0000
0000
1000
0000
0000
0100
0000
0000
0000
0100
0000
0000
0000
0100
0000
0000
0000
0000
0000
0000
0000
0000
0000
,  // measure 104
0000
0000
0000
0010
0000
0010
0000
0010
0000
0000
0000
0000
,  // measure 105
0000
0000
0000
0001
0000
0001
0000
0001
0000
1000
0000
1000
,  // measure 106
0000
1000
0000
2002
0000
0000
0000
0000
0000
0000
0000
0000
,  // measure 107
0000
0000
0000
0000
0000
0000
0000
3003
;

//---------------dance-single - ----------------
#NOTES:
     dance-single:
     :
     Medium:
     7:
     0.554,0.576,0.203,0.064,0.000,338.000,19.000,6.000,0.000,0.000,0.000,0.554,0.576,0.203,0.064,0.000,338.000,19.000,6.000,0.000,0.000,0.000:
0000
0000
0000
0000
,
0000
0000
0000
0000
,
0000
0000
0000
0000
,
0000
0000
0000
0000
,
1000
0000
0010
0000
0200
0000
0000
0300
,
0001
0000
1000
0000
0200
0000
0000
0300
,
0010
0001
1000
0010
,
1000
0001
0011
0000
,
1000
0100
1000
0001
,
1000
0010
0100
0001
,
0010
0100
0010
0001
,
1000
0010
0100
0000
,
0010
1000
1000
1000
,
1000
0001
0001
0001
,
0010
0100
0010
0000
0100
0010
0100
0000
,
0010
0001
1000
0010
,
1000
0100
1000
0000
,
0001
0010
0001
0000
,
0100
0001
0100
0000
,
0010
1000
0010
0100
,
0010
1000
0001
1000
,
0100
0010
0001
1000
,
0001
0100
0001
0010
,
0100
1000
0100
1000
,
0001
1000
0001
0000
,
1000
0001
1000
0000
,
0010
1000
0010
0000
,
0100
0001
0100
0010
,
1000
0100
1000
0100
,
0010
0001
0010
0001
,
1000
0000
1001
0000
,
0001
0100
0010
0100
,
0001
1000
0100
0000
,
1000
0001
0010
0000
,
0100
1000
0001
1000
,
0010
0100
0001
0000
,
1000
0100
0010
0000
,
0100
1000
0001
1000
,
0010
0000
1000
0000
,
0010
0000
1000
0000
,
0001
0000
1000
0000
,
0001
0000
1000
0000
,
0100
0010
0001
1000
,
0010
0100
0110
0000
,
1000
0010
1000
0001
,
0010
0001
1000
0010
,
0100
0001
1000
0100
,
0010
0100
1000
0001
,
0100
0001
1000
0100
,
0010
0001
1000
0001
,
0100
0010
0100
0001
,
1000
0001
0010
1000
,
0010
0100
1000
0010
,
1000
0100
1000
0001
,
1000
0010
1010
0000
,
0101
0000
1001
0000
,
1000
0010
1000
0000
,
0010
0100
0010
0000
,
0100
0001
0100
0000
,
0001
1000
1001
0000
,
0001
0010
0001
0000
,
0010
0100
0010
0000
,
0100
1000
0100
0000
,
1000
0001
1001
0000
,
1000
0010
0100
0000
,
0010
0100
0001
0000
,
1000
0100
0010
0000
,
0001
1000
1001
0000
,
0010
1000
0010
0000
,
0100
0001
0100
0000
,
0010
0000
1000
0000
,
0001
0000
2002
0000
,
0000
0000
0000
0000
,
3003
1000
0010
1000
,
0000
0001
0100
0001
,
1000
0001
0010
0100
,
0010
0100
1000
0100
,
1000
0010
0100
0010
,
1000
0001
1000
0100
,
1000
0001
0000
0101
,
0000
0100
0010
0100
,
0001
1000
1000
1000
,
0100
0100
0100
0010
,
0010
0010
0001
0001
,
0001
1000
1000
1000
,
0010
0010
0010
0100
,
0100
0100
0001
0001
,
0001
1000
1000
1000
,
0001
0010
0100
1000
,
0100
0010
0001
0010
,
0000
0001
0000
0101
,
0000
0100
0010
0100
,
0000
0010
0000
1010
,
0000
1000
0100
1000
,
0000
0001
0100
0001
,
0000
1000
0010
1000
,
0000
0010
0000
0110
,
0000
0100
0001
0100
,
0001
1000
0001
1000
,
0001
1000
0100
1000
,
0100
0010
0100
0010
,
0100
0010
0001
1000
,
0010
0100
0001
0010
,
0000
0011
0000
0000
,
0000
1100
0000
0000
,
0000
1010
0000
0101
,
0000
2002
0000
0000
,
0000
0000
0000
3003
;

//---------------dance-single - ----------------
#NOTES:
     dance-single:
     :
     Challenge:
     9:
     0.864,0.865,0.235,0.214,0.075,524.000,22.000,20.000,0.000,0.000,0.000,0.864,0.865,0.235,0.214,0.075,524.000,22.000,20.000,0.000,0.000,0.000:
0000
0000
0000
0000
,
0000
0000
0000
0000
,
0000
0000
0000
0000
,
0000
0000
0000
0000
,
1000
0000
0010
0100
0010
0100
0000
0010
,
0100
0000
0001
0000
0010
0001
0000
1000
,
0001
0000
1000
0010
1000
0010
0000
1000
,
0100
0010
0110
0000
,
0010
0000
0001
1000
0010
0100
0010
1000
,
0100
0000
0010
0001
1000
0010
0100
0010
,
1000
0000
0100
0010
0001
1000
0010
1000
,
0100
1000
1100
0000
,
1000
0000
0010
0100
0010
0100
0010
0100
,
0010
0000
1000
0010
1000
0010
1000
0010
,
1000
0100
1000
0000
0001
0010
0001
0000
,
1000
0010
0100
0001
1000
0100
0010
0001
,
0100
0000
0010
0000
0000
1000
0000
1000
,
0010
0000
0100
0000
0000
0001
0000
0001
,
1000
0000
0100
0000
0000
1000
0000
1000
,
0010
1000
0001
1000
,
0100
0000
0010
0000
0000
0001
0000
0001
,
0100
0000
0001
0000
0000
1000
0000
1000
,
0100
0000
0010
0000
0000
0100
0000
0100
,
1000
0010
1000
0001
,
0010
0000
0001
0000
0000
0010
0000
0010
,
0001
0000
0100
0000
0000
0010
0000
0010
,
1000
0000
0100
0000
0000
1000
0000
1000
,
0010
0100
0001
1000
,
0001
0000
0100
0000
0010
0100
0000
0100
,
0001
0000
1000
0000
0100
0010
0000
0010
,
0100
0000
0000
1100
0000
0000
0011
0000
,
1000
0010
0100
0001
1000
0100
0010
0100
,
1000
0010
1000
0001
,
0010
0100
1000
0010
,
1000
0000
0100
0000
0010
0001
0010
0100
,
0010
0001
1000
0010
,
1000
0001
0010
0100
,
1000
0000
0010
0000
0100
1000
0100
0010
,
0100
0001
1000
0001
,
0010
1000
0010
0001
,
1000
0000
0010
0000
1000
0100
0001
0100
,
1000
0010
1000
0100
,
0010
0000
0001
0100
1000
0100
0001
0000
,
0010
0100
0110
0000
,
0010
0001
0100
0010
,
1000
0001
0010
0001
,
1000
0000
0010
0000
1000
0100
0010
0100
,
1000
0010
0100
0001
,
0100
0001
1000
0100
,
0010
0000
0100
0000
1000
0010
0100
0010
,
1000
0001
0010
0100
,
0010
0001
1000
0010
,
0100
0000
0001
0000
0010
0100
1000
0100
,
0010
0001
1000
0010
,
1000
0100
0010
0000
,
0011
0000
2002
3003
,
1000
0000
0010
1000
0000
0001
0010
0001
,
0010
0000
0100
1000
0000
0010
1000
0010
,
1000
0000
0001
0010
0000
0100
1000
0100
,
1000
0001
1001
0000
,
1000
0000
0001
0100
0000
0001
1000
0001
,
1000
0000
0001
0010
0000
0001
0100
0001
,
0100
0000
0010
1000
0000
0001
0010
0001
,
0010
0100
0110
0000
,
0010
0000
0001
1000
0000
0010
1000
0100
,
1000
0000
0010
0100
0000
0001
0010
0001
,
0100
0000
0010
1000
0000
0001
1000
0010
,
1000
0001
1001
0000
,
1100
0000
1000
0100
0000
1000
0010
0000
,
0101
0000
0001
0100
0000
0001
0010
0000
,
0100
0000
0100
0000
0100
0000
1000
0000
1000
0000
1000
0000
,
0001
0000
0001
0000
0001
0000
2002
0000
0000
0000
0000
0000
,
0000
0000
0000
0000
,
3003
0000
1000
0100
0001
0100
0010
0100
,
0001
0100
1000
0010
0001
0010
0100
0010
,
1000
0000
1010
0000
1000
0100
1000
0100
,
1000
0000
0001
0010
0001
0010
0001
0000
,
1000
0010
1000
0001
1000
0100
0010
0001
,
1000
0010
0100
0000
0010
1000
0010
1000
,
0010
0000
1000
0001
1000
0000
1001
0000
,
0001
0100
0001
1000
0100
0010
0100
0000
,
1000
0000
0001
0100
0001
0100
0001
0000
,
0100
0010
0100
0010
0100
0000
0010
1000
,
0010
1000
0010
0000
1000
0100
1000
0100
,
1000
0000
0001
0010
0001
0100
0010
0000
,
1000
0100
1000
0010
0100
0000
0010
1000
,
0001
1000
0100
0000
0010
0001
1000
0001
,
0100
0000
0010
1000
0100
0010
0001
0000
,
1000
0010
0100
0001
1000
0100
1000
0010
,
0100
0001
1000
0000
0001
0010
0000
0001
,
0010
0000
0001
0000
0202
0303
0000
0202
,
0303
0000
0001
0000
1000
0100
0000
1000
,
0100
0000
1000
0000
2020
3030
0000
2020
,
3030
0000
1000
0000
0001
0100
0000
0001
,
0100
0000
0001
0000
1000
0010
0000
1000
,
0010
0000
0100
0000
0001
0010
0000
0100
,
1000
0000
0010
0000
0220
0330
0000
0220
,
0330
0000
1000
0000
0010
0100
0000
0010
,
1000
0010
0100
0000
0001
0100
0000
0001
,
0010
0001
0100
0000
0010
1000
0000
0001
,
1000
0010
1000
0000
0100
1000
0000
0001
,
1000
0100
1000
0000
0010
0100
0001
1000
,
0001
0010
0100
0000
0010
0001
1000
0010
,
0100
0000
0000
0010
0000
0000
1000
0000
0000
0000
0100
0000
0000
0000
2000
0000
0000
0000
0000
0000
0000
0000
0000
0000
,
0000
3000
0000
0001
0000
0100
0000
0002
0000
0000
0000
0000
,
0000
0000
0003
1000
0000
0010
0000
1000
0000
0001
0000
0100
,
0000
0001
0000
2002
0000
0000
0000
0000
0000
0000
0000
0000
,
0000
0000
0000
0000
0000
0000
0000
0000
0000
0000
0000
3003
;

//---------------dance-single - ----------------
#NOTES:
     dance-single:
     :
     Easy:
     4:
     0.266,0.345,0.085,0.075,0.000,159.000,8.000,7.000,0.000,0.000,0.000,0.266,0.345,0.085,0.075,0.000,159.000,8.000,7.000,0.000,0.000,0.000:
0000
0000
0000
0000
,
0000
0000
0000
0000
,
0000
0000
0000
0000
,
0000
0000
0000
0000
,
1000
0000
1000
0000
,
0001
0000
0001
0000
,
0100
0000
0100
0000
,
0010
0100
0010
0000
,
0100
0000
0010
0000
,
1000
0000
0001
0000
,
0010
0000
0100
0000
,
0010
0000
0001
0000
,
0200
0000
0000
0300
,
0020
0000
0000
0030
,
1000
0000
1000
0000
,
0001
0010
0001
0010
,
0001
0000
0001
0000
,
1000
0000
1000
0000
,
0001
0000
0001
0000
,
0100
0000
0010
0000
,
0100
0000
0100
0000
,
0010
0000
0010
0000
,
0100
0000
0100
0000
,
0001
0000
1000
0000
,
0001
0000
0010
0000
,
0001
0000
1000
0000
,
0010
0000
1000
0000
,
0010
0000
0100
0000
,
0002
0000
0000
0003
,
2000
0000
0000
3000
,
0001
0000
0001
0000
,
1000
0010
1000
0010
,
1000
0000
0000
0000
,
0001
0000
0000
0000
,
1000
0000
1000
0000
,
0001
0000
0000
0000
,
0010
0000
0000
0000
,
0001
0000
0010
0000
,
0010
0000
0001
0000
,
0001
0000
1000
0000
,
1000
0000
0010
0000
,
0010
0000
0100
0000
,
0100
0000
0001
1000
,
0001
0000
1001
0000
,
1000
0000
0000
0000
,
1000
0000
0000
0000
,
0001
0000
0000
0000
,
0001
0000
0000
0000
,
0100
0000
0000
0000
,
0100
0000
0100
0000
,
0010
0000
0000
0000
,
0010
0000
0000
0000
,
1000
0000
0000
0000
,
1000
0000
0100
0000
,
1000
0000
0100
0000
,
0010
0000
0001
0000
,
0010
0000
0000
0000
,
0010
0000
0000
0000
,
0001
0000
0000
0000
,
0001
0000
1000
0000
,
0001
0000
0000
0000
,
0001
0000
0000
0000
,
0100
0000
0000
0000
,
0100
0000
0010
0000
,
0100
0000
0000
0000
,
0100
0000
0000
0000
,
0010
0000
0000
0000
,
0010
0000
1000
0000
,
0010
0000
0000
0000
,
0010
0000
0000
0000
,
0100
0000
0100
0000
,
0100
0000
0200
0000
,
0000
0000
0000
0000
,
0300
0010
0000
0010
,
0000
1000
0000
1000
,
0000
0001
0000
1000
,
0000
0001
0000
1000
,
0000
0100
0000
0100
,
0000
0100
0000
0010
,
0000
0001
0000
1000
,
0000
0001
0000
0001
,
0000
1000
0000
0000
,
0000
1000
0000
0000
,
0000
0010
0000
0000
,
0000
0010
0000
0000
,
0000
0100
0000
0000
,
0000
0100
0000
0000
,
0000
0001
0000
0000
,
0000
0001
0000
0010
,
0000
0001
0000
0000
,
0000
1001
0000
0000
,
0000
1000
0000
0000
,
0000
1001
0000
0000
,
0000
0001
0000
0000
,
0000
0100
0000
0000
,
0000
0010
0000
0000
,
0000
1010
0000
0000
,
0000
1000
0000
0000
,
0000
1100
0000
0000
,
0000
0001
0000
0000
,
0000
0101
0000
0000
,
0000
1000
0000
0000
,
0000
1010
0000
0000
,
0000
0010
0000
0000
,
0000
0100
0000
0000
,
0000
0001
0000
1000
,
0000
2002
0000
0000
,
0000
0000
0000
3003
;
