#TITLE:Kaleidoscope;
#SUBTITLE:;
#ARTIST:桜龍;
#TITLETRANSLIT:;
#SUBTITLETRANSLIT:;
#ARTISTTRANSLIT:Sakuraryuu;
#GENRE:;
#CREDIT:;
#BANNER:[ROUND 5] - Kaleidoscope.png;
#BACKGROUND:[ROUND 5] - Kaleidoscope-bg.png;
#LYRICSPATH:;
#CDTITLE:cdtitle.png;
#MUSIC:[ROUND 5] - Kaleidoscope.mp3;
#OFFSET:-0.806;
#SAMPLESTART:21.460;
#SAMPLELENGTH:16.400;
#SELECTABLE:YES;
#BPMS:0.000=191.000
;
#STOPS:
;
#BGCHANGES:;
#KEYSOUNDS:;
#ATTACKS:;

//---------------dance-single - ----------------
#NOTES:
     dance-single:
     :
     Hard:
     9:
     0.625,0.628,0.272,0.708,0.000,350.000,28.000,73.000,0.000,0.000,0.000,0.625,0.628,0.272,0.708,0.000,350.000,28.000,73.000,0.000,0.000,0.000:
0000
0000
0000
0000
,
0000
0000
0000
0000
,
0000
0000
0000
0000
,
0000
0000
0000
0000
,
0000
0000
0000
0000
,
0000
0000
0000
0000
,
0000
0000
0000
0000
,
0000
0000
0000
0000
,
0020
0000
0000
0030
,
2000
3000
0002
0003
,
0020
0032
0023
0230
,
2300
3020
0230
0300
,
0020
0030
2000
3000
,
0200
0300
0002
0003
,
0020
2030
3200
0302
,
0023
0000
0000
0000
,
0030
0000
0100
0001
,
1000
0100
0001
0100
1000
0000
1000
0100
,
0001
0100
1000
0010
0001
0000
0010
1000
,
0100
0000
0010
0000
0001
0010
0100
1000
,
0100
0000
1000
0010
,
0001
0010
1000
0010
0001
0000
0001
0010
,
1000
1000
0100
0000
0010
0000
0000
0000
,
0001
0000
0101
0000
1001
0000
0010
0100
,
0001
0100
0010
1000
0100
0000
0001
0100
,
1000
0100
0001
0100
1000
0000
0001
0100
,
1000
0001
0010
0100
1000
0000
0100
0010
,
1000
0000
0010
0000
0001
0010
0100
1000
,
0100
0000
0001
1000
,
0001
0010
1000
0010
0001
0000
0001
0100
,
0010
0010
1000
0000
0001
0000
0000
0000
,
1000
0000
1010
0000
1001
0000
0001
0100
,
0010
1000
0100
0010
0002
0000
0203
0000
,
0310
1000
0100
0000
0010
0001
0010
0001
,
0100
0100
0010
0000
1001
0000
1000
0100
,
0010
0001
0100
0000
0010
1000
0010
1000
,
0100
0100
0001
0001
0100
0000
1000
0010
,
0100
0001
1000
0000
0001
0010
0100
1000
,
0100
0100
1000
0002
0000
0013
0001
1000
,
0100
0000
0011
0000
1100
0000
0001
0010
,
0100
0000
1010
0000
0101
0000
0001
0010
,
0100
0010
0001
0000
0100
0010
1000
0010
,
0100
0100
0001
0000
1100
0000
1000
0100
,
0001
0100
0010
0000
0001
0010
0100
1000
,
0010
0010
0001
0001
1000
0000
0100
0010
,
1000
0010
0001
0000
0010
1000
0100
0010
,
0001
0001
0100
0020
0000
1030
0100
0010
,
0001
0000
0110
0000
1100
0000
1000
0010
,
0100
0110
0101
0000
,
2010
0001
3010
0120
,
0001
1030
1100
1010
,
0210
0001
0310
0102
,
1000
0013
0110
1100
,
1020
0001
0130
0201
,
1000
0310
1010
0110
,
0201
0320
2030
3200
,
0310
0001
0100
0001
0100
0000
0110
0000
,
0100
0001
0010
0001
1000
0001
0010
0001
,
1000
0100
0001
0100
1000
0010
0001
0010
,
1000
0100
0010
0001
1000
0010
0100
0001
,
1000
0001
0100
0010
0001
0010
0100
0001
,
0010
0100
1000
0001
1000
0100
0010
0100
,
1000
0001
0010
1000
0010
0001
0100
1000
,
0100
0001
1000
0100
0001
0100
1000
0010
,
1000
0001
0010
0100
1000
0001
1000
0010
,
0200
0000
0000
0300
,
0002
0003
2000
3000
,
0200
2300
3200
0320
,
0032
0203
0320
0030
,
0200
0300
0002
0003
,
0020
0030
2000
3000
,
0200
0302
0023
2030
,
3200
0000
0302
2003
,
3020
0000
0000
0030
,
2000
3000
0002
0003
,
0020
0032
0023
0230
,
2300
3020
0230
0300
,
0020
0030
2000
3000
,
0200
0300
0002
0003
,
0020
2030
3200
0302
,
0023
0000
0000
0000
,
0030
0000
0000
0000
;

//---------------dance-single - ----------------
#NOTES:
     dance-single:
     :
     Medium:
     7:
     0.496,0.550,0.165,0.640,0.000,275.000,17.000,66.000,0.000,0.000,0.000,0.496,0.550,0.165,0.640,0.000,275.000,17.000,66.000,0.000,0.000,0.000:
0000
0000
0000
0000
,
0000
0000
0000
0000
,
0000
0000
0000
0000
,
0000
0000
0000
0000
,
0000
0000
0000
0000
,
0000
0000
0000
0000
,
0000
0000
0000
0000
,
0000
0000
0000
0000
,
0020
0000
0000
0030
,
2000
3000
0002
0003
,
0020
0032
0023
0230
,
2300
3020
0230
0300
,
0002
0003
0020
0030
,
0200
0300
2000
3000
,
0002
0023
0230
2300
,
3200
0000
0000
0000
,
0300
0000
1000
0001
,
1000
0100
1000
0100
1000
0000
0010
0000
,
0100
0001
0100
0001
0100
0000
0010
0100
,
0001
0010
0100
1000
,
0001
0000
0100
0010
,
0100
0010
0100
0010
0100
0000
0001
0000
,
1000
0001
1000
0000
1001
0000
0000
0000
,
1000
0000
0100
0000
0010
0000
0001
0010
,
0001
1000
0001
0100
0010
0000
1000
0000
,
0001
0100
0001
0100
0001
0000
1000
0000
,
0010
0100
0010
0100
0010
0000
1000
0001
,
0010
0100
1000
0001
,
0100
0000
0010
1000
,
0001
0010
0001
0010
0001
0000
0100
0000
,
0010
0100
0010
0000
0110
0000
0000
0000
,
1000
0000
0100
0000
0010
0000
0001
0010
,
0001
1000
0001
0100
0020
0000
0130
0000
,
1010
0000
0001
0000
0010
0001
0010
0000
,
0100
1000
0001
0100
,
0011
0000
1000
0000
0010
1000
0010
0000
,
0100
0001
0100
0001
0100
0000
0010
0000
,
0110
0000
0001
0000
1000
0100
1000
0000
,
0001
0100
0001
0200
0000
0000
0310
0000
,
1000
0101
1100
0001
,
0010
1100
0101
0100
,
1001
0000
0100
0000
0010
0100
0010
0000
,
1000
0100
1000
0000
1010
0000
0001
0000
,
0011
0000
0100
0000
0001
0100
0001
0000
,
1000
0100
1000
0100
1000
0000
0010
0000
,
0110
0000
0001
0000
1000
0100
1000
0000
,
0001
0010
0001
0020
0000
0000
0130
0000
,
1000
0011
1010
0100
,
0001
1010
0011
0000
,
2000
0100
0000
0001
,
0000
0010
0010
3010
,
0002
0010
0000
1000
,
0000
0100
0100
0100
,
0023
0001
0000
1000
,
0000
0100
0100
0100
,
0230
0010
0000
0001
,
0000
1000
1000
1300
,
0000
0001
0000
0010
0000
0001
0000
0010
,
0000
0100
0000
1000
0000
0010
0000
0100
,
0000
0001
0000
0100
0000
0001
0000
0010
,
0000
0100
0000
0100
0000
0100
0000
0100
,
0000
1000
0000
0010
0000
1000
0000
0010
,
0000
0100
0000
0001
0000
0010
0000
0100
,
0000
1000
0000
0100
0000
0010
0000
0001
,
0000
1000
0000
1000
0001
0000
0001
0000
,
0200
0000
0000
0300
,
0002
0003
2000
3000
,
0200
2300
3200
0320
,
0032
0203
0320
0030
,
2000
3000
0200
0300
,
0020
0030
0002
0003
,
2000
3200
0320
0032
,
0023
0000
0032
2003
,
3020
0000
0000
0030
,
2000
3000
0002
0003
,
0020
0032
0023
0230
,
2300
3020
0230
0300
,
0002
0003
0020
0030
,
0200
0300
2000
3000
,
0002
0023
0230
2300
,
3200
0000
0000
0000
,
0300
0000
0000
0000
;

//---------------dance-single - ----------------
#NOTES:
     dance-single:
     :
     Easy:
     5:
     0.389,0.471,0.184,0.427,0.000,218.000,19.000,44.000,0.000,0.000,0.000,0.389,0.471,0.184,0.427,0.000,218.000,19.000,44.000,0.000,0.000,0.000: // measure 0
0000
0000
0000
0000
,  // measure 1
0000
0000
0000
0000
,  // measure 2
0000
0000
0000
0000
,  // measure 3
0000
0000
0000
0000
,  // measure 4
0000
0000
0000
0000
,  // measure 5
0000
0000
0000
0000
,  // measure 6
0000
0000
0000
0000
,  // measure 7
0000
0000
0000
0000
,  // measure 8
0002
0000
0000
0003
,  // measure 9
2000
3000
0002
0003
,  // measure 10
0100
0001
0100
0000
,  // measure 11
0010
1000
0010
0000
,  // measure 12
2000
3000
0200
0300
,  // measure 13
0020
0030
0002
0003
,  // measure 14
1000
0001
1000
0001
,  // measure 15
2000
0000
0000
0000
,  // measure 16
3000
0000
0010
0010
,  // measure 17
0110
0100
0001
1000
,  // measure 18
1010
0010
0100
0100
,  // measure 19
0001
0010
0100
1000
,  // measure 20
0100
0000
1000
1000
,  // measure 21
1001
0001
0010
0001
,  // measure 22
0101
0100
0010
0000
,  // measure 23
1000
0100
0010
0001
,  // measure 24
0100
0100
0100
0010
,  // measure 25
0110
0100
0001
1000
,  // measure 26
1100
0100
1000
0010
,  // measure 27
0110
0100
0001
0010
,  // measure 28
0100
0000
1000
0001
,  // measure 29
0011
0001
0100
0010
,  // measure 30
1010
1000
0010
0000
,  // measure 31
1000
0100
0010
0001
,  // measure 32
0100
0100
0200
0300
,  // measure 33
1000
0001
0100
0001
,  // measure 34
0010
0100
1000
0000
,  // measure 35
0001
0010
0001
1000
,  // measure 36
0100
0010
0001
0000
,  // measure 37
0100
0001
0100
0010
,  // measure 38
1000
0001
0100
0000
,  // measure 39
0010
1000
0010
0100
,  // measure 40
0001
0010
0100
1000
,  // measure 41
1001
0001
0100
0010
,  // measure 42
1000
0100
0010
0000
,  // measure 43
0001
1000
0010
1000
,  // measure 44
0001
0010
0100
0000
,  // measure 45
1000
0001
0100
0001
,  // measure 46
1000
0010
0100
0100
,  // measure 47
0100
1001
0110
1000
,  // measure 48
0001
0110
1001
0000
,  // measure 49
2000
0000
3001
0110
,  // measure 50
0000
0001
0100
0100
,  // measure 51
0002
0000
1003
0110
,  // measure 52
0000
1000
0010
0010
,  // measure 53
0200
0000
0310
1001
,  // measure 54
0000
0100
0001
0001
,  // measure 55
0020
0000
0130
1001
,  // measure 56
0000
0010
1000
1001
,  // measure 57
2000
0000
3002
0000
,  // measure 58
0203
0000
0320
0000
,  // measure 59
2030
0000
3200
0000
,  // measure 60
0320
0000
0032
0000
,  // measure 61
0203
0000
0302
0000
,  // measure 62
2003
0000
3200
0320
,  // measure 63
0230
0320
0032
0000
,  // measure 64
0203
0000
0310
0010
,  // measure 65
2000
0000
0000
3000
,  // measure 66
0002
0003
2000
3000
,  // measure 67
0010
1000
0010
0000
,  // measure 68
0100
0001
0100
0000
,  // measure 69
0002
0003
0020
0030
,  // measure 70
0200
0300
2000
3000
,  // measure 71
0001
1000
0001
1000
,  // measure 72
0020
0000
0130
0100
,  // measure 73
0002
0000
0000
0003
,  // measure 74
1000
0000
0001
0000
,  // measure 75
0100
0001
0100
0000
,  // measure 76
0010
1000
0010
0000
,  // measure 77
2000
3000
0200
0300
,  // measure 78
0020
0030
0002
0003
,  // measure 79
1000
0001
1000
0001
,  // measure 80
2000
0000
0000
0000
,  // measure 81
3000
0000
0000
0000
;
