#TITLE:I Fink U Freeky;
#SUBTITLE:;
#ARTIST:Die Antwoord;
#TITLETRANSLIT:;
#SUBTITLETRANSLIT:;
#ARTISTTRANSLIT:;
#GENRE:;
#CREDIT:;
#BANNER:[ROUND 5] - I Fink U Freeky-bn.png;
#BACKGROUND:[ROUND 5] - I Fink U Freeky-bg.png;
#LYRICSPATH:;
#CDTITLE:cdtitle.png;
#MUSIC:[ROUND 5] - I Fink U Freeky.mp3;
#OFFSET:-0.525;
#SAMPLESTART:44.859;
#SAMPLELENGTH:15.000;
#SELECTABLE:YES;
#BPMS:0.000=130.000
;
#STOPS:
;
#BGCHANGES:;
#KEYSOUNDS:;
#ATTACKS:;

//---------------dance-single - ----------------
#NOTES:
     dance-single:
     :
     Hard:
     7:
     0.420,0.466,0.036,0.131,0.048,233.000,3.000,11.000,0.000,0.000,0.000,0.420,0.466,0.036,0.131,0.048,233.000,3.000,11.000,0.000,0.000,0.000:
0000
0000
0000
0000
,
0000
0000
0000
0000
,
0000
0000
0000
0000
,
0000
0000
0000
0000
,
1000
0000
0001
0000
1000
0010
0100
0010
,
1000
0000
0001
0000
0010
0100
0010
0001
,
0010
0000
0100
0000
1000
0001
0100
0001
,
1000
0000
0100
0000
2200
0000
0000
3300
,
0001
0000
0100
0000
0001
0010
0001
0000
,
1000
0000
0010
0000
1000
0100
1000
0000
,
0010
0000
0100
0000
0010
1000
0010
0000
,
0100
0000
0010
0000
0100
0001
0100
0010
,
1000
0000
0001
0000
0010
0100
0010
0000
,
0001
0000
1000
0000
0100
0010
0100
0000
,
1000
0000
0010
0000
0100
0001
0100
0000
,
0001
0000
0010
0000
0022
0000
0000
0033
,
1000
0010
0100
0010
1000
0001
0010
0001
,
0100
0010
1000
0100
0001
0100
1000
0010
,
0100
0001
1000
0100
1000
0001
0100
0000
,
0010
1000
0100
0010
0002
0000
0000
0003
,
1000
0010
0100
0000
0010
1000
0001
0000
,
0010
0100
1000
0000
0010
0100
0001
1000
,
0001
0010
0100
1000
0010
0100
0001
1000
,
0200
0000
0000
0000
0000
0000
0000
0300
,
0000
0010
0001
0010
0100
1000
0010
1000
,
0001
0100
0001
1000
0000
0000
0000
0000
,
0000
0001
0100
0010
1000
0010
0100
0001
,
1000
0100
1000
0010
0000
0000
0000
0000
,
0100
0001
0100
0010
1000
0001
1000
0100
,
0001
0100
0010
0001
0000
0000
0000
0000
,
1000
0001
0100
0001
0010
0100
1000
0010
,
0100
0010
1000
0200
0000
0000
0000
0300
,
0000
1000
0010
0001
0010
0100
0001
0100
,
0010
0000
0000
1000
0000
0000
0001
0000
0000
0010
0000
0000
0100
0000
1000
0000
0100
0000
0010
0000
0001
0000
0010
0000
,
0001
1000
0100
0001
0100
0010
0001
1000
,
0010
0001
0010
2000
0000
0001
0001
3001
,
1000
0100
1000
0010
0001
0010
1000
0100
,
0010
0000
0000
0100
0000
0000
1000
0000
0000
0001
0000
0000
1000
0000
0010
0000
1000
0000
0001
0000
0100
0000
0001
0000
,
0100
0001
1000
0100
0001
0100
0010
0001
,
1000
0001
0100
0020
0000
1000
1000
1030
,
0000
0001
0100
0001
1000
0100
1000
0001
,
0010
0100
1000
0001
0000
0000
0000
0000
,
0000
2002
0000
0000
0000
0000
0000
0000
,
0000
0000
3003
0000
;

//---------------dance-single - ----------------
#NOTES:
     dance-single:
     :
     Medium:
     5:
     0.339,0.337,0.083,0.095,0.000,184.000,7.000,8.000,0.000,0.000,0.000,0.339,0.337,0.083,0.095,0.000,184.000,7.000,8.000,0.000,0.000,0.000:
0000
0000
0000
0000
,
0000
0000
0000
0000
,
0000
0000
0000
0000
,
0000
0000
0000
0000
,
1000
0000
0010
0000
0100
0000
0010
1000
,
0001
0000
0010
0000
0100
1000
0100
0010
,
0001
0000
0100
0000
0010
0000
0100
0001
,
1000
0000
0010
0000
0220
0000
0000
0330
,
1000
0100
0010
0100
,
1000
0001
0100
0010
,
1000
0001
0010
0100
,
0010
0000
0001
0000
1000
0010
0100
0010
,
1000
0001
0010
0100
,
0010
0001
0100
1000
,
0100
0001
1000
0100
,
0010
0000
0001
0000
2000
0000
0000
3000
,
0010
1000
0010
0000
0100
0010
0100
0000
,
0001
0100
0001
0000
1000
0100
0010
0001
,
1000
0010
1000
0000
0001
0100
0001
0000
,
0010
0001
0010
0000
0001
0100
0010
1000
,
0100
0010
0001
0000
1000
0010
0100
0000
,
0001
0010
0100
0000
0010
0001
1000
0000
,
0010
0100
0001
0000
1000
0001
0100
0010
,
0200
0000
0000
0000
0000
0000
0000
0300
,
0010
0000
1000
0000
0001
0010
0001
0010
,
0001
1000
0010
1010
,
1000
0000
0100
0000
0010
0100
0010
0100
,
0010
0000
0001
0000
2000
0000
0000
3000
,
0010
0000
0100
0000
0001
1000
0001
1000
,
0001
0010
0100
1100
,
1000
0000
0001
0000
0100
0010
0100
0010
,
0100
0000
0001
0000
0020
0000
0000
0030
,
0001
0000
0100
0000
0010
1000
0010
1000
,
0001
0010
0100
0110
,
0010
0000
0001
0000
1000
0010
1000
0010
,
0100
0010
1000
1001
,
0001
0000
1000
0000
0001
0010
0001
0010
,
0100
1000
0010
0110
,
0100
0000
0001
0000
1000
0100
1000
0100
,
0010
0001
0100
0101
,
0000
0000
0001
0000
0100
0000
0010
1000
,
0100
0000
0010
0002
0000
0000
0000
0000
,
0000
2000
0000
0000
0000
0000
0000
0000
,
0000
0000
3003
0000
;

//---------------dance-single - ----------------
#NOTES:
     dance-single:
     :
     Easy:
     2:
     0.179,0.177,0.036,0.083,0.000,95.000,3.000,7.000,0.000,0.000,0.000,0.179,0.177,0.036,0.083,0.000,95.000,3.000,7.000,0.000,0.000,0.000: // measure 0
0000
0000
0000
0000
,  // measure 1
0000
0000
0000
0000
,  // measure 2
0000
0000
0000
0000
,  // measure 3
0000
0000
0000
0000
,  // measure 4
1000
0000
1000
0000
,  // measure 5
0001
0000
0001
0000
,  // measure 6
0100
0000
0100
0000
,  // measure 7
0010
0000
1010
0000
,  // measure 8
1000
0001
1000
0000
,  // measure 9
0001
0010
0001
0000
,  // measure 10
0010
0100
0010
0000
,  // measure 11
0100
1000
0100
0010
,  // measure 12
0001
0100
0001
0000
,  // measure 13
1000
0010
1000
0000
,  // measure 14
0001
0010
0001
0000
,  // measure 15
1000
0100
2000
3000
,  // measure 16
0001
0000
0001
0000
,  // measure 17
0100
0000
0100
0000
,  // measure 18
0010
0000
0010
0000
,  // measure 19
1000
0000
2002
3003
,  // measure 20
1000
0100
1000
0000
,  // measure 21
0010
0100
0010
0000
,  // measure 22
1000
0001
1000
0000
,  // measure 23
2002
0000
0000
3003
,  // measure 24
0001
0000
0001
0000
,  // measure 25
0100
0000
0100
0100
,  // measure 26
0010
0000
0010
0000
,  // measure 27
1000
0000
1000
1000
,  // measure 28
0001
0001
0001
0000
,  // measure 29
0010
0010
0010
0000
,  // measure 30
0100
0100
0100
0000
,  // measure 31
0010
0010
0001
0000
,  // measure 32
1000
0000
1000
0000
,  // measure 33
0010
0100
0010
0000
,  // measure 34
0100
0000
0100
0000
,  // measure 35
0001
0100
0001
0000
,  // measure 36
1000
0000
1000
0000
,  // measure 37
0001
0010
0001
0000
,  // measure 38
0010
0000
0010
0000
,  // measure 39
0001
1000
0001
0000
,  // measure 40
2000
0000
0000
0000
,  // measure 41
0000
0000
0000
0000
,  // measure 42
0002
0000
3003
0000
;
