#TITLE:The Club;
#SUBTITLE:;
#ARTIST:Renard;
#TITLETRANSLIT:;
#SUBTITLETRANSLIT:;
#ARTISTTRANSLIT:;
#CREDIT:;
#BANNER:[ROUND 4] - The Club.png;
#BACKGROUND:[ROUND 4] - The Club-bg.png;
#LYRICSPATH:;
#CDTITLE:;
#MUSIC:[ROUND 4] - The Club.ogg;
#OFFSET:-0.018;
#SAMPLESTART:16.895;
#SAMPLELENGTH:12.000;
#SELECTABLE:YES;
#BPMS:0.000=220.000;
#STOPS:;
#BGCHANGES:;

//---------------dance-single - ----------------
#NOTES:
     dance-single:
     :
     Hard:
     9:
     0.893,0.905,0.974,0.624,0.227: // measure 1
0000
0000
0000
0000
,  // measure 2
0000
0000
0000
0000
,  // measure 3
0000
0000
0000
0000
,  // measure 4
0000
0000
0000
0000
,  // measure 5
0000
0000
0000
0000
,  // measure 6
0000
0000
0000
0000
,  // measure 7
0000
0000
0000
0000
,  // measure 8
0000
0000
0000
0000
0000
0000
1000
0000
0100
0001
0000
0100
,  // measure 9
1000
0000
0000
1001
0000
0000
1000
0000
0010
0001
0000
0010
,  // measure 10
1000
0000
0000
1001
0000
0000
1000
0000
1000
0100
0000
0100
,  // measure 11
0010
0000
0010
0001
0000
0000
1000
0000
1000
0010
0000
0010
,  // measure 12
0100
0000
0100
0001
0000
0000
1000
0000
0010
0001
0000
0010
,  // measure 13
0100
0000
0000
1001
0000
0000
1000
0000
0100
0001
0000
0100
,  // measure 14
0010
0000
0000
1001
0000
1000
0100
0000
0001
0100
0000
1000
,  // measure 15
0002
0000
0000
1003
0000
0001
0100
0000
0100
0010
0000
0010
,  // measure 16
2000
0000
0000
3001
0000
0000
1000
0000
0100
0001
0000
0100
,  // measure 17
1100
1001
0101
1001
,  // measure 18
2010
0000
3001
0000
1000
0100
0001
0100
,  // measure 19
2000
0000
3001
0000
1000
0010
0001
0010
,  // measure 20
2000
0000
3001
0000
1000
0100
0001
0100
,  // measure 21
0110
0011
1001
0101
,  // measure 22
0012
0000
1003
0000
0001
0100
1000
0100
,  // measure 23
0020
0000
0130
0000
0001
0010
1000
0010
,  // measure 24
0200
0000
0310
0000
0001
0100
1000
0100
,  // measure 25
0101
0110
0101
1001
,  // measure 26
2100
0000
3001
0000
1000
0010
0001
0010
,  // measure 27
0200
0000
0301
0000
1000
0100
0001
0100
,  // measure 28
0020
0000
0130
0000
1000
0001
0100
1000
,  // measure 29
1100
0101
0110
1010
,  // measure 30
1002
0000
0103
0000
0001
0100
1000
0100
,  // measure 31
0002
0000
1003
0000
0001
0010
1000
0010
,  // measure 32
0002
0000
1003
0000
0001
0100
1000
0100
,  // measure 33
0110
1010
1001
0101
,  // measure 34
0220
0000
0330
0000
1000
0100
0001
0100
,  // measure 35
1001
0000
0110
0000
1000
0010
0001
0010
,  // measure 36
1000
0000
0000
0001
0000
0100
0020
0000
0000
0130
0000
0000
,  // measure 37
0101
1010
0011
1100
,  // measure 38
2002
0000
3003
0000
1000
0010
0001
0010
,  // measure 39
0110
0000
1001
0000
1000
0100
0001
0100
,  // measure 40
0010
0000
0000
0001
0000
0100
0020
0000
0000
1030
0000
0000
,  // measure 41
0101
0000
1010
0000
1000
0100
0000
0001
,  // measure 42
0100
0010
0001
0000
1000
0010
0000
0100
,  // measure 43
0101
0000
1010
0000
1000
0100
0000
0010
,  // measure 44
0001
0100
0000
0010
1000
0001
0000
1000
,  // measure 45
1010
0000
0101
0000
0001
0010
0000
0100
,  // measure 46
1000
0001
1000
0000
0001
0010
0000
0100
,  // measure 47
1100
0000
0011
0000
0001
0100
0000
0010
,  // measure 48
1000
0000
0000
0000
0000
0000
0000
1001
0000
0000
0000
0000
,  // measure 49
1100
0000
0101
0000
1000
0001
0101
0000
,  // measure 50
1010
0000
1000
0100
0001
0100
0010
0001
,  // measure 51
2001
0000
0000
3010
1000
0001
0101
0000
,  // measure 52
1002
0000
0103
0000
0001
0100
0010
1000
,  // measure 53
1001
0000
0101
0000
0001
0011
0000
1001
,  // measure 54
1000
0000
1100
0000
1000
0001
1000
0001
,  // measure 55
1001
0000
1010
0000
0010
0100
0001
0010
,  // measure 56
0110
0000
0100
1000
0001
0001
0001
0001
,  // measure 57
0011
0000
1010
0000
0001
1000
1010
0000
,  // measure 58
0101
0000
0001
0010
1000
0010
0100
1000
,  // measure 59
1002
0000
0000
0103
0001
1000
1010
0000
,  // measure 60
2001
0000
3010
0000
1000
0010
0100
0001
,  // measure 61
1001
0000
1010
0000
1000
1100
0000
1001
,  // measure 62
0001
0000
0011
0000
0001
1000
0001
1000
,  // measure 63
1001
0000
0101
0000
0100
0010
1000
0100
,  // measure 64
0110
0000
0000
0000
0000
0000
0010
0000
0000
0001
0000
0000
1000
0000
0000
0000
0100
0000
0001
0000
0000
0000
0100
0000
,  // measure 65
1000
0000
0000
1001
0000
0000
1000
0000
0010
0001
0000
0010
,  // measure 66
1000
0000
0000
1001
0000
0000
1000
0000
1000
0100
0000
0100
,  // measure 67
0010
0000
0010
0001
0000
0000
1000
0000
1000
0010
0000
0010
,  // measure 68
0100
0000
0100
0001
0000
0000
1000
0000
0010
0001
0000
0010
,  // measure 69
0100
0000
0000
1001
0000
0000
1000
0000
0100
0001
0000
0100
,  // measure 70
0010
0000
0000
1001
0000
1000
0100
0000
0001
0100
0000
1000
,  // measure 71
0002
0000
0000
1003
0000
0001
0100
0000
0100
0010
0000
0010
,  // measure 72
2000
0000
0000
3001
0000
0000
1000
0000
0100
0001
0000
0100
,  // measure 73
1100
1001
0101
1001
,  // measure 74
2010
0000
3001
0000
1000
0100
0001
0100
,  // measure 75
2000
0000
3001
0000
1000
0010
0001
0010
,  // measure 76
2000
0000
3001
0000
1000
0100
0001
0100
,  // measure 77
0110
0011
1001
0101
,  // measure 78
0012
0000
1003
0000
0001
0100
1000
0100
,  // measure 79
0020
0000
0130
0000
0001
0010
1000
0010
,  // measure 80
0200
0000
0310
0000
0001
0100
1000
0100
,  // measure 81
0101
0110
0101
1001
,  // measure 82
2100
0000
3001
0000
1000
0010
0001
0010
,  // measure 83
0200
0000
0301
0000
1000
0100
0001
0100
,  // measure 84
0020
0000
0130
0000
1000
0001
0100
1000
,  // measure 85
1100
0101
0110
1010
,  // measure 86
1002
0000
0103
0000
0001
0100
1000
0100
,  // measure 87
0002
0000
1003
0000
0001
0010
1000
0010
,  // measure 88
0002
0000
1003
0000
0001
0100
1000
0100
,  // measure 89
0120
2030
3002
0203
,  // measure 90
0320
0000
0030
0000
0200
0302
2003
3200
,  // measure 91
0320
0000
0030
0000
0002
0203
0320
2030
,  // measure 92
3002
0000
0000
1003
0000
1000
0200
0000
0000
0310
0000
0000
,  // measure 93
0002
0203
2300
3200
,  // measure 94
0302
0000
0003
0000
2000
3020
0032
0023
,  // measure 95
2030
0000
3000
0000
0001
0100
1000
0100
,  // measure 96
2002
0000
0000
3003
;

//---------------dance-single - ----------------
#NOTES:
     dance-single:
     :
     Easy:
     5:
     0.394,0.404,0.019,0.000,0.000: // measure 1
0000
0000
0000
0000
,  // measure 2
0000
0000
0000
0000
,  // measure 3
0000
0000
0000
0000
,  // measure 4
0000
0000
0000
0000
,  // measure 5
0000
0000
0000
0000
,  // measure 6
0000
0000
0000
0000
,  // measure 7
0000
0000
0000
0000
,  // measure 8
0000
0000
0000
0000
,  // measure 9
1000
1000
0000
0000
,  // measure 10
0001
0001
0000
0000
,  // measure 11
0100
0100
0000
0000
,  // measure 12
0010
0010
0000
0000
,  // measure 13
1000
0100
0000
0000
,  // measure 14
0010
0001
0000
0000
,  // measure 15
1000
0000
0001
0100
,  // measure 16
0010
0010
0010
0010
,  // measure 17
1000
0100
0010
0100
,  // measure 18
0001
0000
1000
0100
,  // measure 19
1000
0000
0001
0100
,  // measure 20
0001
1000
0010
1000
,  // measure 21
0001
0010
0100
0010
,  // measure 22
0001
0000
1000
0010
,  // measure 23
1000
0000
0001
0100
,  // measure 24
0001
1000
0100
0010
,  // measure 25
0001
0010
1000
0010
,  // measure 26
0001
0000
1000
0100
,  // measure 27
0001
0000
1000
0010
,  // measure 28
0001
0100
0010
1000
,  // measure 29
0001
0100
1000
0100
,  // measure 30
0001
0000
1000
0010
,  // measure 31
0001
0000
1000
0100
,  // measure 32
0001
1000
0010
0100
,  // measure 33
0001
0001
1000
1000
,  // measure 34
0010
0000
0100
0100
,  // measure 35
0100
0000
0001
0001
,  // measure 36
0001
0000
1000
1000
,  // measure 37
1000
0010
0100
0010
,  // measure 38
1000
0000
0100
0100
,  // measure 39
0100
0000
0010
0010
,  // measure 40
0010
0000
0001
0001
,  // measure 41
1000
0100
0001
0100
,  // measure 42
1000
0000
0001
0010
,  // measure 43
1000
0000
0001
0100
,  // measure 44
1000
0001
1000
1000
,  // measure 45
0001
0010
1000
0010
,  // measure 46
0001
0000
1000
0100
,  // measure 47
0001
0000
1000
0010
,  // measure 48
0001
0000
1001
0000
,  // measure 49
1000
1000
0100
0100
,  // measure 50
0010
0010
0001
0001
,  // measure 51
1000
1000
0010
0010
,  // measure 52
0100
0100
0001
0001
,  // measure 53
1000
1000
0100
0100
,  // measure 54
0001
0001
0100
0100
,  // measure 55
1000
1000
0010
0010
,  // measure 56
0001
0001
0010
0010
,  // measure 57
1000
1000
0100
0100
,  // measure 58
0010
0010
0001
0001
,  // measure 59
1000
1000
0010
0010
,  // measure 60
0100
0100
0001
0001
,  // measure 61
1000
1000
0100
0100
,  // measure 62
0001
0001
0100
0100
,  // measure 63
1000
1000
0010
0010
,  // measure 64
0001
0001
0010
0010
,  // measure 65
1000
1000
0000
0000
,  // measure 66
0001
0001
0000
0000
,  // measure 67
0100
0100
0000
0000
,  // measure 68
0010
0010
0000
0000
,  // measure 69
1000
0100
0000
0000
,  // measure 70
0010
0001
0000
0000
,  // measure 71
1000
0000
0001
0100
,  // measure 72
0010
0010
0010
0010
,  // measure 73
1000
0100
0010
0100
,  // measure 74
0001
0000
1000
0100
,  // measure 75
1000
0000
0001
0100
,  // measure 76
0001
1000
0010
1000
,  // measure 77
0001
0010
0100
0010
,  // measure 78
0001
0000
1000
0010
,  // measure 79
1000
0000
0001
0100
,  // measure 80
0001
1000
0100
0010
,  // measure 81
0001
0010
1000
0010
,  // measure 82
0001
0000
1000
0100
,  // measure 83
0001
0000
1000
0010
,  // measure 84
0001
0100
0010
1000
,  // measure 85
0001
0100
1000
0100
,  // measure 86
0001
0000
1000
0010
,  // measure 87
0001
0000
1000
0100
,  // measure 88
0001
1000
0010
0100
,  // measure 89
0001
0001
1000
1000
,  // measure 90
0010
0000
0100
0100
,  // measure 91
0100
0000
0001
0001
,  // measure 92
0001
0000
1000
1000
,  // measure 93
1000
0010
0100
0010
,  // measure 94
1000
0000
0100
0100
,  // measure 95
0100
0000
0010
0010
,  // measure 96
1001
0000
0000
0000
;

//---------------dance-single - ----------------
#NOTES:
     dance-single:
     :
     Medium:
     8:
     0.766,0.815,1.000,0.473,0.000: // measure 1
0000
0000
0000
0000
,  // measure 2
0000
0000
0000
0000
,  // measure 3
0000
0000
0000
0000
,  // measure 4
0000
0000
0000
0000
,  // measure 5
0000
0000
0000
0000
,  // measure 6
0000
0000
0000
0000
,  // measure 7
0000
0000
0000
0000
,  // measure 8
0000
0000
1000
0001
,  // measure 9
0101
0100
0001
1000
,  // measure 10
1100
1100
1000
0100
,  // measure 11
0010
0001
0010
0000
0001
0000
0100
0000
,  // measure 12
0010
1000
0010
0000
0100
0000
0001
0000
,  // measure 13
1001
1100
1000
0001
,  // measure 14
1001
0000
0101
0000
0001
0000
1000
0010
,  // measure 15
1000
0000
0001
0000
0010
0000
0001
0100
,  // measure 16
0001
0000
1000
0000
0010
0100
0010
0000
,  // measure 17
0110
0110
1010
1010
,  // measure 18
2001
0000
3100
0000
1000
0001
1000
0000
,  // measure 19
0002
0000
0013
0000
0001
1000
0001
0000
,  // measure 20
2000
0000
3100
0000
1000
0001
1000
0000
,  // measure 21
0101
0101
1010
1010
,  // measure 22
2001
0000
3100
0000
1000
0010
1000
0000
,  // measure 23
0002
0000
0013
0000
0001
0100
0001
0000
,  // measure 24
2000
0000
3100
0000
1000
0001
1000
0000
,  // measure 25
0011
0011
1100
1100
,  // measure 26
0102
0000
0013
0000
0001
0100
0001
0000
,  // measure 27
2000
0000
3010
0000
1000
0100
1000
0000
,  // measure 28
0002
0000
0013
0000
0001
1000
0001
0000
,  // measure 29
0101
1010
0011
1100
,  // measure 30
2001
0000
3100
0000
1000
0010
1000
0000
,  // measure 31
0002
0000
0013
0000
0001
0100
0001
0000
,  // measure 32
2000
0000
3100
0000
0010
0001
0010
0000
,  // measure 33
1200
0320
0032
2003
,  // measure 34
3020
0000
0030
0000
0100
0001
0100
0000
,  // measure 35
1001
0000
1001
0000
1000
0001
1000
0000
,  // measure 36
0200
0310
0002
1003
,  // measure 37
1200
0320
0032
2003
,  // measure 38
3020
0000
0030
0000
0100
0001
0100
0000
,  // measure 39
1001
0000
1001
0000
1000
0001
1000
0000
,  // measure 40
0200
0310
0002
1003
,  // measure 41
0101
0101
1001
1001
,  // measure 42
1100
1100
1001
1001
,  // measure 43
0011
0011
1001
1001
,  // measure 44
1010
1010
0110
0110
,  // measure 45
0101
0101
0011
0011
,  // measure 46
0110
0110
1100
1100
,  // measure 47
1001
1001
0101
0101
,  // measure 48
0110
0000
1001
0000
,  // measure 49
1010
0000
1010
0000
1000
0001
1000
0000
,  // measure 50
0011
0000
0001
1000
0001
0000
1000
0000
,  // measure 51
0101
0000
0000
0100
0010
0000
1000
0000
,  // measure 52
1001
0000
1000
0000
0100
0010
0100
0000
,  // measure 53
0110
0000
0110
0000
0010
0001
0000
0001
,  // measure 54
0010
0000
0110
0000
0110
0000
0100
1000
,  // measure 55
0100
0000
1100
0000
0100
0010
0100
0000
,  // measure 56
0110
0000
0010
0000
0001
1000
0001
0000
,  // measure 57
0101
0000
0101
0000
0001
1000
0001
0000
,  // measure 58
1100
0000
1000
0001
1000
0000
0001
0000
,  // measure 59
1010
0000
0000
0010
0100
0000
0001
0000
,  // measure 60
1001
0000
0001
0000
0010
0100
0010
0000
,  // measure 61
0110
0000
0110
0000
0100
1000
0000
1000
,  // measure 62
0100
0000
0110
0000
0110
0000
0010
0001
,  // measure 63
0010
0000
0011
0000
0010
0100
0010
0000
,  // measure 64
0110
0100
0001
1000
,  // measure 65
1010
0010
1000
0001
,  // measure 66
0011
0011
0001
0010
,  // measure 67
0100
1000
0100
0000
1000
0000
0010
0000
,  // measure 68
0100
0001
0100
0000
0010
0000
1000
0000
,  // measure 69
1001
0011
0001
1000
,  // measure 70
1001
0000
1010
0000
1000
0000
0001
0100
,  // measure 71
0001
0000
1000
0000
0100
0000
1000
0010
,  // measure 72
1000
0000
0001
0000
0100
0010
0100
0000
,  // measure 73
0110
0110
0101
0101
,  // measure 74
1002
0000
0013
0000
0001
1000
0001
0000
,  // measure 75
2000
0000
3100
0000
1000
0001
1000
0000
,  // measure 76
0002
0000
0013
0000
0001
1000
0001
0000
,  // measure 77
1010
1010
0101
0101
,  // measure 78
1002
0000
0013
0000
0001
0100
0001
0000
,  // measure 79
2000
0000
3100
0000
1000
0010
1000
0000
,  // measure 80
0002
0000
0013
0000
0001
1000
0001
0000
,  // measure 81
1100
1100
0011
0011
,  // measure 82
2010
0000
3100
0000
1000
0010
1000
0000
,  // measure 83
0002
0000
0103
0000
0001
0010
0001
0000
,  // measure 84
2000
0000
3100
0000
1000
0001
1000
0000
,  // measure 85
1010
0101
1100
0011
,  // measure 86
1002
0000
0013
0000
0001
0100
0001
0000
,  // measure 87
2000
0000
3100
0000
1000
0010
1000
0000
,  // measure 88
0002
0000
0013
0000
0100
1000
0100
0000
,  // measure 89
1001
0002
2003
3020
,  // measure 90
0230
0000
0300
0000
0010
1000
0001
0010
,  // measure 91
0100
0000
0000
0000
1000
0010
0100
0001
,  // measure 92
1000
0000
0001
0001
0020
0000
0130
0000
,  // measure 93
2000
3020
0032
0023
,  // measure 94
2030
0000
3000
0000
0001
0100
1000
0100
,  // measure 95
0001
0000
0000
0000
1000
0010
0001
0010
,  // measure 96
2002
0000
0000
3003
;
