#TITLE:SEB 4 U;
#SUBTITLE:;
#ARTIST:SEB ALL STARS;
#CREDIT:;
#MUSIC:[ROUND 4] - SEB 4 U.mp3;
#SELECTABLE:YES;
#BACKGROUND:[ROUND 4] - SEB 4 U-bg.png;
#BANNER:[ROUND 4] - SEB 4 U.png;
#CDTITLE:;
#OFFSET:-2.20839;
#SAMPLESTART:65.240;
#SAMPLELENGTH:17.220;
#BPMS:0=156;
#STOPS:;

//---------------dance-single - ----------------
#NOTES:
     dance-single:
     :
     Beginner:
     1:
     0.000,0.000,0.000,0.000,0.000:
0000
0000
0000
0000
,
0000
0000
0000
0000
,
0000
0000
0000
0000
,
0000
0000
0000
0000
,
0000
0000
0000
0000
,
0000
0000
0000
0000
,
0000
0000
0000
0000
,
0000
0000
0000
0000
,
1001
0000
0000
0000
,
0100
0000
0000
0000
,
0100
0000
0000
0000
,
0000
0000
0000
0000
,
0010
0000
0000
0100
,
0000
0000
0000
0000
,
0001
0000
1000
0000
,
0001
0000
1000
0000
,
0001
0000
0000
0000
,
0100
0000
0000
0000
,
0010
0000
0010
0000
,
1000
0000
0000
0000
,
0001
0000
0100
0000
,
0100
0000
0000
0000
,
0010
0000
0001
0000
,
0001
0000
0000
0000
,
1000
0000
0100
0000
,
1000
0000
0000
0000
,
0001
0000
0000
0000
,
0000
0100
0000
0100
,
0000
0001
0000
0000
,
1000
0000
0000
0000
,
0001
0000
0000
0000
,
0000
0010
0000
0010
,
0000
1000
0000
0000
,
0001
0000
0000
0000
,
0100
0000
0000
0000
,
0010
0000
1000
0000
,
0010
0000
1000
0000
,
0000
1000
0000
0100
,
0000
0010
0000
0001
,
0000
1000
0000
0000
,
0010
0010
0010
0000
,
1001
0000
0000
0000
,
0100
0000
0010
0000
,
0000
0001
0000
1000
,
0000
0100
0000
0000
,
0000
0001
0000
0010
,
0000
0100
0000
1000
,
0000
0001
0000
0001
,
0000
0100
0000
0000
,
1001
0000
0000
0000
,
0010
0000
0100
0000
,
0000
1000
0000
0001
,
0000
0010
0000
0000
,
0000
1000
0000
0100
,
0000
0010
0000
0001
,
0000
1000
0000
0001
,
0000
0000
0000
0000
,
0110
0000
0000
0000
,
1000
0000
1000
0000
,
0110
0000
0000
0000
,
0001
0000
1000
0000
,
1001
0000
0000
0000
,
0010
0000
0010
0000
,
0100
0000
0001
0000
,
1000
1000
0001
0001
,
0000
0000
0000
0000
,
0000
0000
0000
0000
,
0000
0000
0000
0000
;

//---------------dance-single - ----------------
#NOTES:
     dance-single:
     :
     Easy:
     3:
     0.000,0.000,0.000,0.000,0.000:
0000
0000
0000
0000
,
0000
0000
0000
0000
,
0000
0000
0000
0000
,
0000
0000
0000
0000
,
0000
0000
0000
0000
,
0000
0000
0000
0000
,
0000
0000
0000
0000
,
0000
0000
0000
0000
,
2002
0000
3003
0000
,
1100
0000
0000
0000
,
0011
0000
0000
0000
,
0000
0000
0000
0000
,
0110
0000
0100
0000
,
1001
0000
0001
0000
,
0020
0000
0000
0000
0000
0000
0230
0000
0000
0000
0000
0300
,
0020
0000
0000
0000
0000
0000
0000
0000
0000
0000
0000
0000
0000
0000
0000
0000
0000
0000
0000
0000
0000
0000
0000
0000
0000
0000
0000
0000
0000
0000
0000
0030
0200
0000
0000
0000
0000
0000
0000
0000
0000
0000
0000
0000
0000
0000
0000
0000
0300
0000
0000
0000
0000
0000
0000
0000
0000
0000
0000
0000
0000
0000
0000
0000
,
1001
0000
0000
0000
,
1000
0001
0010
0000
,
0100
0100
0100
0000
,
1000
0001
0100
0000
,
0001
0000
0010
1000
,
0001
1000
0100
0000
,
0010
0010
0010
0000
,
0001
1000
0010
0000
,
1000
0001
1000
0001
,
0200
0000
0000
0300
,
0020
0000
0000
0030
,
1000
0000
0001
0000
,
0100
0100
0100
0001
,
2000
0000
0000
3000
,
0002
0000
0000
0000
0000
0000
0000
0000
0000
0000
0000
0000
0000
0000
0000
0000
0000
0000
0000
0000
0000
0000
0000
0000
0000
0000
0000
0000
0000
0000
0000
0000
0000
0000
0000
0000
0000
0000
0000
0000
0000
0000
0000
0000
0000
0000
0000
0000
0000
0000
0000
0000
0000
0000
0000
0000
0000
0000
0000
0000
0000
0000
0000
0000
0000
0000
0000
0000
0000
0000
0000
0000
0000
0000
0000
0000
0000
0000
0000
0000
0000
0000
0000
0000
0000
0000
0000
0000
0000
0000
0000
0000
0000
0000
0000
0000
0000
0000
0000
0000
0000
0000
0000
0000
0000
0000
0000
0000
0000
0000
0000
0000
0000
0000
0000
0000
0000
0000
0000
0000
0000
0000
0000
0000
0000
0000
0000
0000
0000
0000
0000
0000
0000
0000
0000
0000
0000
0000
0000
0003
0000
0000
0000
0000
0000
0000
0000
0000
0000
0000
0000
0000
0000
0000
0000
0000
0000
0000
0000
0000
0000
0000
0000
0000
0000
0000
0000
0000
0000
0000
0000
0000
0000
0000
0000
0000
0000
0000
0000
0000
0000
0000
0000
0000
0000
0000
0000
0000
0000
0000
0000
0000
,
0100
0000
0010
0000
,
1000
1000
1000
0100
,
0020
0030
0002
0003
,
2000
3000
0000
0000
,
0001
1000
0001
0000
,
0100
0001
0010
0000
,
1001
0000
0200
0300
,
2000
3000
0020
0030
,
1000
0001
1000
0001
,
0010
0100
0010
0100
0000
0000
0000
0000
,
1001
0000
0100
0000
,
0001
0001
0001
0000
,
1000
0000
0010
0000
,
0100
0001
1000
0000
,
0001
0010
0100
0000
,
0000
1000
0010
0100
,
0000
0001
1000
0001
,
0100
0100
0100
0000
,
1001
0000
0010
0000
,
1000
1000
1000
0000
,
0001
0000
0100
0000
,
0010
1000
0001
0000
,
1000
0100
0010
0000
,
0000
0001
0100
0010
,
0000
0000
1000
0000
0001
0000
0000
0010
,
0000
0010
0000
0001
0000
1000
0000
0000
,
0001
1000
0100
0000
,
0010
0010
0010
0000
,
0001
1000
0010
0000
,
1000
0000
0100
0001
,
1000
0001
0010
0000
,
0100
0100
0100
0000
,
1000
0001
0100
0000
,
0001
0000
1000
0000
0001
0010
0100
1000
,
0000
0000
0000
0000
,
0000
0000
0000
0000
,
0000
0000
0000
0000
;

//---------------dance-single - ----------------
#NOTES:
     dance-single:
     :
     Medium:
     7:
     0.000,0.000,0.000,0.000,0.000:
0000
0000
0000
0000
,
0000
0000
0000
0000
,
0000
0000
0000
0000
,
0000
0000
0000
0000
,
0000
0000
0000
0000
,
0000
0000
0000
0000
,
0000
0000
0000
0000
,
0000
0000
0000
0000
,
2002
0000
0000
3003
,
0110
0000
0000
0000
,
1001
0000
0000
0000
0000
0000
0000
0001
,
0000
1000
0000
0001
0000
0000
0000
0000
,
0110
1000
0100
0010
,
1001
0100
0010
1000
,
0101
1000
0011
0100
,
1010
0001
1100
0010
,
2001
0000
0000
3000
,
0101
0000
1100
0000
0001
0010
1000
0000
,
0010
0001
1000
0000
1000
0001
0100
0000
,
0011
0000
1010
0000
0100
0100
0001
0000
,
1000
0100
1000
0001
0200
0000
0310
0000
,
1100
0000
0011
0000
0010
1000
0001
0000
,
0100
0010
1000
0000
0001
0010
1000
0000
,
0101
0000
1010
0000
0010
0001
1000
0000
,
0100
0010
0001
0000
1000
0001
1000
0001
,
0200
0302
2003
3200
,
0320
0000
0031
0100
0000
0010
1000
0100
,
0000
1000
0001
0010
0000
0001
1000
0100
,
0000
0000
0010
0000
0000
0010
0000
0000
0001
0000
0000
1000
0000
0000
0001
0000
,
0020
0000
0230
0000
2300
0000
3001
0200
,
0000
0000
0310
1000
0000
0001
0010
0100
,
0000
0010
1000
0100
0000
0010
0001
1000
,
0000
0000
0100
0000
0000
0100
0000
0000
1000
0000
0001
0000
1000
0000
0000
0000
,
0110
0000
1001
0000
0110
0000
0000
0010
,
0100
0001
0000
1001
0000
0000
0000
0000
,
0100
0001
1000
0000
0100
1000
0010
0000
,
0100
0001
0010
0000
0100
1000
0001
0000
,
1001
0010
0100
0010
,
2000
0000
0001
0002
0000
0000
3003
0000
,
1000
0100
0010
0001
0000
1000
0000
0001
,
0100
0010
1000
0002
0000
0000
0103
0000
,
1010
0011
1100
0101
,
1000
0010
1000
0020
0000
0000
1030
0000
,
0001
0100
0010
0100
0001
0000
2000
0000
,
3020
0000
0032
0000
0013
1000
0100
0000
,
0100
0000
1000
0010
0000
1001
0000
0000
,
0100
0000
0001
0010
0000
1001
0000
0000
,
0100
0000
0010
1000
0001
0000
0100
0001
,
1000
0100
0010
0001
,
0101
1100
0011
1010
,
0001
0100
0001
0200
0000
0000
0301
0000
,
1000
0010
0100
0010
1000
0000
0002
0000
,
0203
0000
2300
0000
3100
0001
0010
0000
,
0010
0000
0001
0100
0000
1001
0000
0000
,
0010
0000
1000
0100
0000
1001
0000
0000
,
0010
0000
0100
0001
1000
0000
0010
1000
,
0001
0100
0000
0110
0000
1001
0000
0000
,
1010
0000
0011
0000
1000
0100
0001
0000
,
0100
1000
0001
0000
0001
1000
0010
0000
,
1100
0000
0101
0000
0010
0010
1000
0000
,
0001
0010
0001
1000
0020
0000
0130
0000
,
0011
0000
1100
0000
0100
0001
1000
0000
,
0010
0100
0001
0000
1000
0100
0001
0000
,
1010
0000
0101
0000
0100
1000
0001
0000
,
0010
0100
1000
0000
0001
1000
0001
1000
,
0000
0000
0000
0000
,
0000
0000
0000
0000
,
0000
0000
0000
0000
;

//---------------dance-single - ----------------
#NOTES:
     dance-single:
     :
     Hard:
     9:
     0.000,0.000,0.000,0.000,0.000:
0000
0000
0000
0000
,
0000
0000
0000
0000
,
0000
0000
0000
0000
,
0000
0000
0000
0000
,
0000
0000
0000
0000
,
0000
0000
0000
0000
,
0000
0000
0000
0000
,
0000
0000
0000
0000
,
2002
0000
3003
0000
0000
0000
0000
1000
,
0001
1000
0001
1000
0001
0000
0100
0000
,
1001
0000
0000
0000
0000
0000
0000
0110
,
0000
1100
0000
0011
0000
0000
0000
0000
,
1001
0100
0100
0001
,
1010
0001
0001
1000
,
0101
0010
1100
0010
,
0101
1000
0011
1000
,
0220
0000
0000
0330
,
0011
0000
0000
0000
0101
0000
0000
0000
1000
0100
1000
0100
1000
0000
0000
0000
,
0001
0010
0100
0010
1000
0001
0100
1000
,
1010
0000
1100
0000
0001
0101
0101
0000
,
1000
0010
1000
0010
1000
0000
0001
0000
0010
0000
1100
0000
0010
0000
0101
0000
,
1100
0000
0000
0000
1010
0000
0000
0000
0001
0010
0001
0010
0001
0000
0000
0000
,
1000
0100
0010
0100
0001
1000
0010
0001
,
0101
0000
0011
0000
1000
1010
1010
0000
,
0001
0100
0001
0100
0001
0000
1000
0000
0100
0000
0011
0000
0100
0000
1010
0000
,
0001
0010
0100
0010
1000
0010
0100
1000
,
0002
0000
0103
0010
2000
0100
0001
0001
,
3010
0100
1000
0010
0001
0010
1000
0100
,
1000
0000
0001
0010
0000
0001
0100
0000
0010
1000
0000
0100
1000
0000
0001
0000
,
1000
0100
0010
0100
0001
0100
0010
0002
,
0000
0000
1003
0000
0010
0000
0100
0000
0001
0000
1000
0100
0000
1000
0010
0000
,
0001
0100
0010
0100
1000
0100
0001
0010
,
0001
0000
1000
0100
0000
1000
0010
0000
0100
0001
1000
0010
1000
0001
0010
0000
,
1001
0100
0001
1000
0100
1000
0001
0010
,
0010
0001
1000
0100
0010
0100
1000
0001
,
0100
0000
0010
0000
0001
0000
0020
0000
0100
0030
0000
0000
1000
0000
0100
0000
,
0001
0000
0010
0000
1000
0000
0020
0000
0100
0030
0000
0000
0100
0000
0100
0000
,
1001
0011
1100
0101
,
1010
0000
0001
0010
1000
0000
0010
0001
,
1000
0100
1000
0001
0010
0001
1000
0010
,
0001
1000
0100
1001
0000
0011
1100
0000
,
0011
0001
1001
1000
1100
0000
0001
0100
,
1100
0101
1001
0110
0010
2000
3001
0000
,
0100
0001
0010
0100
2000
0000
3001
0010
,
0002
0000
0100
0000
0103
0000
2000
0000
3010
0000
0001
0010
0000
0100
1000
0000
,
0001
0100
0100
1000
0001
0010
1000
0010
,
0001
1000
0100
0100
0001
0010
1000
0010
,
0001
1000
0100
1000
0002
0000
0103
1000
,
0000
1001
0000
0101
0000
1010
0001
0001
,
1100
1000
1001
0001
0011
0000
1000
0010
,
0011
1010
1001
0110
0100
0002
1003
0000
,
0010
1000
0100
0010
0002
0000
1003
0100
,
2000
0000
0010
0000
3010
0000
0002
0000
0103
0000
1000
0100
0000
0010
0001
0000
,
1000
0010
0010
0001
1000
0100
0001
0100
,
1000
0001
0010
0010
1000
0100
0001
0100
,
1000
0001
0010
0001
2000
0000
3010
0001
,
0000
0011
0000
1100
0000
1001
0000
0000
,
1100
0000
0001
0000
1010
0000
0000
0000
0001
0010
0001
0100
0001
0000
0000
0000
,
1000
0100
0010
0100
0001
1000
0010
0001
,
0101
1000
0011
0000
1000
1010
1010
0000
,
0001
0100
0001
0100
0001
1000
0100
1000
0001
0000
0011
0000
0100
0000
1010
0000
,
0011
0000
1000
0000
0101
0000
0000
0000
1000
0100
1000
0010
1000
0000
0000
0000
,
0001
0000
0010
0000
0100
0000
0010
0000
1000
0000
0001
0000
0100
1000
0001
0010
,
0100
1000
0110
0000
0001
0101
0101
0000
,
1000
0010
1000
0010
1000
0001
0100
0001
1000
0000
1100
0000
0110
0000
1001
0000
,
0000
0000
0000
0000
,
0000
0000
0000
0000
,
0000
0000
0000
0000
;
