#TITLE:Rolling in the Nexus;
#SUBTITLE:;
#ARTIST:nakinyko;
#TITLETRANSLIT:;
#SUBTITLETRANSLIT:;
#ARTISTTRANSLIT:;
#GENRE:;
#CREDIT:;
#BANNER:[ROUND 4] - Rolling in the Nexus.png;
#BACKGROUND:[ROUND 4] - Rolling in the Nexus-bg.png;
#LYRICSPATH:;
#CDTITLE:cdtitle.png;
#MUSIC:[ROUND 4] - Rolling in the Nexus.mp3;
#OFFSET:-0.057;
#SAMPLESTART:51.525;
#SAMPLELENGTH:19.541;
#SELECTABLE:YES;
#BPMS:0.000=109.000
;
#STOPS:
;
#BGCHANGES:;
#KEYSOUNDS:;
#ATTACKS:;

//---------------dance-single - ----------------
#NOTES:
     dance-single:
     :
     Hard:
     7:
     0.434,0.397,0.197,0.354,0.098,316.000,25.000,45.000,0.000,0.000,3.000,0.434,0.397,0.197,0.354,0.098,316.000,25.000,45.000,0.000,0.000,3.000: // measure 0
0000
0000
0000
0000
,  // measure 1
0000
0000
0000
0000
,  // measure 2
0000
0000
0000
0000
,  // measure 3
0000
0000
0000
0000
,  // measure 4
1000
0001
0011
0000
0001
0100
0110
0000
,  // measure 5
0010
1000
0100
0001
0100
1000
1100
0000
,  // measure 6
0010
0011
0001
0101
,  // measure 7
0100
0000
0000
0000
0010
0000
0000
0000
0100
0010
0000
1000
0000
0100
0010
0100
,  // measure 8
0010
0001
0010
0001
0100
0001
0100
0001
,  // measure 9
1000
0010
0100
0001
1000
0000
1001
0000
,  // measure 10
0001
0011
0100
1100
,  // measure 11
0010
0000
0000
0000
0100
0000
0000
0000
0010
1000
0000
0100
0000
0010
0000
0001
,  // measure 12
1000
1010
0001
1001
,  // measure 13
0001
0010
0100
0000
0010
0000
0110
0000
,  // measure 14
0001
0000
0100
0000
0010
0100
0010
0000
,  // measure 15
1000
0000
0000
0000
0001
0000
0000
0000
0010
0001
0000
0100
0000
0010
0000
1000
,  // measure 16
0002
0203
0320
2030
,  // measure 17
3100
1000
0100
0000
2000
0000
0000
0000
3020
0000
0000
0000
0230
0000
0000
0000
,  // measure 18
0301
0100
0001
0000
0200
0000
0000
0000
0320
0000
0000
0000
2030
0000
0000
0000
,  // measure 19
3002
0000
0023
0000
0031
1000
0001
0000
,  // measure 20
2002
3003
2000
3020
,  // measure 21
0130
0010
0100
0000
0020
0000
0000
0000
2030
0000
0000
0000
3200
0000
0000
0000
,  // measure 22
0310
0100
0010
0000
0200
0000
0000
0000
0320
0000
0000
0000
0032
0000
0000
0000
,  // measure 23
0103
0000
0001
0000
0100
0000
0010
0000
1000
0001
0000
0000
0010
0000
0001
1000
,  // measure 24
0001
0101
0010
1010
,  // measure 25
0100
0010
0100
0000
0010
0001
0010
0000
,  // measure 26
0001
0100
0010
1000
,  // measure 27
0010
0100
0010
0100
0001
1000
0001
1000
,  // measure 28
0002
2003
3200
0302
,  // measure 29
0203
2300
3020
0230
,  // measure 30
0302
0203
0302
0203
,  // measure 31
0320
2030
3020
2030
,  // measure 32
3100
0010
0011
0001
0100
0000
0110
0000
,  // measure 33
0010
1000
0010
0001
0010
0000
1010
0000
,  // measure 34
1000
0100
0110
0010
0001
0000
0101
0000
,  // measure 35
0100
0000
0010
0000
0100
0001
0000
1000
0000
0100
0000
0000
1000
0001
1000
0001
,  // measure 36
1000
0001
1001
1000
0010
0000
1010
0000
,  // measure 37
1000
0001
0101
0100
0010
0000
0110
0000
,  // measure 38
1000
0100
1100
1000
0001
0000
0011
0000
,  // measure 39
0001
0000
0010
0000
1000
0000
0010
0000
0100
1000
0000
0000
0001
0000
1000
0001
,  // measure 40
0100
0001
0100
0001
0100
0001
0100
0001
,  // measure 41
1000
0001
1000
0001
1000
0100
0001
0010
,  // measure 42
1000
0100
1000
0100
1000
0100
1000
0100
,  // measure 43
0010
0100
0010
0100
0010
0001
0100
1000
,  // measure 44
0010
0001
0010
0001
0010
0001
0010
0001
,  // measure 45
1000
0001
1000
0001
1000
0001
1000
0001
,  // measure 46
0010
0001
0010
0001
0010
0001
0010
0001
,  // measure 47
1000
0001
1000
0001
0100
0001
0100
0001
,  // measure 48
0100
0010
0200
0000
0004
0000
0000
0303
,  // measure 49
0010
0100
2000
0000
0040
0000
0000
3030
,  // measure 50
1000
0100
0020
0000
0400
0000
0000
0330
,  // measure 51
1000
0100
0020
0000
0031
0001
2000
0000
,  // measure 52
3002
0100
1000
0013
,  // measure 53
0200
0010
1000
0301
,  // measure 54
1000
0100
1000
0100
1000
0001
1000
0001
,  // measure 55
0100
0001
0100
0010
0001
0010
1000
0100
,  // measure 56
0010
0000
0000
0000
;

//---------------dance-single - ----------------
#NOTES:
     dance-single:
     :
     Medium:
     5:
     0.336,0.353,0.260,0.181,0.000,243.000,33.000,23.000,0.000,0.000,0.000,0.336,0.353,0.260,0.181,0.000,243.000,33.000,23.000,0.000,0.000,0.000:
0000
0000
0000
0000
,
0000
0000
0000
0000
,
0000
0000
0000
0000
,
0000
0000
0000
0000
,
1000
0010
0100
0110
,
0001
0010
0100
1100
,
1010
1010
0011
0011
,
0101
0110
2020
3030
,
1000
0010
1000
0000
0001
1000
0001
0000
,
0010
0001
0100
0110
,
1000
0100
1000
0000
0001
0100
0001
0000
,
1000
0010
0100
0011
,
0010
0001
0010
0000
0100
0010
0100
0000
,
1000
0100
1000
0100
1000
0010
1000
0000
,
0010
0100
0010
0000
0100
0001
0100
0000
,
0001
0010
0001
0010
0001
1000
0001
0000
,
1002
1000
0100
1003
,
1020
0100
0001
0130
,
1200
0001
1000
0310
,
0012
0100
0010
1003
,
1020
0130
0012
0103
,
2100
0001
0100
3010
,
0120
1000
0001
0130
,
0001
0010
0100
1000
0010
0000
0100
0000
,
0001
0010
0001
0000
0010
0000
0001
0000
,
0100
0001
0100
0000
0001
0000
0100
0000
,
0010
0100
0010
0000
0100
0000
0010
0000
,
1000
0010
1000
0000
0010
0000
1000
0000
,
0100
1000
0100
1000
,
0100
0010
0100
0010
,
0001
0010
0100
0010
,
1000
0010
0001
1001
,
0002
0100
0103
0001
2000
0000
3100
0000
,
0020
0001
0031
0010
0200
0000
0310
0000
,
0200
1000
1300
0100
2000
0000
3001
0000
,
0200
0001
0301
0100
0002
0000
1003
0000
,
0001
0100
0010
0000
0100
0000
0001
0000
,
1000
0100
1000
0000
0010
0000
0100
0000
,
0001
1000
0100
0000
0010
0000
1000
0000
,
0010
0001
0100
0000
0010
0000
1000
0001
,
0200
0010
1000
0302
,
0010
1000
0100
2003
,
0100
0010
0100
3002
,
0100
0010
0203
0301
,
0100
0010
1000
1010
,
0100
0010
0001
0101
,
0001
0010
0001
0000
0010
0000
0110
0000
,
0100
1000
0100
0000
1000
0000
1010
0000
,
1000
0010
0100
1000
,
0100
0001
0100
1000
,
0010
0001
0100
0001
,
0010
0100
0001
0010
,
1000
0100
0010
0110
,
0100
0010
0001
1001
,
1010
1010
0110
0110
,
0101
0101
0001
1000
,
1001
0000
0000
0000
;

//---------------dance-single - ----------------
#NOTES:
     dance-single:
     :
     Easy:
     3:
     0.216,0.286,0.008,0.126,0.000,175.000,1.000,16.000,0.000,0.000,0.000,0.216,0.286,0.008,0.126,0.000,175.000,1.000,16.000,0.000,0.000,0.000:
0000
0000
0000
0000
,
0000
0000
0000
0000
,
0000
0000
0000
0000
,
0000
0000
0000
0000
,
0001
0000
0010
0000
,
0100
0100
0100
0000
,
1000
0000
0010
0000
,
0100
0100
0100
0000
,
0001
0010
0001
0100
,
0001
1000
0001
0000
,
1000
0010
1000
0100
,
1000
0001
1000
0000
,
0001
0100
0001
0010
,
0100
0001
0100
1000
,
0010
0020
0100
0230
,
0001
0302
1000
1003
,
0001
0000
0100
0000
,
0010
0100
0010
0000
,
1000
0010
1000
0000
,
0001
0010
0001
0000
,
1000
0100
1000
0000
,
0001
1000
0001
0000
,
0010
0100
0010
0000
,
0001
0001
1000
1001
,
1000
1000
0001
0001
,
0100
0100
0010
0000
,
0010
0010
1000
1000
,
0100
0100
0010
0000
,
0001
0001
1000
1000
,
0010
0000
0010
0000
,
0010
0010
0100
0100
,
0001
0000
0001
0000
,
1000
0010
1000
0001
,
0010
0001
0010
0100
,
1000
0100
1000
0010
,
0100
0010
0100
0001
,
0100
0200
0010
0320
,
1000
2030
0001
3002
,
0010
0023
0100
0230
,
2300
3020
0230
0301
,
2000
0000
0010
0000
,
0010
0000
0010
3010
,
0020
0000
0100
0000
,
0100
0000
0100
0130
,
0200
0000
0001
0000
,
0001
0000
0001
0301
,
0002
0000
0010
0000
,
0010
0000
0010
0013
,
0100
1000
0100
1000
,
0010
1000
0010
1000
,
0001
0100
0001
0100
,
0010
0100
0010
0100
,
0001
1000
0100
0001
,
0100
1000
0010
0001
,
0010
0010
0100
0100
,
0001
0001
1000
0001
,
0100
0000
0000
0000
;

//---------------dance-single - ----------------
#NOTES:
     dance-single:
     :
     Beginner:
     1:
     0.100,0.110,0.000,0.000,0.000,89.000,0.000,0.000,0.000,0.000,0.000,0.100,0.110,0.000,0.000,0.000,89.000,0.000,0.000,0.000,0.000,0.000:
0000
0000
0000
0000
,
0000
0000
0000
0000
,
0000
0000
0000
0000
,
0000
0000
0000
0000
,
0010
0000
0000
0000
,
0010
0000
0010
0000
,
0100
0000
0000
0000
,
0100
0000
0100
0000
,
0001
0000
0001
0000
,
0001
0001
0001
0000
,
1000
0000
1000
0000
,
1000
1000
1000
0000
,
0100
0000
0100
0000
,
0010
0000
0010
0000
,
0001
0000
0001
0000
,
0100
0000
0100
0000
,
0010
0000
0000
0000
,
1000
0000
0000
0000
,
0100
0000
0000
0000
,
1000
0000
0000
0000
,
0001
0000
0000
0000
,
0010
0000
0000
0000
,
0001
0000
0000
0000
,
0100
0000
0010
0000
,
0100
0000
0000
0000
,
0001
0000
1000
0000
,
0001
0000
0000
0000
,
0010
0000
0100
0000
,
0010
0000
0000
0000
,
0100
0000
1000
0000
,
0010
0000
0010
0000
,
0100
0000
0100
0000
,
0001
0001
0000
0000
,
0100
0100
0000
0000
,
0010
0010
0000
0000
,
1000
1000
0000
0000
,
0100
0100
0000
0000
,
0010
0010
0000
0000
,
0001
0001
0000
0000
,
1000
1000
1000
0000
,
0001
0000
0010
0000
,
0100
0000
0001
0000
,
0100
0000
1000
0000
,
0001
0000
1000
0000
,
0010
0000
0000
0000
,
0100
0000
0000
0000
,
0001
0000
0010
0000
,
0100
0000
1000
0000
,
0001
0000
0000
0000
,
1000
0000
0000
0000
,
0100
0000
0000
0000
,
0010
0000
0100
0000
,
0010
0000
0000
0000
,
0001
0000
0000
0000
,
1000
0000
0010
0000
,
0100
0000
0001
0000
,
0010
0000
0000
0000
;
