#VERSION:0.81;
#TITLE:Queen of Rose (Rachel's Theme Song);
#SUBTITLE:;
#ARTIST:石渡太輔;
#TITLETRANSLIT:;
#SUBTITLETRANSLIT:;
#ARTISTTRANSLIT:Daisuke Ishiwatari;
#GENRE:;
#ORIGIN:;
#CREDIT:;
#BANNER:[ROUND 4] - Queen of Rose (Rachel's Theme Song)-bn.png;
#BACKGROUND:[ROUND 4] - Queen of Rose (Rachel's Theme Song)-bg.png;
#PREVIEWVID:;
#JACKET:[ROUND 4] - Queen of Rose (Rachel's Theme Song)-jacket.png;
#CDIMAGE:;
#DISCIMAGE:;
#LYRICSPATH:;
#CDTITLE:cdtitle.png;
#MUSIC:[ROUND 4] - Queen of Rose (Rachel's Theme Song).ogg;
#OFFSET:-0.823;
#SAMPLESTART:57.090;
#SAMPLELENGTH:12.000;
#SELECTABLE:YES;
#BPMS:0.000=145.000;
#STOPS:;
#DELAYS:;
#WARPS:;
#TIMESIGNATURES:0.000=4=4;
#TICKCOUNTS:0.000=4;
#COMBOS:0.000=1;
#SPEEDS:0.000=1.000=0.000=0;
#SCROLLS:0.000=1.000;
#FAKES:;
#LABELS:0.000=Song Start;
#BGCHANGES:;
#KEYSOUNDS:;
#ATTACKS:
;

//---------------dance-single - ----------------
#NOTEDATA:;
#CHARTNAME:;
#STEPSTYPE:dance-single;
#DESCRIPTION:;
#CHARTSTYLE:;
#DIFFICULTY:Challenge;
#METER:10;
#RADARVALUES:0.883,0.974,0.092,0.408,0.971,682.000,11.000,49.000,0.000,0.000,0.000,0.000,0.000,0.883,0.974,0.092,0.408,0.971,682.000,11.000,49.000,0.000,0.000,0.000,0.000,0.000;
#CREDIT:;
#NOTES:
// measure 0
0000
0000
0000
0000
,  // measure 1
0000
0000
0000
0000
,  // measure 2
0000
0000
0000
0000
,  // measure 3
0000
0000
0000
0000
,  // measure 4
0000
0000
0000
0000
,  // measure 5
0000
0000
0000
0000
,  // measure 6
1000
0100
1000
0010
0100
0010
1000
0100
0010
0001
0100
0010
,  // measure 7
1000
0100
1000
0001
0100
0001
0010
0100
1000
0010
0100
0001
,  // measure 8
0020
0030
0200
0300
2000
3000
0002
0003
,  // measure 9
2002
3003
2020
3030
0220
0330
0202
0303
,  // measure 10
1001
0000
0000
0000
1000
0000
0100
0000
1000
0000
0000
0000
0001
0010
0100
1000
,  // measure 11
0100
0000
0010
0000
0001
0000
1000
0000
0001
0000
0100
0001
0000
1000
0100
1000
,  // measure 12
0010
0000
0000
0000
1000
0000
0100
0000
1000
0000
0010
0100
0001
0000
1000
0100
,  // measure 13
0010
0000
0000
0000
0001
0100
0001
1000
0100
0000
0010
0000
0100
0000
0000
0000
,  // measure 14
1100
0000
0000
0000
0100
0000
1000
0000
0001
0000
0000
0000
0100
0001
0100
0010
,  // measure 15
1000
0000
0001
0000
1000
0000
0100
0000
0010
0000
0100
1000
0000
0001
0100
1000
,  // measure 16
0100
0000
0010
0000
0100
0001
0100
0010
,  // measure 17
1000
0000
0100
0000
0010
0000
0001
0000
1000
0010
1000
0010
0200
0000
0000
0300
,  // measure 18
0010
0000
1000
0000
0001
0000
1000
0000
0100
0000
0010
0001
0010
0000
0100
0000
,  // measure 19
1000
0000
0010
0000
1000
0000
0001
0000
0010
0000
0001
0100
0001
0000
1000
0000
,  // measure 20
0100
0000
0010
0000
0100
0000
1000
0000
0001
0000
0100
0010
0100
0000
0001
0000
,  // measure 21
0010
0000
0100
0000
1000
0000
0001
0000
1000
0000
0010
1000
0010
0100
0001
1000
,  // measure 22
0001
0000
1000
0000
0001
0000
0010
0000
0001
0000
0100
0010
0100
0000
0001
0000
,  // measure 23
1000
0000
0100
0000
1000
0000
0001
0000
0100
0000
0010
0100
0010
0000
1000
0000
,  // measure 24
0100
0000
0010
0000
0001
0000
1000
0000
0010
0000
1000
0100
1000
0000
0001
0000
,  // measure 25
0100
0000
0001
0000
1000
0000
0001
0000
0010
0000
0100
1000
0100
0000
0010
0000
,  // measure 26
0001
0000
1000
0000
0001
0000
1000
0100
1000
0000
0001
0000
1000
0010
1000
0000
,  // measure 27
0001
0000
1000
0000
0001
0000
0010
0100
0010
0000
0001
0000
0100
0010
0100
0000
,  // measure 28
0010
0000
1000
0000
0010
0000
1000
0100
1000
0000
0010
0000
0100
0001
0100
0000
,  // measure 29
0001
0000
1000
0000
0100
0000
1000
0010
1000
0000
0001
0000
0010
0001
0010
0000
,  // measure 30
0100
1000
0100
0010
0001
0010
0001
0100
0001
1000
0010
1000
,  // measure 31
0001
0010
0200
0300
1000
0100
0010
0001
,  // measure 32
0020
0000
0030
0010
0200
0000
0300
0100
2000
0000
3000
1000
0002
0000
0003
0000
,  // measure 33
2020
3030
0220
0330
0202
0303
2002
3003
,  // measure 34
1000
0000
0010
0100
0010
0000
0100
0000
0001
0000
0000
0000
1000
0100
0001
0100
,  // measure 35
1000
0000
0001
0100
0001
0000
1000
0000
0100
0000
0000
0000
1000
0010
0001
0010
,  // measure 36
1000
0000
0001
0100
0001
0000
1000
0100
1000
0000
0010
0100
0010
1000
0001
0010
,  // measure 37
0100
0000
0010
0001
0010
0000
0100
1000
0100
1000
0000
0100
0000
0010
0001
0010
,  // measure 38
0100
0000
0010
0001
0100
0000
0010
0100
0001
0000
1000
0100
0010
0000
0100
1000
,  // measure 39
0010
0000
0100
0001
1000
0000
0100
1000
0001
0000
0010
0001
1000
0000
0010
1000
,  // measure 40
0001
0000
0010
0100
0010
0000
0100
1000
0100
0000
1000
0001
1000
0000
0001
0100
,  // measure 41
0001
0010
0001
0000
1001
0000
1000
0010
1000
0010
0100
0001
0100
0001
1000
0100
,  // measure 42
1000
0000
0010
0100
0010
0000
1000
0000
0001
0000
1000
0000
0010
1000
0100
0010
,  // measure 43
0001
0000
0100
0010
0100
0000
0001
0000
1000
0000
0001
0000
1000
0100
0010
0001
,  // measure 44
1000
0000
0010
0100
0010
0000
1000
0000
0001
0000
0010
0100
0010
0000
0001
0000
,  // measure 45
1000
0010
1000
0001
0010
0100
0010
0001
,  // measure 46
1000
0000
0001
0010
0001
0000
1000
0000
0001
0000
1000
0010
1000
0000
0001
0000
,  // measure 47
1000
0000
0001
0100
0001
0000
1000
0000
0001
0000
1000
0100
1000
0000
0001
0000
,  // measure 48
0010
0001
1000
0010
0100
0001
1000
0001
,  // measure 49
0010
0000
0001
0000
0100
0000
0010
0000
1000
0000
0001
0000
0010
0100
0010
0100
,  // measure 50
1000
0000
0001
0100
0001
0010
0100
1000
0100
1000
0100
1000
0100
1000
0100
1000
,  // measure 51
0001
0000
1000
0100
1000
0010
0100
0001
0100
0001
1000
0001
0100
0001
0100
0001
,  // measure 52
1000
0000
0001
0010
0100
0010
0001
0010
0001
0010
0001
0010
0001
0010
0001
0010
,  // measure 53
0001
0000
1000
0100
0010
0100
1000
0100
1000
0100
0010
0100
1000
0100
1000
0100
,  // measure 54
1000
0001
1000
0010
1000
0001
1000
0100
1000
0001
1000
0010
1000
0001
1000
0000
,  // measure 55
0001
0010
0001
1000
0001
0010
0001
0100
0001
0010
0001
1000
0001
0010
0001
0000
,  // measure 56
1000
0100
1000
0001
1000
0010
1000
0001
1000
0100
1000
0001
1000
0100
1000
0000
,  // measure 57
0001
0100
0001
1000
0001
0010
0001
1000
0001
0100
0001
1000
0001
0100
0001
0000
,  // measure 58
2000
3000
0001
0010
0001
0010
0002
0003
1000
0010
1000
0010
2000
3000
0001
0010
,  // measure 59
0002
0003
1000
0100
1000
0100
2000
0000
3001
0100
0001
0100
0002
0003
1000
0100
,  // measure 60
1000
0000
0001
0100
0010
0000
0100
0010
1000
0000
0001
0010
0100
0010
0001
0010
,  // measure 61
0200
0000
0000
0000
0000
0000
0000
0300
,  // measure 62
1000
0010
0100
0001
1000
0001
0010
0100
1000
0100
0010
0100
1000
0100
0010
0001
,  // measure 63
0100
0001
1000
0100
0010
0001
0100
0010
1000
0001
1000
0100
0010
0100
1000
0001
,  // measure 64
1000
0010
1000
0100
0010
0001
1000
0100
0010
0001
0100
0010
0100
0001
0010
0100
,  // measure 65
1000
0000
0000
0001
0000
0000
1000
0000
0000
0010
0000
0000
0100
0000
0001
0000
0100
0000
0001
0000
0100
0000
0001
0000
0100
0000
0001
0000
0100
0000
0001
0000
0100
0000
0001
0000
0100
0000
0000
0000
0000
0000
0000
0000
0000
0000
0000
0000
,  // measure 66
0002
0003
1000
0200
0300
1000
0010
0100
0002
0003
1000
0020
0030
1000
0100
1000
,  // measure 67
0002
0003
1000
0200
0300
1000
0010
0100
0002
0003
1000
0020
0030
1000
0100
1000
,  // measure 68
0002
0003
0000
2000
3000
0000
0200
0300
2000
3000
0000
0002
0003
0000
0200
0300
,  // measure 69
0002
0000
0000
0000
0000
0000
0003
0000
1000
0100
1000
0010
0100
0001
0010
0001
,  // measure 70
0200
0000
0000
0000
0000
0000
0000
0300
;

//---------------dance-single - ----------------
#NOTEDATA:;
#CHARTNAME:;
#STEPSTYPE:dance-single;
#DESCRIPTION:;
#CHARTSTYLE:;
#DIFFICULTY:Hard;
#METER:9;
#RADARVALUES:0.730,0.827,0.092,0.425,0.483,551.000,11.000,51.000,0.000,0.000,0.000,0.000,0.000,0.730,0.827,0.092,0.425,0.483,551.000,11.000,51.000,0.000,0.000,0.000,0.000,0.000;
#CREDIT:;
#NOTES:
0000
0000
0000
0000
,
0000
0000
0000
0000
,
0000
0000
0000
0000
,
0000
0000
0000
0000
,
0000
0000
0000
0000
,
0000
0000
0000
0000
,
1000
0000
0000
0000
0010
0000
0000
0000
0100
0000
0000
0000
0010
0000
0000
0000
1000
0000
0000
0000
0001
0000
0000
0000
0010
0000
0000
0000
0000
0000
0001
0000
0000
0100
0000
0000
0001
0000
0000
0000
0000
0000
0100
0000
0000
0000
0000
0000
,
0010
0000
0000
0000
1000
0000
0000
0000
0010
0000
0000
0000
0100
0000
0000
0000
0001
0000
0000
0000
1000
0000
0000
0000
0100
0000
0000
0000
0000
0000
0010
0000
0000
0001
0000
0000
0010
0000
0000
0000
0000
0000
0001
0000
0000
0000
0000
0000
,
2000
3000
0020
0030
0200
0300
0002
0003
,
0022
0033
0220
0330
2200
3300
2002
3003
,
2000
0000
3000
0000
0010
0000
0100
0000
0010
0000
0000
0000
1000
0100
1000
0010
,
1000
0001
1000
0010
0100
0000
0001
0000
,
0020
0030
0001
1000
0010
0000
1000
0010
,
0100
0000
0001
0000
1000
0100
0010
0100
1000
0000
0001
0000
1000
0000
0000
0000
,
0002
0000
0003
0000
0100
0000
0010
0000
0100
0000
0000
0000
0001
0100
0001
0010
,
0001
1000
0001
0010
0100
0000
0010
0001
,
2000
3000
0020
0030
1000
0100
0001
0100
,
1000
0000
0010
0000
0100
0000
0001
0000
1000
0100
1000
0100
2000
0000
3000
0000
,
0001
0000
0010
0000
0001
0000
0000
1000
0001
0000
0100
0000
0010
0000
0100
0000
,
0001
0000
1000
0000
0100
0000
0000
1000
0010
0000
0100
0000
0010
0000
1000
0000
,
0100
0000
0010
0000
0001
0000
0000
0010
0001
0000
1000
0000
0001
0000
0010
0000
,
0100
0000
1000
0000
0100
0000
0000
1000
0001
0000
0100
0000
0001
0000
0010
0000
,
0001
0000
1000
0010
0200
0300
0020
0030
,
1000
0100
0010
0001
0010
0000
0001
1000
,
0001
0000
1000
0000
0001
0000
0000
0100
0001
0000
1000
0000
0100
0000
1000
0000
,
0010
0000
1000
0000
0010
0000
0000
0100
0001
0000
1000
0000
0100
0000
1000
0000
,
0001
0000
0100
0000
0001
0000
1000
0100
1000
0000
0010
0000
0100
0000
0010
0000
,
1000
0000
0100
0000
1000
0000
0001
0100
0001
0000
0010
0000
0100
0000
0010
0000
,
0001
0000
1000
0000
0100
0000
1000
0010
1000
0000
0100
0000
0010
0000
0100
0000
,
1000
0000
0001
0000
0100
0000
0001
0010
0001
0000
0100
0000
0010
0000
0100
0000
,
0001
0100
0001
1000
0100
1000
0001
0010
0001
1000
0010
1000
,
0001
0010
0200
0300
0010
0100
1000
0100
,
0020
0030
0002
0003
2000
3000
0020
0030
,
0220
0000
0330
0000
0202
0000
0303
0000
2002
0000
0003
3000
2200
0000
3300
0000
,
1000
0000
0010
0000
0100
0000
0010
0000
1000
0000
0000
0000
0001
0010
0100
0010
,
0001
0000
0100
0000
0010
0000
0100
0000
0001
0000
0000
0000
1000
0100
0010
0100
,
1000
0000
0010
0100
0010
0000
1000
0000
0100
0000
0010
0100
0010
0000
0100
0000
,
1000
0000
0001
0100
0001
0000
1000
0100
1000
0100
0000
1000
0000
0010
0100
0010
,
0100
0000
0001
0000
0010
0000
0001
0100
0001
0000
0100
0000
0010
0000
1000
0100
,
1000
0000
0001
0000
0010
0000
0100
1000
0100
0000
0010
0000
0001
0000
0100
0010
,
0100
0000
0001
0000
1000
0000
0100
1000
0100
0000
1000
0000
0001
0000
0100
0000
,
0001
0100
0001
0000
0101
0000
0100
0000
0010
0000
1000
0000
0001
0000
1000
0000
,
0100
0000
1000
0001
1001
0000
0100
0010
,
0100
0000
0001
1000
1001
0000
0001
0010
,
0001
0100
1000
0100
0001
0010
1000
0010
,
0001
0100
0010
1000
0001
0010
0100
0010
,
0001
1000
0010
1000
0001
1000
0100
1000
,
0001
0100
0010
0100
0001
0010
0100
0010
,
0001
1000
0001
0100
0010
1000
0100
0010
,
0100
0000
1000
0000
0001
0000
0100
0000
0010
0000
1000
0000
0001
0010
0001
0010
,
0001
0000
1000
0010
1000
0000
0010
1000
0010
0000
0100
0001
0100
0001
0100
0001
,
1000
0000
0001
0010
0001
0000
0010
0001
0010
0000
0001
0100
0001
0100
0001
0100
,
0001
0000
1000
0100
1000
0000
0100
1000
0100
0000
1000
0010
1000
0010
1000
0010
,
1000
0000
0001
0100
0001
0000
0100
0001
0100
0000
0001
0010
0001
0010
0001
0010
,
0001
0000
0100
0000
0001
0010
0001
0000
1000
0000
0010
0000
1000
0100
1000
0000
,
0001
0000
0100
0000
0010
0100
0010
0000
1000
0000
0100
0000
0010
0100
0010
0000
,
0100
0000
1000
0000
0001
1000
0001
0000
0100
0000
0001
0000
1000
0001
1000
0000
,
0001
0000
0010
0000
0100
1000
0100
0000
1000
0000
0010
0000
0100
0001
0100
0000
,
0002
0000
1003
0010
1000
0000
0002
0000
1003
0100
1000
0000
0002
0000
1003
0010
,
2000
0000
3001
0100
0001
0000
2000
0000
3001
0010
0001
0000
2000
0000
3001
0100
,
0001
0100
0010
1000
0010
0100
0010
1000
,
0002
0000
0000
0000
0000
0000
0000
0003
,
1000
0000
0001
0000
0010
0001
0100
0000
0010
1000
0100
0000
0010
0001
0010
0001
,
1000
0000
0001
0000
1000
0010
0100
0000
0001
0010
0100
0000
1000
0010
1000
0010
,
0100
0000
0001
0000
0010
0001
0100
0000
0001
0010
0100
0000
1000
0001
1000
0001
,
0010
0000
0100
0000
1000
0010
1000
0010
1000
0010
1000
0010
1000
0000
0000
0000
,
0002
0003
0100
0020
0030
0100
0001
0000
2000
3000
0100
0020
0030
0100
1000
0000
,
0002
0003
0100
0020
0030
0100
0001
0000
2000
3000
0100
0020
0030
0100
1000
0000
,
0001
0000
0000
0100
0000
0000
1000
0000
0010
0000
0000
0001
0000
0000
0100
0000
,
0020
0000
0000
0030
0200
0000
0000
0300
,
0002
0000
0000
0000
0000
0000
0000
0003
;

//---------------dance-single - ----------------
#NOTEDATA:;
#CHARTNAME:;
#STEPSTYPE:dance-single;
#DESCRIPTION:;
#CHARTSTYLE:;
#DIFFICULTY:Medium;
#METER:7;
#RADARVALUES:0.504,0.502,0.067,0.317,0.000,377.000,8.000,38.000,0.000,0.000,0.000,0.000,0.000,0.504,0.502,0.067,0.317,0.000,377.000,8.000,38.000,0.000,0.000,0.000,0.000,0.000;
#CREDIT:;
#NOTES:
0000
0000
0000
0000
,
0000
0000
0000
0000
,
0000
0000
0000
0000
,
0000
0000
0000
0000
,
0000
0000
0000
0000
,
0000
0000
0000
0000
,
1000
0100
1000
0100
1000
0001
1000
0000
,
0001
0100
0001
0100
0001
1000
0001
0000
,
2000
3000
0020
0030
0200
0300
0002
0003
,
2100
3000
0200
0300
0020
0030
0002
0003
,
1000
0000
0010
0100
0010
0000
1000
0100
,
1000
0010
0100
0001
0010
0000
0100
0000
,
0010
0000
0001
0100
0001
0000
1000
0010
,
0100
0000
0010
1000
0001
1000
0100
0000
,
1000
0000
0001
0010
0001
0000
1000
0010
,
0100
0010
1000
0001
1000
0000
0001
0010
,
0100
0000
0010
0000
0001
1000
0010
0100
,
0010
1000
0001
0010
0100
0010
0001
0000
,
1000
0000
0010
0000
1000
0100
1000
0100
,
0010
0000
0001
0000
1000
0010
1000
0010
,
0100
0000
0001
0000
1000
0001
1000
0001
,
0010
0000
0001
0000
0100
0001
0100
0001
,
1000
0000
0001
0000
1000
0010
1000
0000
,
0001
0000
1000
0000
0001
0010
0001
0000
,
1000
0000
0010
0000
0100
0001
0100
0000
,
0001
0000
0010
0000
0100
1000
0100
0000
,
0010
0001
0010
0000
0001
0100
0001
0000
,
0100
1000
0100
0000
1000
0010
1000
0000
,
0010
0001
1000
0000
0010
1000
0001
0000
,
1000
0100
0010
0000
0001
0100
0010
0100
,
0001
0010
0100
1000
0001
0010
0100
1000
,
0001
0100
0010
0000
1000
0100
0010
0100
,
2000
3000
0200
0300
0020
0030
0002
0003
,
2010
3000
0020
0030
0200
0300
0002
0003
,
1000
0100
1000
0001
1000
0000
1001
0000
,
0001
0100
0001
1000
0001
0000
1001
0000
,
1000
0010
1000
0000
0001
0100
0001
0000
,
2002
0000
0000
0000
0000
0000
0000
3003
,
0001
0010
0100
0000
1000
0010
0100
0000
,
0001
1000
0100
0000
0010
0001
1000
0000
,
0010
0100
0001
0000
1000
0100
0010
0000
,
0001
0100
0001
0000
1000
0001
1000
0000
,
0001
0010
0001
1000
0001
0000
1001
0000
,
1000
0010
1000
0001
1000
0000
1001
0000
,
0001
0010
0001
0000
1000
0100
1000
0000
,
2002
0000
0000
0000
0000
0000
0000
3003
,
1000
0010
0100
0000
0001
0010
0100
0000
,
1000
0001
0100
0000
0010
1000
0001
0000
,
0010
0100
1000
0000
0010
0100
0001
0000
,
1000
0100
0010
0001
1000
0001
0010
0100
,
1000
0010
0100
0001
1000
0001
1000
0001
,
1000
0100
0010
0001
1000
0001
1000
0001
,
1000
0010
0100
0001
1000
0001
1000
0001
,
1000
0100
0010
0001
1000
0001
1000
0001
,
1000
0010
1000
0000
0001
0100
0001
0000
,
1000
0100
1000
0000
0001
0010
0001
0000
,
0010
0001
1000
0000
0010
1000
0001
0000
,
0010
0100
1000
0000
0010
0100
0001
0000
,
2000
3000
0100
0020
0030
0100
2000
3000
,
0002
0003
0100
0020
0030
0100
0002
0003
,
1000
0100
0010
0001
0010
0100
1000
0100
,
0020
0000
0000
0000
0000
0000
0000
0030
,
0001
0100
0001
1000
0001
0100
0001
1000
,
0010
0100
0010
1000
0010
0100
0010
1000
,
0001
0010
0100
1000
0001
1000
0010
0100
,
0001
0010
0100
1000
0100
1000
0100
0000
,
1000
0010
0200
0300
0001
0010
0200
0300
,
1000
0010
0200
0300
0001
0010
0200
0300
,
2000
3000
0020
0030
0200
0300
0002
0003
,
2000
0000
0000
3000
0200
0000
0000
0300
,
0020
0000
0000
0000
0000
0000
0000
0030
;

//---------------dance-single - ----------------
#NOTEDATA:;
#CHARTNAME:;
#STEPSTYPE:dance-single;
#DESCRIPTION:;
#CHARTSTYLE:;
#DIFFICULTY:Easy;
#METER:4;
#RADARVALUES:0.287,0.325,0.108,0.125,0.000,213.000,13.000,15.000,0.000,0.000,0.000,0.000,0.000,0.287,0.325,0.108,0.125,0.000,213.000,13.000,15.000,0.000,0.000,0.000,0.000,0.000;
#CREDIT:;
#NOTES:
0000
0000
0000
0000
,
0000
0000
0000
0000
,
0000
0000
0000
0000
,
0000
0000
0000
0000
,
0000
0000
0000
0000
,
0000
0000
0000
0000
,
1000
0100
1000
0000
,
0001
0100
0001
0000
,
1000
0010
1000
0010
,
0100
0001
0100
0001
,
1000
0100
1100
0000
,
0001
0100
0101
0000
,
1000
0010
0100
0010
,
1000
0000
0100
0000
1000
0100
1000
0000
,
0001
0010
0011
0000
,
1000
0010
1010
0000
,
1000
0100
0010
0100
,
1000
0000
0001
0000
0100
0001
0100
0000
,
0002
0000
0000
0003
1000
0000
0100
0000
,
2000
0000
0000
0000
0000
3000
0001
0000
,
0100
0001
1000
0001
,
0020
0000
0000
0000
0000
0000
0000
0030
,
0100
1000
0100
0010
,
0200
0000
0000
0300
2000
0000
0000
3000
,
0001
0100
0001
1000
,
0002
0000
0000
0003
1000
0000
0100
0000
,
2000
0000
0000
3000
0001
0000
0010
0000
,
0002
0000
0000
0000
0000
0003
1000
0000
,
0010
1000
0001
1000
,
0200
0000
0000
0300
0020
0000
0000
0030
,
0001
0100
0010
1000
,
0001
0010
0001
0000
1000
0100
1000
0100
,
1000
0001
1000
0001
,
0100
0001
0100
0001
,
1000
0000
0010
0100
0010
0000
0000
0000
,
1000
0000
0100
0010
0100
0000
0000
0000
,
0010
0001
0010
0001
,
2000
0000
0000
0000
0000
0000
0000
3000
,
0001
0000
0101
0000
,
0001
0000
0011
0000
,
1000
0000
1010
0000
,
1000
0000
1100
0000
,
0001
0000
0100
0010
0100
0000
0000
0000
,
0001
0000
0010
0100
0010
0000
0000
0000
,
0100
1000
0100
1000
,
0002
0000
0000
0000
0000
0000
0000
0003
,
1000
0000
1010
0000
,
1000
0000
1100
0000
,
0001
0000
0011
0000
,
0001
0000
0101
0000
,
1000
0000
0100
0000
0010
0001
0010
0000
,
0001
0000
0100
0000
0010
1000
0010
0000
,
1000
0000
0100
0000
0010
0001
0010
0000
,
0001
0000
0100
0000
0010
1000
0010
0000
,
1000
0100
1000
0100
,
0010
0001
0010
0001
,
1000
0010
1000
0010
,
0100
0001
0100
0001
,
1000
0001
0100
0001
,
1000
0001
0100
0001
,
1000
0000
0001
0000
,
2002
0000
0000
0000
0000
0000
0000
3003
,
1000
0010
1000
0000
,
0001
0100
0001
0000
,
1000
0100
1000
0000
,
0001
0010
0001
0000
,
1000
0010
1000
0001
,
1000
0010
1000
0001
,
1000
0010
0100
0001
,
1000
0000
0100
0000
,
2000
0000
0000
0000
0000
0000
0000
3000
;
