#TITLE:ナナホシ;
#SUBTITLE:;
#ARTIST:S-C-U;
#TITLETRANSLIT:Nanahoshi;
#SUBTITLETRANSLIT:;
#ARTISTTRANSLIT:;
#GENRE:;
#CREDIT:;
#BANNER:[ROUND 4] - Nanahoshi-bn.png;
#BACKGROUND:[ROUND 4] - Nanahoshi-bg.png;
#LYRICSPATH:;
#CDTITLE:cdtitle.png;
#MUSIC:[ROUND 4] - Nanahoshi.mp3;
#OFFSET:-0.025;
#SAMPLESTART:58.955;
#SAMPLELENGTH:11.566;
#SELECTABLE:YES;
#BPMS:0.000=166.000
;
#STOPS:160.000=1.084
;
#BGCHANGES:16.000=bluey1.avi=1.000=1=0=1===CrossFade==,
30.000=box1.avi=1.800=0=0=1=StretchNormal====,
32.000=star4.avi=1.000=0=0=1=====,
40.000=bear4.avi=1.000=0=0=1=====,
48.000=star4.avi=1.000=0=0=1=====,
56.000=bear4.avi=1.000=0=0=1=====,
64.000=cube8.avi=1.000=0=0=1=====,
80.000=cube7.avi=1.400=0=0=1=====,
96.000=beads1.avi=1.000=0=0=1=====,
112.000=colors3.avi=1.000=0=0=1=====,
128.000=fusion1.avi=1.000=0=0=1=====,
136.000=kaliedoscope8.avi=1.000=0=0=1=====,
144.000=letters1.avi=1.000=0=0=1=====,
156.000=star4.avi=1.000=0=0=1=====,
157.000=bluey1.avi=1.000=0=0=1=====,
158.000=bear4r.avi=1.000=0=0=1=====,
159.000=box1.avi=2.000=0=1=1=StretchRewind====,
159.938=black.png=1.000=0=0=1=====,
160.063=box1a.avi=1.600=0=0=1=StretchNormal====,
162.000=heart1.avi=1.000=0=0=1=====,
177.000=rainbow2.avi=1.000=0=0=1=====,
185.000=rainbow1.avi=1.000=0=0=1=====,
193.000=heart1r.avi=1.000=0=0=1=====,
209.000=rainbow2.avi=1.000=0=0=1=====,
217.000=rainbow1.avi=1.000=0=0=1=====,
221.000=star4.avi=1.000=0=0=1=====,
222.000=bluey1.avi=1.000=0=0=1=====,
223.000=bear4r.avi=1.000=0=0=1=====,
224.000=box1.avi=2.000=0=1=1=StretchRewind====,
225.000=star4.avi=1.000=0=0=1=====,
233.000=bear4.avi=1.000=0=0=1=====,
241.000=star4.avi=1.000=0=0=1=====,
249.000=bear4.avi=1.000=0=0=1=====,
257.000=box1a.avi=2.000=0=0=1=====,
258.000=heart1.avi=2.000=0=0=1=====,
259.000=rainbow2.avi=2.000=0=0=1=====,
260.000=bluey1.avi=2.000=0=0=1=====,
261.000=[ROUND 4] - Nanahoshi-bg.png=1.000=0=0=1=====,
99999=-nosongbg-=1.000=0=0=0 // don't automatically add -songbackground-
;
#KEYSOUNDS:;
#ATTACKS:;

//---------------dance-single - Rygon----------------
#NOTES:
     dance-single:
     X-13:
     Hard:
     9:
     0.687,0.667,0.173,0.102,0.396,446.000,17.000,10.000,0.000,0.000,0.000,0.687,0.667,0.173,0.102,0.396,446.000,17.000,10.000,0.000,0.000,0.000:
0000
0000
0000
0000
,
0000
0000
0000
0000
,
0000
0000
0000
0000
,
0000
0000
0000
0000
,
0010
0010
0000
1000
1000
0000
0001
0001
,
0000
0010
0010
0000
1100
0000
1001
0000
,
0001
0001
0000
1000
1000
0000
0010
0010
,
0000
0100
0100
0000
0101
0000
1001
0000
,
1000
0010
0000
0010
0100
0000
0100
0001
0000
0001
1000
0000
0100
0000
0010
0000
,
0001
0010
0000
0010
0100
0000
0100
1000
0000
1000
0001
0000
0100
0000
0010
0000
,
1000
0000
0100
0001
0100
1000
0001
0000
,
0100
0010
1000
0010
0100
0001
0010
0000
,
0001
0100
0000
0100
0010
0000
0010
1000
0000
1000
0100
0000
0010
0000
0001
0000
,
1000
0100
0000
0100
0010
0000
0010
0001
0000
0001
0100
0000
0010
0000
1000
0000
,
0001
0000
0100
1000
0100
0001
1000
0000
,
0100
0000
0010
0000
0001
0000
0010
0000
0100
0000
1000
0000
0010
0000
0000
0010
,
1000
0100
0001
0100
1000
0000
1000
0100
,
0001
0100
1000
0000
1000
0100
0001
0100
,
1000
0010
0100
0001
1000
0000
0100
0010
,
0000
0001
0100
0010
0100
0000
1001
0000
,
0001
0100
1000
0100
0001
0000
0001
0100
,
1000
0100
0001
0000
0001
0100
1000
0100
,
0001
0000
0010
0100
1000
0010
0000
0101
,
0000
0000
0010
0000
1000
0000
0100
0000
1000
0000
0001
1000
0001
0000
0000
0000
,
1000
0010
0001
0010
1000
0000
1000
0010
,
0001
0010
1000
0000
1000
0010
0001
0010
,
1000
0001
0010
0100
1000
0000
0001
0100
,
0000
0100
1000
0100
0010
0000
1001
0000
,
0001
0010
1000
0010
0001
0000
0001
0010
,
1000
0010
0001
0000
0001
0010
1000
0010
,
0001
0000
0100
0010
1000
0100
0000
0001
,
0000
0000
0100
0000
1000
0000
0001
0000
0100
0000
0010
0100
0010
0000
1000
0000
,
0001
0000
0010
0000
0010
0000
0000
0100
0000
1000
0000
0000
0001
0000
0100
0000
,
1000
0000
0100
0000
0010
0100
0000
0001
0000
0000
0000
0001
1000
0000
0100
0000
,
1000
0000
0010
0000
0010
0000
0000
0100
0000
0001
0000
0000
1000
0000
0100
0000
,
0001
0000
0100
0000
0010
0100
0000
1000
0000
0000
0000
1000
0001
0000
0100
0000
,
0010
0000
0000
1000
0000
0000
0100
0000
0001
0000
0100
0000
1000
0000
0001
0000
,
0010
0000
0000
0001
0000
0000
0100
0000
1000
0000
0100
0000
0001
0000
1000
0000
,
0100
0000
0000
0010
0000
0000
0001
0000
0010
0000
0100
0000
1000
0000
0010
0000
,
0110
0000
0110
0000
0000
0000
1001
0000
0000
0000
1100
0000
0000
0000
0010
0001
,
0020
0000
0000
0000
0130
0000
1000
0100
0000
0000
0010
0000
0001
0000
0000
0100
,
0000
0000
1000
0000
0100
0000
0000
0001
0000
0000
0010
0000
0100
0000
1000
0000
,
0001
0000
0100
0000
0010
0000
1000
0001
0000
1000
0001
0000
0010
0000
0001
1000
,
0000
0001
1000
0000
0010
0000
0100
0000
0001
0010
0001
0000
1000
0000
0010
0000
,
0100
0000
0001
0000
1000
0100
1000
0100
0000
0010
0200
0000
0001
0000
0000
0000
,
1300
0000
0000
0000
0001
0100
0001
0100
0000
0010
0200
0000
1000
0000
0000
0000
,
0301
0000
0000
0000
1000
0000
0001
0000
0100
0010
0200
0000
0010
0000
0000
0000
,
0310
0000
1000
0010
1000
0000
0000
0100
0000
0000
0001
0000
0100
0000
0100
0000
,
1000
0000
0001
0000
0100
0000
0001
0100
0000
0000
0010
0000
1000
0000
0000
0100
,
0000
0000
0001
0000
0100
0000
0000
1000
0000
0000
0010
0000
0100
0000
0001
0000
,
1000
0000
0100
0000
0010
0000
0001
1000
0000
0001
1000
0000
0010
0000
1000
0001
,
0000
1000
0001
0000
0010
0100
0010
0100
0000
0000
1000
0000
0001
0000
0010
0000
,
1000
0000
0010
0000
0001
0010
0001
0010
0000
0100
0020
0000
1000
0000
0000
0000
,
0031
0000
0000
0000
1000
0010
1000
0010
0000
0100
0020
0000
0001
0000
0000
0000
,
1030
0000
0000
0000
0001
0000
1000
0000
0010
0100
0020
0000
0100
0000
0000
0000
,
0130
0000
0001
0100
0001
0000
0000
0010
0000
0000
0100
0000
1000
0000
0010
0000
,
1000
0001
1000
0001
2000
0000
0000
0000
0000
0000
0000
0000
0000
0000
0000
0000
,
0000
0001
0100
0001
,
0100
0000
3001
0000
0010
1000
0010
0001
,
1000
1000
0010
0100
0001
0100
0010
1000
,
0100
0000
0100
0000
1000
0010
0000
0010
0100
0000
0100
0001
0000
0001
0010
0000
,
0100
0000
1000
0000
0001
0010
0000
0010
0100
0000
0100
1000
0000
1000
0010
0000
,
0100
0001
1000
0000
0100
0001
0100
1000
,
0010
0010
0100
0001
0010
1000
0010
0001
,
1000
0000
0011
1100
0000
1010
0101
0000
,
0110
1001
0000
2000
0002
3003
0000
0000
;

//---------------dance-double - Rygon----------------
#NOTES:
     dance-double:
     X-13:
     Hard:
     9:
     0.662,0.667,0.122,0.295,0.335,415.000,12.000,29.000,0.000,0.000,0.000,0.662,0.667,0.122,0.295,0.335,415.000,12.000,29.000,0.000,0.000,0.000:
00000000
00000000
00000000
00000000
,
00000000
00000000
00000000
00000000
,
00000000
00000000
00000000
00000000
,
00000000
00000000
00000000
00000000
,
00000001
00000010
00000000
00000010
00001000
00000000
00001000
00010000
,
00000000
00010000
00100000
00000000
10100000
00000000
10010000
00000000
,
10000000
01000000
00000000
01000000
00010000
00000000
00010000
00001000
,
00000000
00001000
00000100
00000000
00000101
00000000
00001001
00000000
,
00001000
00000100
00000000
00000100
00010000
00000000
00010000
00001000
00000000
00001000
00100000
00000000
01000000
00000000
10000000
00000000
,
00100000
01000000
00000000
01000000
00010000
00000000
00010000
00100000
00000000
00100000
00001000
00000000
00010000
00000000
00000000
00000000
,
00010000
00001000
00000100
00000010
00001000
00000100
00000010
00000001
,
00000200
00002300
00003200
00000302
,
00001003
00000010
00000000
00000010
00010000
00000000
00010000
00001000
00000000
00001000
01000000
00000000
00100000
00000000
10000000
00000000
,
01000000
00100000
00000000
00100000
00010000
00000000
00010000
01000000
00000000
01000000
00001000
00000000
00010000
00000000
00000000
00000000
,
00010000
00001000
00000010
00000100
00001000
00000010
00000100
00000001
,
00000020
00002030
00003020
00000032
,
00001003
00000100
00000001
00000100
00001000
00000000
00010000
01000000
,
10000000
01000000
00010000
00000000
00001000
00000100
00000001
00000100
,
00001000
00000010
00000001
00000010
00001000
00000000
00000100
00010000
,
00000000
00010000
01000000
10000000
00100000
00000000
10010000
00000000
,
00010000
01000000
10000000
01000000
00010000
00000000
00001000
00000100
,
00000001
00000100
00001000
00000000
00010000
01000000
10000000
01000000
,
00010000
00000000
00100000
10000000
00100000
00010000
00000000
01000000
,
00000000
00001000
00000100
00000001
00000010
00000000
00001001
00000000
,
00001000
00000010
00000001
00000010
00001000
00000000
00010000
00100000
,
10000000
00100000
00010000
00000000
00001000
00000010
00000001
00000010
,
00001000
00000100
00000001
00000100
00001000
00000000
00000010
00010000
,
00000000
00010000
00100000
10000000
01000000
00000000
10010000
00000000
,
00010000
00100000
10000000
00100000
00010000
00000000
00001000
00000010
,
00000001
00000010
00001000
00000000
00010000
00100000
10000000
00100000
,
00010000
00000000
01000000
10000000
01000000
00010000
00000000
00100000
,
00000000
00000000
00001000
00000000
00000010
00000000
00000001
00000000
00000100
00000000
00000001
00001000
00000001
00000000
00000000
00000000
,
00001000
00000100
00020000
00000000
01000000
00000000
00032000
00000000
,
01003000
00000000
00100000
00000000
10000000
00010000
00000000
00100000
00000000
00000000
00000000
00000000
10010000
00000000
00000000
00000000
,
00010000
01000000
00002000
00000000
00000100
00000000
00023000
00000000
,
00030100
00000000
00000010
00000000
00000001
00001000
00000000
00000010
00000000
00000000
00000000
00000000
00001001
00000000
00000000
00000000
,
00001000
00000000
00000000
00000100
00000000
00000000
00000001
00000000
00000100
00000000
00001000
00000000
00000100
00000000
00010000
00000000
,
00001000
00000000
00000000
01000000
00000000
00000000
10000000
00000000
01000000
00000000
00010000
00000000
01000000
00000000
00001000
00000000
,
00010000
00000000
00000000
00000100
00000000
00000000
00000010
00000000
00000001
00000000
00000010
00000000
00000100
00000000
00001000
00000000
,
00000100
00000000
00010100
00000000
00000000
00000000
00011000
00000000
00000000
00000000
00101000
00000000
00000000
00000000
00100000
01000000
,
00200000
00000000
00000000
00000000
01300000
00000000
00000000
10000000
00000000
00000000
00010000
00000000
01000000
00000000
00000000
00001000
,
00000000
00000000
00010000
00000000
00000100
00000000
00000000
00000010
00000000
00000000
00000001
00000000
00001000
00000000
00000100
00000000
,
00010000
00000000
01000000
00000000
10000000
00000000
00100000
01000000
00000000
00100000
01000000
00000000
00010000
00000000
00100000
00001000
,
00000000
00100000
00001000
00000000
00010000
00000000
00000100
00000000
00000010
00000000
00000001
00000000
00000100
00000000
00000010
00000000
,
00001000
00000000
00000000
00000000
00000100
00010000
00000100
00010000
00000000
00001000
00100000
00000000
00002000
00000000
00000000
00000000
,
01003000
00000000
00000000
00000000
01000000
00001000
01000000
00001000
00000000
00010000
00000010
00000000
00020000
00000000
00000000
00000000
,
00030100
00000000
00000000
00000000
00010000
00000000
00001000
00000000
01000000
00100000
01000000
00000000
00020000
00000000
00000000
00000000
,
00130000
00000000
00000000
00000000
00001000
00000000
00000000
00010000
00000100
00000000
00000010
00000000
00000001
00000000
00001000
00000000
,
00000001
00000000
00000000
00000001
00000100
00000000
00000000
00000001
00000000
00000000
00001000
00000000
00000100
00000000
00000000
00010000
,
00000000
00000000
00001000
00000000
01000000
00000000
00000000
00100000
00000000
00000000
10000000
00000000
00010000
00000000
01000000
00000000
,
00001000
00000000
00000100
00000000
00000001
00000000
00000010
00000100
00000000
00000010
00000100
00000000
00001000
00000000
00000010
00010000
,
00000000
00000010
00010000
00000000
00001000
00000000
01000000
00000000
00100000
00000000
10000000
00000000
01000000
00000000
00100000
00000000
,
00010000
00000000
00000000
00000000
01000000
00001000
01000000
00001000
00000000
00010000
00000010
00000000
00020000
00000000
00000000
00000000
,
00030100
00000000
00000000
00000000
00000100
00010000
00000100
00010000
00000000
00001000
00100000
00000000
00002000
00000000
00000000
00000000
,
01003000
00000000
00000000
00000000
00001000
00000000
00010000
00000000
00000100
00000010
00000100
00000000
00002000
00000000
00000000
00000000
,
00003010
00000000
00000000
00000000
00010000
00000000
00000000
00001000
00000000
00000000
01000000
00000000
00100000
00000000
10000000
00000000
,
01000000
00100000
00010000
10000000
00010000
00000000
00000000
00000000
00000000
00000000
00000000
00000000
00000000
00000000
00000000
00000000
,
00000000
00010000
00100000
00001000
,
00010000
00000000
00001000
00010000
00100000
01000000
00010000
00100000
,
01000000
10000000
00200000
00000000
00320000
00000000
00230000
00000000
,
20300000
00000000
00000000
00000000
30010000
01000000
00000000
01000000
00001000
00000000
00001000
00010000
00000000
00010000
00000010
00000000
,
00000100
00000000
00000001
00000000
00000010
00000100
00000000
00000100
00001000
00000000
00001000
00000010
00000000
00000010
00010000
00000000
,
00001000
00000000
00001000
00010000
01000000
00100000
00010000
01000000
,
00100000
10000000
02000000
00000000
03020000
00000000
02030000
00000000
,
23000000
00000000
30100000
01000000
00000000
00001000
00010000
00000000
,
00000100
00000010
00000000
00002000
00020000
00033000
00000000
00000000
;

//---------------dance-single - Rygon----------------
#NOTES:
     dance-single:
     X-1:
     Beginner:
     1:
     0.091,0.133,0.051,0.000,0.000,58.000,5.000,0.000,0.000,0.000,0.000,0.091,0.133,0.051,0.000,0.000,58.000,5.000,0.000,0.000,0.000,0.000:
0000
0000
0000
0000
,
0000
0000
0000
0000
,
0000
0000
0000
0000
,
0000
0000
0000
0000
,
1000
0000
0000
0000
,
0000
0000
0000
0000
,
0001
0000
0000
0000
,
0000
0000
0000
0000
,
1001
0000
0000
0000
,
0000
0000
0000
0000
,
0100
0000
0000
0000
,
0100
0000
0000
0000
,
1001
0000
0000
0000
,
0000
0000
0000
0000
,
0010
0000
0000
0000
,
0010
0000
0000
0000
,
1000
0000
1000
0000
,
0000
0000
0000
0000
,
0001
0000
0001
0000
,
0000
0000
0000
0000
,
1000
0000
1000
0000
,
0000
0000
0000
0000
,
0001
0000
0001
0000
,
0000
0000
0000
0000
,
0100
0000
0100
0000
,
0000
0000
0000
0000
,
0010
0000
0010
0000
,
0000
0000
0000
0000
,
0100
0000
0100
0000
,
0000
0000
0000
0000
,
0010
0000
0010
0000
,
0000
0000
0000
0000
,
1000
0000
0000
0000
,
0000
0000
0000
0000
,
0001
0000
0000
0000
,
0000
0000
0000
0000
,
0100
0000
0000
0000
,
0100
0000
0000
0000
,
0010
0000
0000
0000
,
0010
0000
0000
0000
,
1001
0000
0000
0000
,
0000
1000
0000
0000
,
0000
0001
0000
0001
,
0000
0001
0000
0000
,
0000
0100
0000
0000
,
0000
0010
0000
0000
,
0000
0010
0000
0000
,
0000
0100
0000
0000
,
0000
0001
0000
0000
,
0000
0001
0000
0000
,
0000
1000
0000
1000
,
0000
1000
0000
0000
,
0000
0100
0000
0000
,
0000
0010
0000
0000
,
0000
0010
0000
0000
,
0000
0100
0000
0000
,
0000
1001
0000
0000
,
0000
0000
0000
0000
,
0000
1000
0000
0000
,
0000
0001
0000
0000
,
0000
1001
0000
0000
,
0000
0000
0000
0000
,
0000
0001
0000
0000
,
0000
1000
0000
0000
,
0000
0010
0000
0010
,
0010
0000
0010
0000
;

//---------------dance-single - Rygon----------------
#NOTES:
     dance-single:
     X-3:
     Easy:
     3:
     0.219,0.199,0.051,0.000,0.000,146.000,5.000,0.000,0.000,0.000,0.000,0.219,0.199,0.051,0.000,0.000,146.000,5.000,0.000,0.000,0.000,0.000:
0000
0000
0000
0000
,
0000
0000
0000
0000
,
0000
0000
0000
0000
,
0000
0000
0000
0000
,
0010
0000
0000
0000
,
0100
0000
1001
0000
,
1000
0000
0000
0000
,
0001
0000
0110
0000
,
1000
0000
1000
0000
,
0001
0000
0001
0000
,
0100
0100
0100
0000
,
0010
0010
0010
0000
,
1000
0000
1000
0000
,
0001
0000
0001
0000
,
0010
0010
0010
0000
,
0100
0100
0100
0000
,
1000
0000
1000
0100
,
0001
0000
0001
0100
,
1000
0000
1000
0100
,
0001
0000
0100
0000
,
1000
0000
1000
0010
,
0001
0000
0001
0010
,
1000
0000
1000
0010
,
0001
0000
1001
0000
,
0001
0000
0001
0100
,
1000
0000
1000
0100
,
0001
0000
0001
0100
,
1000
0000
0100
0000
,
0001
0000
0001
0010
,
1000
0000
1000
0010
,
0001
0000
0001
0010
,
1000
0000
1001
0000
,
1000
0000
0000
0000
,
0001
0000
0000
0000
,
0100
0000
0000
0000
,
0010
0000
0000
0000
,
1000
0000
0100
0000
,
0010
0000
0001
0000
,
1000
0000
0010
0000
,
0100
0000
0000
0001
0000
1000
0000
0000
,
1001
1000
0000
1000
,
0000
0100
0000
0000
,
0000
0001
0000
0001
,
0000
0100
0000
0000
,
0000
1000
1000
1000
,
0000
0001
0001
0001
,
0000
0100
0010
0100
,
0000
0010
0100
0010
,
0100
0001
0000
0001
,
0000
0100
0000
0000
,
0000
1000
0000
1000
,
0000
0100
0000
0000
,
0000
0001
0001
0001
,
0000
1000
1000
1000
,
0000
0100
0010
0100
,
0000
0010
0100
0010
,
0100
1000
0000
1000
,
0000
0001
0000
0001
,
0000
0100
0100
0100
,
0000
0010
0010
0010
,
0000
1000
0000
1000
,
0000
0001
0000
0001
,
0000
0010
0010
0010
,
0000
0100
0100
0100
,
0000
0000
1000
0000
0000
0001
0000
0000
,
1000
0000
0000
0001
0000
0000
0000
0000
;

//---------------dance-double - Rygon----------------
#NOTES:
     dance-double:
     X-1:
     Easy:
     1:
     0.099,0.133,0.112,0.000,0.000,57.000,11.000,0.000,0.000,0.000,0.000,0.099,0.133,0.112,0.000,0.000,57.000,11.000,0.000,0.000,0.000,0.000:
00000000
00000000
00000000
00000000
,
00000000
00000000
00000000
00000000
,
00000000
00000000
00000000
00000000
,
00000000
00000000
00000000
00000000
,
10000000
00000000
00000000
00000000
,
00000000
00000000
00000000
00000000
,
01000000
00000000
00000000
00000000
,
00000000
00000000
00000000
00000000
,
00100000
00000000
00000000
00000000
,
00001000
00000000
00000000
00000000
,
00010000
00000000
00000000
00000000
,
00000000
00000000
00000000
00000000
,
00000010
00000000
00000000
00000000
,
00010000
00000000
00000000
00000000
,
00001000
00000000
00000000
00000000
,
00000000
00000000
00000000
00000000
,
10000000
00000000
01000000
00000000
,
00000000
00000000
00000000
00000000
,
01000000
00000000
00010000
00000000
,
00000000
00000000
00000000
00000000
,
00001000
00000000
00000100
00000000
,
00000000
00000000
00000000
00000000
,
00000100
00000000
00000001
00000000
,
00000000
00000000
00000000
00000000
,
00000001
00000000
00000010
00000000
,
00000000
00000000
00000000
00000000
,
00000010
00000000
00001000
00000000
,
00000000
00000000
00000000
00000000
,
00010000
00000000
00100000
00000000
,
00000000
00000000
00000000
00000000
,
00100000
00000000
10000000
00000000
,
00000000
00000000
00000000
00000000
,
10010000
00000000
00000000
00000000
,
00000000
00000000
00000000
00000000
,
00011000
00000000
00000000
00000000
,
00000000
00000000
00000000
00000000
,
00001001
00000000
00000000
00000000
,
00000000
00000000
00000000
00000000
,
00011000
00000000
00000000
00000000
,
01100000
00000000
00000000
00000000
,
10010000
00000000
00000000
00000000
,
00000000
10000000
00000000
01000000
,
00000000
00010000
00000000
00000000
,
00000000
00001000
00000000
00000100
,
00000000
00000001
00000000
00000000
,
00000000
00001000
00000000
00000000
,
00000000
00000110
00000000
00000000
,
00000000
00000000
00000000
00000000
,
00000000
00001001
00000000
00000000
,
00000000
00000001
00000000
00000100
,
00000000
00001000
00000000
00000000
,
00000000
00010000
00000000
01000000
,
00000000
10000000
00000000
00000000
,
00000000
00010000
00000000
00000000
,
00000000
01100000
00000000
00000000
,
00000000
10000000
00000000
00010000
,
00000000
00100000
00000000
00000000
,
00000000
00001000
00000000
00000000
,
00000000
00010000
00000000
00000000
,
00000000
00000000
00000000
00000000
,
00000000
00000010
00000000
00000000
,
00000000
00010000
00000000
00000000
,
00000000
00001000
00000000
00000000
,
00000000
00000000
00000000
00000000
,
00000000
00011000
00000000
00000000
,
00000000
00011000
00000000
00000000
;

//---------------dance-single - Rygon----------------
#NOTES:
     dance-single:
     X-6:
     Medium:
     5:
     0.396,0.400,0.244,0.051,0.000,244.000,24.000,5.000,0.000,0.000,0.000,0.396,0.400,0.244,0.051,0.000,244.000,24.000,5.000,0.000,0.000,0.000:
0000
0000
0000
0000
,
0000
0000
0000
0000
,
0000
0000
0000
0000
,
0000
0000
0000
0000
,
0010
0000
0000
1000
0001
0000
0010
0000
,
0000
0001
1000
0000
0010
0000
1001
0000
,
0100
0000
0000
1000
0001
0000
0100
0000
,
0000
0001
1000
0000
0100
0000
1001
0000
,
1000
0010
0100
0001
,
1000
0100
0010
0001
,
1000
0100
0010
0000
0010
0100
1000
0000
,
0001
0100
0010
1001
,
0001
0010
0100
1000
,
0001
0100
0010
1000
,
0001
0100
0010
0000
0010
0100
0001
0000
,
1000
0100
0010
1001
,
1000
0100
0001
0001
,
0100
1000
0001
0100
,
1000
1000
0100
0001
,
1000
0100
0110
0000
,
0001
0100
1000
1000
,
0100
0001
1000
0100
,
0001
0001
0100
1000
,
0001
0100
0110
0000
,
1000
0010
0001
0001
,
0010
1000
0001
0010
,
1000
1000
0010
0001
,
1000
0010
0110
0000
,
0001
0010
1000
1000
,
0010
0001
1000
0010
,
0001
0001
0010
1000
,
0001
0010
0110
0000
,
1000
0000
0100
0000
,
0010
0011
1100
0000
,
0001
0000
0100
0000
,
0010
1010
0101
0000
,
0100
0010
1000
0100
,
0001
0100
1000
0010
,
0001
0010
1000
0100
,
0010
0100
0000
0010
0000
0100
0000
1000
,
0001
1000
0010
0100
,
0001
0000
1000
0000
0100
0000
0010
0100
,
0010
0001
0010
0100
,
1000
0000
0001
0000
0100
0000
0010
0100
,
0010
1000
0001
0110
,
0000
0001
1000
0110
,
0000
1000
0110
1001
,
0000
0001
0110
1001
,
0000
1000
0100
0010
,
0001
0000
1000
0000
0010
0000
0100
0010
,
0100
0001
0100
0010
,
1000
0000
0001
0000
0010
0000
0100
0010
,
0100
1000
0001
0110
,
0000
0001
1000
0110
,
0000
1000
0110
1001
,
0000
0000
0002
0000
0000
0023
0000
0000
,
0230
1300
0100
0010
,
0001
1000
0010
0100
,
0001
0000
1000
0010
0100
0000
0100
0010
,
1000
0001
0010
0100
,
1001
0001
0100
0010
,
1000
0001
0010
0100
,
1000
0000
0001
0010
0100
0000
0100
0010
,
0001
1000
0010
0100
,
1001
0000
1000
0001
0000
0010
0100
0000
,
1000
0001
0000
0200
0020
0330
0000
0000
;

//---------------dance-single - Rygon----------------
#NOTES:
     dance-single:
     X-7:
     Challenge:
     5:
     0.386,0.367,0.234,0.051,0.000,238.000,23.000,5.000,84.000,0.000,0.000,0.386,0.367,0.234,0.051,0.000,238.000,23.000,5.000,84.000,0.000,0.000:
0000
0000
0000
0000
,
0000
0000
0000
0000
,
0000
0000
0000
0000
,
0000
0000
0000
0000
,
0010
0000
0000
1000
0001
0000
0010
0000
,
0000
0001
1000
0000
0010
0000
1001
0000
,
0100
0000
0000
1000
0001
0000
0100
0000
,
0000
0001
1000
0000
0100
0000
MMMM
0000
,
1000
0010
0100
0001
,
1000
0100
0010
0001
,
1000
0100
0010
0000
0010
0100
1000
0000
,
0001
0100
1001
MMMM
,
0001
0010
0100
1000
,
0001
0100
0010
1000
,
0001
0100
0010
0000
0010
0100
0001
0000
,
1000
0100
1001
MMMM
,
1000
0100
0001
0001
,
0100
1000
0001
0100
,
1000
1000
0100
0001
,
1000
0100
0110
MMMM
,
0001
0100
1000
1000
,
0100
0001
1000
0100
,
0001
0001
0100
1000
,
0001
0100
0110
MMMM
,
1000
0010
0001
0001
,
0010
1000
0001
0010
,
1000
1000
0010
0001
,
1000
0010
0110
MMMM
,
0001
0010
1000
1000
,
0010
0001
1000
0010
,
0001
0001
0010
1000
,
0001
0010
0110
0000
,
1000
0000
0100
0000
,
0010
0011
1100
MMMM
,
0001
0000
0100
0000
,
0010
1010
0101
MMMM
,
0100
0010
1000
0100
,
0001
0100
1000
0010
,
0001
0010
1000
0100
,
0010
0100
MMMM
0000
MMMM
0100
0000
1000
,
0001
1000
0010
0100
,
0001
0000
1000
0000
0100
0000
0010
0100
,
0010
0001
0010
0100
,
1000
0000
0001
0000
0100
0000
0010
0100
,
0010
1000
0001
0110
,
MMMM
0001
1000
0110
,
MMMM
1000
0110
1001
,
MMMM
0001
0110
1001
,
MMMM
1000
0100
0010
,
0001
0000
1000
0000
0010
0000
0100
0010
,
0100
0001
0100
0010
,
1000
0000
0001
0000
0010
0000
0100
0010
,
0100
1000
0001
0110
,
MMMM
0001
1000
0110
,
MMMM
1000
0110
1001
,
0000
0000
0002
0000
0000
0023
0000
0000
,
0230
1300
0100
0010
,
0001
1000
0010
0100
,
0001
0000
1000
0010
0100
0000
0100
0010
,
1000
0001
0010
1001
,
MMMM
0001
0100
0010
,
1000
0001
0010
0100
,
1000
0000
0001
0010
0100
0000
0100
0010
,
0001
1000
0010
1001
,
MMMM
0000
1000
0001
MMMM
0010
0100
MMMM
,
1000
0001
MMMM
0200
0020
0330
0000
0000
;

//---------------dance-double - Rygon----------------
#NOTES:
     dance-double:
     X-6:
     Medium:
     5:
     0.366,0.334,0.193,0.041,0.000,229.000,19.000,4.000,0.000,0.000,0.000,0.366,0.334,0.193,0.041,0.000,229.000,19.000,4.000,0.000,0.000,0.000:
00000000
00000000
00000000
00000000
,
00000000
00000000
00000000
00000000
,
00000000
00000000
00000000
00000000
,
00000000
00000000
00000000
00000000
,
00010000
00000000
00000000
00010000
10000000
00000000
00100000
00000000
,
00000000
00100000
01000000
00000000
00010000
00000000
01000000
00000000
,
00001000
00000000
00000000
00001000
00010000
00000000
00000100
00000000
,
00000000
00000100
00000010
00000000
00001001
00000000
00000000
00000000
,
00000001
00000100
00001000
00000000
,
00010000
01000000
10000000
00000000
,
00100000
01000000
00100000
00000000
01000000
00100000
01000000
00000000
,
00100000
01000000
10010000
00000000
,
10000000
01000000
00010000
00000000
,
00001000
00000100
00000001
00000000
,
00000010
00000100
00000010
00000000
00000100
00000010
00000100
00000000
,
00000010
00000100
00001001
00000000
,
00010000
00000100
00010000
00001000
,
01000000
00001000
00010000
00000100
,
00010000
00001000
01000000
00001000
,
00010000
00000100
00011000
00000000
,
00001000
01000000
00001000
00010000
,
00000100
00010000
00001000
01000000
,
00001000
00010000
00000100
00010000
,
00001000
01000000
00011000
00000000
,
00010000
00000010
00010000
00001000
,
00100000
00001000
00010000
00000010
,
00010000
00001000
00100000
00001000
,
00010000
00000010
00011000
00000000
,
00001000
00100000
00001000
00010000
,
00000010
00010000
00001000
00100000
,
00001000
00010000
00000010
00010000
,
00001000
00100000
00011000
00000000
,
00010000
00000100
00000200
00000000
,
00000310
00000000
00000001
00000000
,
00000001
00000100
00000200
00000000
,
00000310
00000000
00001000
00000000
,
00000100
00010000
00001000
00000000
,
01000000
00001000
00010000
00000000
,
00001000
00100000
01000000
10000000
,
00100000
01000000
00000000
00001000
00000000
00010000
00000000
00000100
,
00000010
00000001
00000010
00000100
,
00001000
00000010
00000100
00001000
,
00000000
00010000
00100000
01000000
,
10000000
00100000
01000000
10000000
,
00000000
00000000
01000000
00010000
00100000
00000000
00011000
00000000
,
00000000
00000000
00000100
00001000
00000010
00000000
00011000
00000000
,
00000000
00000000
01000000
00010000
00100000
00000000
00011000
00000000
,
00000000
00000100
00011000
01000000
,
10010000
10000000
01000000
00100000
,
00010000
01000000
00100000
00010000
,
00000000
00001000
00000100
00000010
,
00000001
00000100
00000010
00000001
,
00000000
00000000
00000010
00001000
00000100
00000000
00011000
00000000
,
00000000
00000000
00100000
00010000
01000000
00000000
00011000
00000000
,
00000000
00000000
00000010
00001000
00000100
00000000
00011000
00000000
,
00000000
00100000
00011000
00000010
,
00001001
00000001
00000010
00001000
,
00000000
00010000
00100000
10000000
,
00000000
00000000
01000000
00100000
01000000
00000000
00100000
01000000
,
00100000
01000000
00100000
10010000
,
00000000
10000000
00100000
00010000
,
00000000
00001000
00000010
00000001
,
00000000
00000000
00000100
00000010
00000100
00000000
00000010
00000100
,
00000010
00000100
00000010
00001001
,
00000000
00000000
00000001
00001000
00000000
00001000
00000100
00000000
,
00000100
00010000
00000000
00020000
00002000
00033000
00000000
00000000
;

//---------------dance-double - Rygon----------------
#NOTES:
     dance-double:
     X-7:
     Challenge:
     6:
     0.366,0.334,0.193,0.041,0.000,229.000,19.000,4.000,272.000,0.000,0.000,0.366,0.334,0.193,0.041,0.000,229.000,19.000,4.000,272.000,0.000,0.000: // measure 0
00000000
00000000
00000000
00000000
,  // measure 1
00000000
00000000
00000000
00000000
,  // measure 2
00000000
00000000
00000000
00000000
,  // measure 3
00000000
00000000
00000000
00000000
,  // measure 4
00010000
00000000
00000000
00010000
10000000
00000000
00100000
00000000
,  // measure 5
00000000
00100000
01000000
00000000
00010000
00000000
01000000
00000000
,  // measure 6
00001000
00000000
00000000
00001000
00010000
00000000
00000100
00000000
,  // measure 7
00000000
00000100
00000010
00000000
00001001
00000000
MMMMMMMM
00000000
,  // measure 8
00000001
00000100
00001000
MMMMMMMM
,  // measure 9
00010000
01000000
10000000
MMMMMMMM
,  // measure 10
00100000
01000000
00100000
00000000
01000000
00100000
01000000
00000000
,  // measure 11
00100000
01000000
10010000
MMMMMMMM
,  // measure 12
10000000
01000000
00010000
MMMMMMMM
,  // measure 13
00001000
00000100
00000001
MMMMMMMM
,  // measure 14
00000010
00000100
00000010
00000000
00000100
00000010
00000100
00000000
,  // measure 15
00000010
00000100
00001001
MMMMMMMM
,  // measure 16
00010000
00000100
00010000
00001000
,  // measure 17
01000000
00001000
00010000
00000100
,  // measure 18
00010000
00001000
01000000
00001000
,  // measure 19
00010000
00000100
00011000
MMMMMMMM
,  // measure 20
00001000
01000000
00001000
00010000
,  // measure 21
00000100
00010000
00001000
01000000
,  // measure 22
00001000
00010000
00000100
00010000
,  // measure 23
00001000
01000000
00011000
MMMMMMMM
,  // measure 24
00010000
00000010
00010000
00001000
,  // measure 25
00100000
00001000
00010000
00000010
,  // measure 26
00010000
00001000
00100000
00001000
,  // measure 27
00010000
00000010
00011000
MMMMMMMM
,  // measure 28
00001000
00100000
00001000
00010000
,  // measure 29
00000010
00010000
00001000
00100000
,  // measure 30
00001000
00010000
00000010
00010000
,  // measure 31
00001000
00100000
00011000
MMMMMMMM
,  // measure 32
00010000
00000100
00000200
00000000
,  // measure 33
00000310
MMMMMMMM
00000001
MMMMMMMM
,  // measure 34
00000001
00000100
00000200
00000000
,  // measure 35
00000310
MMMMMMMM
00001000
MMMMMMMM
,  // measure 36
00000100
00010000
00001000
MMMMMMMM
,  // measure 37
01000000
00001000
00010000
MMMMMMMM
,  // measure 38
00001000
00100000
01000000
10000000
,  // measure 39
00100000
01000000
00000000
00001000
MMMMMMMM
00010000
00000000
00000100
,  // measure 40
00000010
00000001
00000010
00000100
,  // measure 41
00001000
00000010
00000100
00001000
,  // measure 42
MMMMMMMM
00010000
00100000
01000000
,  // measure 43
10000000
00100000
01000000
10000000
,  // measure 44
MMMMMMMM
00000000
01000000
00010000
00100000
00000000
00011000
00000000
,  // measure 45
MMMMMMMM
00000000
00000100
00001000
00000010
00000000
00011000
00000000
,  // measure 46
MMMMMMMM
00000000
01000000
00010000
00100000
00000000
00011000
00000000
,  // measure 47
MMMMMMMM
00000100
00011000
01000000
,  // measure 48
10010000
10000000
01000000
00100000
,  // measure 49
00010000
01000000
00100000
00010000
,  // measure 50
MMMMMMMM
00001000
00000100
00000010
,  // measure 51
00000001
00000100
00000010
00000001
,  // measure 52
MMMMMMMM
00000000
00000010
00001000
00000100
00000000
00011000
00000000
,  // measure 53
MMMMMMMM
00000000
00100000
00010000
01000000
00000000
00011000
00000000
,  // measure 54
MMMMMMMM
00000000
00000010
00001000
00000100
00000000
00011000
00000000
,  // measure 55
MMMMMMMM
00100000
00011000
00000010
,  // measure 56
00001001
00000001
00000010
00001000
,  // measure 57
MMMMMMMM
00010000
00100000
10000000
,  // measure 58
MMMMMMMM
00000000
01000000
00100000
01000000
00000000
00100000
01000000
,  // measure 59
00100000
01000000
00100000
10010000
,  // measure 60
MMMMMMMM
10000000
00100000
00010000
,  // measure 61
MMMMMMMM
00001000
00000010
00000001
,  // measure 62
MMMMMMMM
00000000
00000100
00000010
00000100
00000000
00000010
00000100
,  // measure 63
00000010
00000100
00000010
00001001
,  // measure 64
MMMMMMMM
00000000
00000001
00001000
00000000
00001000
00000100
00000000
,  // measure 65
00000100
00010000
00000000
00020000
00002000
00033000
00000000
00000000
;
