#VERSION:0.81;
#TITLE:Hot Air Balloon;
#SUBTITLE:(Mandora Opening Theme);
#ARTIST:Ice Bird;
#TITLETRANSLIT:;
#SUBTITLETRANSLIT:;
#ARTISTTRANSLIT:;
#GENRE:;
#ORIGIN:;
#CREDIT:;
#BANNER:[ROUND 4] - Hot Air Balloon (Mandora OP).png;
#BACKGROUND:[ROUND 4] - Hot Air Balloon (Mandora OP)-bg.png;
#PREVIEWVID:;
#JACKET:[ROUND 4] - Hot Air Balloon (Mandora OP)-jacket.png;
#CDIMAGE:;
#DISCIMAGE:;
#LYRICSPATH:;
#CDTITLE:cdtitle.png;
#MUSIC:[ROUND 4] - Hot Air Balloon (Mandora OP).ogg;
#OFFSET:-0.128;
#SAMPLESTART:4.502;
#SAMPLELENGTH:17.435;
#SELECTABLE:YES;
#DISPLAYBPM:110.000;
#BPMS:0.000=110.000;
#STOPS:;
#DELAYS:;
#WARPS:;
#TIMESIGNATURES:0.000=4=4;
#TICKCOUNTS:0.000=4;
#COMBOS:0.000=1;
#SPEEDS:0.000=1.000=0.000=0;
#SCROLLS:0.000=1.000;
#FAKES:;
#LABELS:0.000=Song Start;
#BGCHANGES:;
#KEYSOUNDS:;
#ATTACKS:
;

//---------------dance-single - ----------------
#NOTEDATA:;
#CHARTNAME:;
#STEPSTYPE:dance-single;
#DESCRIPTION:;
#CHARTSTYLE:;
#DIFFICULTY:Challenge;
#METER:8;
#RADARVALUES:0.505,0.487,0.418,0.187,0.426,344.000,49.000,22.000,0.000,0.000,0.000,0.000,0.000,0.505,0.487,0.418,0.187,0.426,344.000,49.000,22.000,0.000,0.000,0.000,0.000,0.000;
#CREDIT:;
#DISPLAYBPM:110.000;
#NOTES:
// measure 0
0000
0000
0000
0000
,  // measure 1
0000
0000
0000
0000
,  // measure 2
0000
1000
0100
0010
0000
0001
0010
0100
,  // measure 3
0000
1000
0001
0100
0000
0001
1000
0010
,  // measure 4
0000
0100
0010
0001
0000
0010
1000
0001
,  // measure 5
0200
0000
0000
0000
0000
0010
0000
0310
0000
0000
0100
0000
0110
0000
0010
0000
,  // measure 6
1001
0001
0010
0100
0000
1000
0010
0100
,  // measure 7
0101
0000
0000
1010
0000
0000
1100
0000
0000
0000
0002
0000
0020
0000
0000
0000
,  // measure 8
0033
0000
0001
0000
1000
0010
0000
0010
0000
0000
1000
0000
0001
0100
0000
0100
,  // measure 9
0010
0000
0010
0000
0010
0100
0000
1001
0000
0000
0100
0000
0100
0000
0100
0000
,  // measure 10
0000
0000
0001
0000
1000
0100
0000
0100
0000
0000
1000
0000
0001
0010
0000
0010
,  // measure 11
0100
0000
0100
0000
0100
0010
0000
1001
0000
0000
0010
0000
0100
0000
0010
0000
,  // measure 12
1000
0001
0000
0000
0110
0000
0001
1000
0000
0000
1000
0000
0110
0000
0010
0000
,  // measure 13
0100
0001
0000
0000
1100
0000
0001
0100
0000
0000
0100
0000
0011
0000
0001
0000
,  // measure 14
0010
0100
0000
0000
1001
0000
0100
0010
0000
0000
0010
0000
1001
0000
0001
0000
,  // measure 15
0020
0000
0000
0000
0000
0100
0000
0130
0000
0000
1001
0000
1001
0000
0000
0000
,  // measure 16
1000
0010
0000
0000
0101
0000
0001
0010
0000
0000
0010
0000
0110
0000
1000
0000
,  // measure 17
1010
0000
0000
0101
0000
0000
0011
0000
0000
0000
2000
0000
0200
0000
0000
0000
,  // measure 18
3000
0001
1000
0001
,  // measure 19
0320
0001
1000
0031
,  // measure 20
0100
0010
0000
0100
0001
0000
0010
0100
0000
0000
1000
0000
0010
0100
0000
0000
,  // measure 21
0110
0000
0110
0000
0000
0000
0001
1000
0000
1000
0100
0010
0100
0010
0100
0010
,  // measure 22
0002
0000
0100
0000
1003
0000
0000
1000
0000
0000
0010
0000
0100
0000
0001
0000
,  // measure 23
2000
0000
0010
0000
3001
0000
0000
0001
0000
0000
1000
0000
0100
0000
0010
0000
,  // measure 24
0002
0000
1000
0000
0013
0000
0000
0010
0000
0000
0001
0000
0100
0000
0010
0000
,  // measure 25
1000
0000
0000
0010
0000
0000
1000
0100
0000
0100
1000
0000
0011
0000
0000
0000
,  // measure 26
0001
0000
1000
0000
0010
0001
0000
0001
0000
0000
0220
0000
0000
0000
0330
0000
,  // measure 27
0002
0000
0000
0000
1000
0000
0000
0023
0000
0000
0130
0000
0000
0000
0000
0000
,  // measure 28
1000
0000
0001
0000
0100
1000
0100
0001
0000
0000
1000
0000
1100
0000
0010
0000
,  // measure 29
0011
0000
0000
0000
1001
0000
0000
0101
0000
0000
1000
0100
1000
0100
1000
0100
,  // measure 30
0010
0010
0010
0010
,  // measure 31
0001
0001
0001
0001
,  // measure 32
1000
1000
1000
1000
,  // measure 33
0200
0000
0000
0000
0000
0010
0000
0310
0000
0000
0000
0000
0001
0000
0010
0000
,  // measure 34
0200
0000
0000
0000
2300
0000
0000
3002
0000
0000
0000
0000
1003
0000
0100
0000
,  // measure 35
0020
0000
0000
0000
0031
1000
0000
2000
0000
0000
0000
0000
3010
0000
0000
0000
,  // measure 36
0110
0110
1001
1001
,  // measure 37
1100
0000
0000
0000
0000
0110
0000
0000
0000
0000
0011
0000
0000
0000
0000
0001
0000
0000
0010
0000
0000
0100
0000
0000
,  // measure 38
1000
0100
0000
1000
0001
0000
0001
0100
0000
0000
0010
0000
1001
0000
1000
0000
,  // measure 39
0001
0010
0000
0001
1000
0000
1000
0100
0000
0000
0010
0000
0011
0000
0100
0000
,  // measure 40
0010
1000
0000
0010
0100
0000
0100
0001
0000
0000
1000
0000
0101
0000
0001
0000
,  // measure 41
1000
0000
0001
0000
0001
0100
0000
0100
0000
0000
0010
0000
0110
0000
0100
0000
,  // measure 42
0001
1000
0000
0010
0100
0000
0100
0001
0000
0000
1010
0000
1010
0000
0001
0000
,  // measure 43
0001
0010
0001
1000
0010
1000
0100
0000
0000
0000
2002
0000
0000
0000
0000
0000
,  // measure 44
3003
0000
0001
0000
0100
0010
0000
0010
0000
0000
1000
0000
0010
0100
0000
0100
,  // measure 45
0000
0000
0001
0000
0010
0100
0000
0100
0000
0000
1001
0000
1001
0000
0000
0000
,  // measure 46
0000
0000
1000
0000
0010
0001
0000
0001
0000
0000
0001
0000
0010
1000
0000
1000
,  // measure 47
0100
0000
0100
0000
0100
0010
0100
0000
0000
1000
0000
0000
0001
0000
0000
0000
,  // measure 48
0110
0000
0001
0000
1000
0010
0000
0010
0000
0000
0001
0000
1000
0100
0000
0100
,  // measure 49
0000
0000
0001
0000
0010
0100
0000
0100
0000
0000
1001
0000
1001
0000
0000
0000
,  // measure 50
0000
0000
1000
0000
0001
0010
0000
0010
0000
0000
1000
0000
0001
0100
0000
0000
,  // measure 51
0110
0000
0110
0000
0000
0000
0001
1000
0000
1000
0100
0010
0100
0010
0100
0010
;

//---------------dance-single - ----------------
#NOTEDATA:;
#CHARTNAME:;
#STEPSTYPE:dance-single;
#DESCRIPTION:;
#CHARTSTYLE:;
#DIFFICULTY:Medium;
#METER:5;
#RADARVALUES:0.347,0.354,0.324,0.187,0.119,225.000,38.000,22.000,0.000,0.000,0.000,0.000,0.000,0.347,0.354,0.324,0.187,0.119,225.000,38.000,22.000,0.000,0.000,0.000,0.000,0.000;
#CREDIT:;
#DISPLAYBPM:110.000;
#NOTES:
// measure 0
0000
0000
0000
0000
,  // measure 1
0000
0000
0000
0000
,  // measure 2
1000
0100
0001
0100
,  // measure 3
1000
0010
0001
0010
,  // measure 4
1000
0100
0010
0001
,  // measure 5
2000
0000
0000
0000
0000
0001
0000
3001
0000
0000
0000
0000
0110
0000
0000
0000
,  // measure 6
0001
0010
1000
0100
,  // measure 7
0101
0000
0000
1001
0000
0000
1010
0000
0000
0000
2200
0000
0000
0000
3300
0000
,  // measure 8
0000
1000
0101
0000
0000
0001
1010
0000
,  // measure 9
1000
0000
0001
0000
1000
0000
0000
0010
0000
0000
0000
0000
0110
0000
0000
0000
,  // measure 10
0000
0001
1100
0000
0000
1000
0011
0000
,  // measure 11
0100
0000
0100
0000
0100
0000
0000
0010
0000
0000
0000
0000
1001
0000
0000
0000
,  // measure 12
0001
0000
0000
0000
0010
0000
0000
1000
0000
0000
0000
0000
0010
0000
0000
0000
,  // measure 13
0001
0000
0000
0000
0100
0000
0000
1000
0000
0000
0000
0000
0100
0000
0000
0000
,  // measure 14
0001
0000
0000
0000
0010
0000
0000
0100
0000
0000
0000
0000
1000
0000
0000
0000
,  // measure 15
0002
0000
0000
0000
0000
1000
0000
1003
0000
0000
0000
0000
0110
0000
0000
0000
,  // measure 16
1000
0000
0000
0000
0100
0000
0000
0001
0000
0000
0000
0000
0010
0000
0000
0000
,  // measure 17
1010
0000
0000
1001
0000
0000
0101
0000
0000
0000
0022
0000
0000
0000
0000
0000
,  // measure 18
0030
1000
0100
1000
,  // measure 19
0100
1000
0100
1003
,  // measure 20
0000
0010
1100
0000
0000
0100
0011
0000
,  // measure 21
0001
0000
1000
0000
0001
0000
0000
0100
0000
0000
0000
0000
0110
0000
0000
0000
,  // measure 22
0002
0000
0000
0000
1000
0000
0000
0103
0000
0000
1000
0000
0001
0000
0000
0000
,  // measure 23
2000
0000
0000
0000
0001
0000
0000
3010
0000
0000
0001
0000
1000
0000
0000
0000
,  // measure 24
0002
0000
0000
0000
0010
0000
0000
1000
0000
0000
0103
0000
0000
0000
1000
0000
,  // measure 25
2000
0001
0010
3100
,  // measure 26
1000
0001
0100
0000
0010
0100
0001
0000
,  // measure 27
2000
0000
0000
0000
3002
0000
0000
0203
0000
0000
0310
0000
0000
0000
0000
0000
,  // measure 28
0000
1000
1000
0100
0010
0000
0001
0000
,  // measure 29
1001
0000
0000
0000
1001
0000
0000
2002
0000
0000
0000
0000
3003
0000
0000
0000
,  // measure 30
0010
0010
0010
0010
,  // measure 31
0001
0001
0001
0001
,  // measure 32
1000
1000
1000
1000
,  // measure 33
0200
0000
0000
0000
0000
0010
0000
0310
0000
0000
0000
0000
0001
0000
0010
0000
,  // measure 34
0100
1000
0001
0100
,  // measure 35
1000
0100
0001
0010
,  // measure 36
0100
1000
0001
1000
,  // measure 37
0110
0000
0000
0000
0000
0110
0000
0000
0000
0000
0110
0000
0000
0000
0000
0000
0000
0000
0100
0000
0000
0001
0000
0000
,  // measure 38
1000
1000
1000
0000
0001
0100
0001
0000
,  // measure 39
0010
0010
0100
0000
1000
0001
1000
0000
,  // measure 40
0100
0100
0010
0000
0001
1000
0001
0000
,  // measure 41
2000
0000
0000
0000
0000
0001
0000
3001
0000
0000
0000
0000
0000
0000
1000
0000
,  // measure 42
0020
0000
0000
0000
0230
0000
0000
0302
0000
0000
0000
0000
1003
0000
0000
0000
,  // measure 43
1100
0000
0000
0110
0000
0000
0012
0000
0000
0000
0200
0000
0000
0000
0303
0000
,  // measure 44
0000
0100
1010
0000
0000
0010
0101
0000
,  // measure 45
0000
0100
1001
0000
0000
0010
1001
0000
,  // measure 46
0000
0001
1100
0000
0000
0001
1010
0000
,  // measure 47
0100
0000
0100
0000
0100
0000
0000
1001
0000
0000
0000
0000
0110
0000
0000
0000
,  // measure 48
1000
0001
0100
0000
0001
1000
0100
0000
,  // measure 49
1000
0100
0010
0000
0001
0010
0100
0000
,  // measure 50
1000
0001
0100
0000
0010
1000
0001
0000
,  // measure 51
1001
0000
1001
0000
0100
0000
0000
0100
0000
0000
0010
0000
0010
0000
0010
0000
;

//---------------dance-single - ----------------
#NOTEDATA:;
#CHARTNAME:;
#STEPSTYPE:dance-single;
#DESCRIPTION:;
#CHARTSTYLE:;
#DIFFICULTY:Hard;
#METER:7;
#RADARVALUES:0.454,0.398,0.273,0.324,0.298,303.000,32.000,38.000,0.000,0.000,0.000,0.000,0.000,0.454,0.398,0.273,0.324,0.298,303.000,32.000,38.000,0.000,0.000,0.000,0.000,0.000;
#CREDIT:;
#DISPLAYBPM:110.000;
#NOTES:
// measure 0
0000
0000
0000
0000
,  // measure 1
0000
0000
0000
0000
,  // measure 2
1000
0100
0010
0001
0100
0000
0100
0000
,  // measure 3
0001
0010
0100
0010
0001
0000
1000
0000
,  // measure 4
0001
0100
0010
1000
0100
0000
0010
0001
,  // measure 5
0120
0000
0000
0000
0000
1000
0000
1030
0000
0000
0100
0000
0010
0000
0001
0000
,  // measure 6
0002
0000
0000
0000
2003
0000
0000
3200
0000
0000
0010
0000
0310
0000
0000
0000
,  // measure 7
0101
0000
0000
1010
0000
0000
0101
0000
0000
0000
2000
0000
0002
0000
0000
0000
,  // measure 8
3003
0001
0100
1000
0000
1000
0100
0001
,  // measure 9
0010
0000
0010
0000
0010
0000
0000
1001
0000
0000
0100
0000
0100
0000
0100
0000
,  // measure 10
0000
1000
0010
0001
0000
0001
0010
1000
,  // measure 11
0100
0000
0100
0000
0100
0000
0000
1001
0000
0000
0010
0000
0100
0000
0010
0000
,  // measure 12
1000
0100
0000
0000
1010
0000
1000
0100
0000
0000
0010
0000
0010
0000
0000
0000
,  // measure 13
0001
0010
0000
0000
0101
0000
0001
0010
0000
0000
0100
0000
0100
0000
0000
0000
,  // measure 14
1000
0010
0000
0000
1010
0000
1000
0001
0000
0000
0010
0000
0100
0000
1000
0000
,  // measure 15
0002
0000
0000
0000
0000
0100
0000
0103
0000
0000
0010
0000
1000
0000
0100
0000
,  // measure 16
0200
0000
0000
0000
2300
0000
0000
3002
0000
0000
0010
0000
0013
0000
0000
0000
,  // measure 17
1100
0000
0000
0011
0000
0000
1100
0000
0000
0000
2000
0000
0002
0000
0000
0000
,  // measure 18
3000
0100
0010
0100
,  // measure 19
2003
0001
0100
3001
,  // measure 20
0000
0000
1000
0000
0100
0010
0000
0010
0000
0000
0001
0000
1000
0010
0000
0000
,  // measure 21
0010
0000
0110
0000
0000
0000
0001
0010
0000
0100
1000
0000
1000
0000
1000
0000
,  // measure 22
0020
0000
0000
0000
0230
0000
0000
0301
0000
0000
0010
0000
0100
0000
1000
0000
,  // measure 23
0020
0000
0000
0000
0230
0000
0000
0301
0000
0000
1000
0000
0100
0000
0010
0000
,  // measure 24
0002
0000
0000
0000
2003
0000
0000
3100
0000
0000
0010
0000
0100
0000
1000
0000
,  // measure 25
0002
0000
0000
1003
0000
0000
0100
0000
0000
0010
0000
0000
1001
0000
0000
0000
,  // measure 26
1000
0000
0100
0000
0010
0000
0000
0101
0000
0000
1010
0000
0000
0000
0000
0000
,  // measure 27
2000
0000
0000
0000
3002
0000
0000
0203
0000
0000
0310
0000
0000
0000
0000
0000
,  // measure 28
1000
0000
0100
0000
0010
0001
0010
0100
0000
0000
2000
0000
0000
0000
3010
0000
,  // measure 29
0110
0000
0000
0000
0110
0000
0000
0110
0000
0000
0001
0000
1000
0000
0001
0000
,  // measure 30
0010
0010
0010
0010
,  // measure 31
0001
0001
0001
0001
,  // measure 32
1000
1000
1000
1000
,  // measure 33
0200
0000
0000
0000
0000
0010
0000
0310
0000
0000
0000
0000
0001
0000
0100
0000
,  // measure 34
0020
0000
0000
0000
2030
0000
0000
3200
0000
0000
0000
0000
0301
0000
0100
0000
,  // measure 35
2000
0000
0000
0000
3020
0000
0000
0230
0000
0000
0001
0000
0301
0000
1000
0000
,  // measure 36
0010
0000
0000
0000
0010
0000
0000
0100
0000
0000
0010
0000
1000
0000
0100
0000
,  // measure 37
0011
0000
0000
0000
0000
0101
0000
0000
0000
0000
0110
0000
0000
0000
0000
1010
0000
0000
1000
0000
0000
1000
0000
0000
,  // measure 38
0001
0010
0000
0000
0110
0000
0100
1000
0000
0000
0010
0000
0010
0000
0010
0000
,  // measure 39
1000
0010
0000
0000
0110
0000
0100
0001
0000
0000
1000
0000
1000
0000
1000
0000
,  // measure 40
0001
1000
0000
0000
1100
0000
0100
0010
0000
0000
0001
0000
0001
0000
0001
0000
,  // measure 41
1000
0000
0010
0000
0010
0100
0000
0100
0000
0000
0001
0000
0000
0000
1000
0000
,  // measure 42
0002
0000
0000
0000
0023
0000
0000
0230
0000
0000
1000
0000
1300
0000
0000
0000
,  // measure 43
1010
0000
0000
0101
0000
0000
1001
0000
0000
0000
0220
0000
0000
0000
0330
0000
,  // measure 44
0000
0000
1000
0000
0001
0100
0000
0100
0000
0000
0001
0000
1000
0010
0000
0010
,  // measure 45
0000
0000
1000
0000
0001
0010
0000
0020
0000
0000
0100
0000
0130
0000
0000
0000
,  // measure 46
0000
0000
1000
0000
0001
0100
0000
0100
0000
0000
0001
0000
1000
0010
0000
0000
,  // measure 47
0100
0000
0100
0000
0100
0000
0000
1001
0000
0010
0000
0000
0010
0000
0000
0000
,  // measure 48
0000
0000
0100
0000
0010
1000
0000
1000
0000
0000
0010
0000
0100
0001
0000
0001
,  // measure 49
0000
0000
0010
0000
0100
1000
0000
2000
0000
0000
0001
0000
3001
0000
0000
0000
,  // measure 50
0000
0000
0100
0000
0010
1000
0000
1000
0000
0000
0010
0000
0100
0001
0000
0000
,  // measure 51
0100
0000
0110
0000
0000
0000
1000
0100
0000
0010
0001
0000
0001
0000
0001
0000
;

//---------------dance-single - ----------------
#NOTEDATA:;
#CHARTNAME:;
#STEPSTYPE:dance-single;
#DESCRIPTION:;
#CHARTSTYLE:;
#DIFFICULTY:Easy;
#METER:3;
#RADARVALUES:0.271,0.265,0.239,0.102,0.000,183.000,28.000,12.000,0.000,0.000,0.000,0.000,0.000,0.271,0.265,0.239,0.102,0.000,183.000,28.000,12.000,0.000,0.000,0.000,0.000,0.000;
#CREDIT:;
#DISPLAYBPM:110.000;
#NOTES:
// measure 0
0000
0000
0000
0000
,  // measure 1
0000
0000
0000
0000
,  // measure 2
1000
0001
0000
0001
,  // measure 3
0100
0010
0000
0010
,  // measure 4
1000
0100
0000
0010
,  // measure 5
0002
0003
2000
3000
,  // measure 6
0100
0001
1000
0010
,  // measure 7
0100
0110
0110
0110
,  // measure 8
0001
0001
1000
1000
,  // measure 9
0010
0100
0020
0030
,  // measure 10
1000
1000
0001
0001
,  // measure 11
0100
0100
0200
0300
,  // measure 12
0101
0001
1000
0010
,  // measure 13
1010
1000
0001
0100
,  // measure 14
0110
0010
1000
0001
,  // measure 15
0200
0300
0020
0030
,  // measure 16
1000
0001
0010
0100
,  // measure 17
1100
1100
1100
1000
,  // measure 18
0010
0100
0100
0100
,  // measure 19
0001
1000
1000
1000
,  // measure 20
0001
0100
0010
1000
,  // measure 21
0010
0010
0000
0000
0010
0000
0010
0000
,  // measure 22
0200
0000
0301
1000
,  // measure 23
0020
0000
1030
0001
,  // measure 24
0200
0000
0310
1000
,  // measure 25
0020
0000
0130
0001
,  // measure 26
1000
0001
0110
0000
,  // measure 27
0001
1000
0110
0000
,  // measure 28
1000
0010
0001
0010
,  // measure 29
0110
0110
0110
0110
,  // measure 30
0010
0010
0010
0010
,  // measure 31
0001
0001
0001
0001
,  // measure 32
1000
1000
1000
1000
,  // measure 33
0200
0010
0310
0000
,  // measure 34
1000
0001
0010
0100
,  // measure 35
1000
0001
0010
0100
,  // measure 36
1000
0010
0100
0001
,  // measure 37
1001
0110
1001
0110
,  // measure 38
0001
0100
1000
0100
,  // measure 39
1000
0010
0001
0010
,  // measure 40
0100
0001
1000
0010
,  // measure 41
0200
0001
0301
0000
,  // measure 42
1000
0100
0001
0010
,  // measure 43
1010
0101
1010
0100
,  // measure 44
1000
0001
1000
0100
,  // measure 45
0010
0100
0010
0001
,  // measure 46
0100
1000
0100
0001
,  // measure 47
0010
1000
0010
0001
,  // measure 48
0100
0110
0100
0110
,  // measure 49
0010
1010
0010
1010
,  // measure 50
1000
1001
0001
1001
,  // measure 51
1000
1000
0000
0000
0001
0000
0001
0000
;

//---------------dance-single - ----------------
#NOTEDATA:;
#CHARTNAME:;
#STEPSTYPE:dance-single;
#DESCRIPTION:;
#CHARTSTYLE:;
#DIFFICULTY:Beginner;
#METER:2;
#RADARVALUES:0.131,0.176,0.094,0.051,0.000,91.000,11.000,6.000,0.000,0.000,0.000,0.000,0.000,0.131,0.176,0.094,0.051,0.000,91.000,11.000,6.000,0.000,0.000,0.000,0.000,0.000;
#CREDIT:;
#DISPLAYBPM:110.000;
#NOTES:
// measure 0
0000
0000
0000
0000
,  // measure 1
0000
0000
0000
0000
,  // measure 2
1000
0000
0000
0000
,  // measure 3
1000
0000
0000
0000
,  // measure 4
0001
0000
0000
0000
,  // measure 5
0001
0000
0000
0000
,  // measure 6
0100
0000
0000
0000
,  // measure 7
0100
0100
0100
0000
,  // measure 8
0000
0010
0000
0010
,  // measure 9
0000
0010
0000
0000
,  // measure 10
0000
0100
0000
0100
,  // measure 11
0000
0100
0000
0000
,  // measure 12
0001
0000
0000
0000
,  // measure 13
0001
0000
0000
0000
,  // measure 14
1000
0000
0000
0000
,  // measure 15
1000
0000
0000
0000
,  // measure 16
0010
0000
0000
0000
,  // measure 17
0100
0100
0100
0000
,  // measure 18
0002
0000
0003
0000
,  // measure 19
2000
0000
3000
0000
,  // measure 20
0001
0000
0001
0000
,  // measure 21
0100
0000
0100
0000
,  // measure 22
0200
0000
0300
0000
,  // measure 23
0020
0000
0030
0000
,  // measure 24
2000
0000
3000
0000
,  // measure 25
0002
0000
0003
0000
,  // measure 26
1000
0000
1000
0000
,  // measure 27
0001
0000
0001
0000
,  // measure 28
0100
0000
0100
0000
,  // measure 29
0010
0010
0010
0000
,  // measure 30
1000
0000
0001
0000
,  // measure 31
1000
0000
0001
0000
,  // measure 32
1000
0000
0001
0000
,  // measure 33
1000
0000
0001
0000
,  // measure 34
0100
0000
0010
0000
,  // measure 35
0100
0000
0010
0000
,  // measure 36
0100
0000
0010
0000
,  // measure 37
1001
0000
0000
0000
,  // measure 38
1000
1000
1000
0000
,  // measure 39
0001
0001
0001
0000
,  // measure 40
0100
0100
0100
0000
,  // measure 41
0010
0000
0010
0000
,  // measure 42
1000
1000
0001
0001
,  // measure 43
0100
0100
0100
0000
,  // measure 44
1001
0000
1001
0000
,  // measure 45
0110
0000
0000
0000
,  // measure 46
1001
0000
1001
0000
,  // measure 47
0100
0100
0100
0000
,  // measure 48
0110
0000
0110
0000
,  // measure 49
1001
0000
0000
0000
,  // measure 50
0110
0000
0110
0000
,  // measure 51
1000
1000
0001
0001
;
