#TITLE:Flower Dance;
#SUBTITLE:;
#ARTIST:DJ Okawari;
#TITLETRANSLIT:;
#SUBTITLETRANSLIT:;
#ARTISTTRANSLIT:;
#GENRE:;
#CREDIT:;
#BANNER:Flower Dance Banner.png;
#BACKGROUND:Flower Dance BG.png;
#LYRICSPATH:;
#CDTITLE:;
#MUSIC:[ROUND 4] - Flower Dance.ogg;
#OFFSET:0.000;
#SAMPLESTART:57.560;
#SAMPLELENGTH:12.000;
#SELECTABLE:YES;
#BPMS:0.000=100.000
;
#STOPS:
;
#BGCHANGES:;
#KEYSOUNDS:;
#ATTACKS:;

//---------------dance-single - ----------------
#NOTES:
     dance-single:
     :
     Hard:
     7:
     0.450,0.445,0.271,0.076,0.352,330.000,32.000,9.000,0.000,0.000,0.000,0.450,0.445,0.271,0.076,0.352,330.000,32.000,9.000,0.000,0.000,0.000:
0000
0000
0000
0000
,
0000
0000
0000
0000
,
0000
0000
0000
0000
,
0000
0000
0000
0000
,
1001
0000
0000
0000
0000
0001
0010
0100
2000
0000
0000
0000
3001
0000
0000
0000
,
1000
0000
0100
0000
0010
0000
0001
0000
0100
0001
0100
0000
0001
0000
0010
0000
,
0100
1000
0100
0000
0010
0000
0001
0000
1000
0010
1000
0000
0010
0000
0100
0000
,
0001
0010
0100
0000
1000
0010
0100
0000
0001
0010
0100
1000
0100
0010
0001
0000
,
1000
0010
0100
0000
0001
0000
1000
0100
0010
0000
0001
0000
0011
0000
0000
0000
,
0001
0010
0100
0000
1000
0000
0001
0100
0010
0000
1000
0000
1010
0000
0000
0000
,
0001
0010
0001
0000
0100
0000
0010
1000
0010
0000
1000
0000
1010
0000
0000
0000
,
1000
0010
1000
0000
0100
0000
0010
0001
0010
0000
0001
0000
0011
0000
0000
0000
,
0001
0010
0100
0000
1000
0000
0001
0010
0100
0000
1000
0000
1100
0000
0000
0000
,
1000
0010
0100
0000
0001
0000
1000
0010
0100
0000
0001
0000
0101
0000
0000
0000
,
0011
0000
0001
0010
0100
0000
1100
0000
1000
0100
0010
0001
0010
0100
1000
0000
,
0001
0010
0100
0000
1000
0010
0100
0000
0101
0000
0001
0000
0011
0000
0000
0000
,
1001
0000
0000
0000
0000
0001
0010
0100
2000
0000
0000
0000
3001
0000
0000
0000
,
1001
0000
0000
0001
0010
0000
0000
0010
0100
0000
0000
0000
1100
0000
0000
0000
,
2001
0000
0000
0000
3100
0000
0000
0000
1010
0000
1000
0010
1000
0000
0001
0000
,
1001
0000
0001
0010
0100
1000
0100
0010
,
0001
0000
0000
0000
0000
1000
0100
0010
0002
0000
0000
0000
1003
0000
0000
0000
,
0001
0000
0010
0000
0100
0000
1000
0000
0010
1000
0010
0000
0100
0000
0001
0000
,
0010
0001
0010
0000
0100
0000
1000
0000
0001
0100
0001
0000
0010
0000
0100
0000
,
1000
0010
0100
0000
0001
0010
0100
0000
1000
0100
0010
0001
0010
0100
1000
0000
,
1001
0000
0000
0000
0000
1000
0100
0010
0002
0000
0000
0000
1003
0000
0000
0000
,
1001
0000
0000
1000
0100
0000
0000
0100
0010
0000
0000
0000
0011
0000
0000
0000
,
1002
0000
0000
0000
0013
0000
0000
0000
0101
0000
0001
0100
0001
0000
1000
0000
,
1001
0000
1000
0100
0010
0001
0010
0100
,
1000
0000
0000
0000
0000
0001
0010
0100
2000
0000
0000
0000
3001
0000
0000
0000
,
1000
0000
0100
0000
0010
0000
0001
0000
0100
0001
0100
0000
0010
0000
1000
0000
,
0100
1000
0100
0000
0010
0000
0001
0000
1000
0010
1000
0000
0100
0000
0010
0000
,
0001
0010
0100
0000
1000
0010
0100
0000
0001
0010
0100
1000
0100
0010
0001
0000
,
1000
0100
0010
0000
0100
0000
1000
0100
0001
0100
1000
0000
1001
0000
1000
0000
,
0001
0010
0100
0000
0010
0000
0001
0010
1000
0010
0001
0000
1001
0000
0001
0000
,
1000
0010
0100
0000
0010
0000
1000
0010
0100
0010
1000
0000
1001
0000
1000
0000
,
0001
0100
0010
0000
0100
0000
0001
0100
0010
0100
0001
0000
1001
0000
0001
0000
,
1000
0010
1000
0000
0010
0000
1000
0001
0100
0001
1000
0000
1001
0000
1000
0000
,
0001
0100
0001
0000
0100
0000
0001
1000
0010
1000
0001
0000
1001
0000
1000
0000
,
0001
0000
1000
0100
0001
0100
1000
0000
0001
0010
0100
1000
0100
0010
0001
0000
,
1000
0010
0100
0000
0001
0010
0100
0000
1100
0000
1000
0000
1010
0000
0000
0000
,
2002
0000
0000
0000
,
0000
0000
0000
0000
,
3003
0000
0000
0000
;

//---------------dance-single - ----------------
#NOTES:
     dance-single:
     :
     Medium:
     4:
     0.246,0.267,0.017,0.017,0.000,199.000,2.000,2.000,0.000,0.000,0.000,0.246,0.267,0.017,0.017,0.000,199.000,2.000,2.000,0.000,0.000,0.000:
0000
0000
0000
0000
,
0000
0000
0000
0000
,
0000
0000
0000
0000
,
0000
0000
0000
0000
,
1000
0000
0000
0010
0100
0000
0001
0000
,
0010
0100
1000
0000
1000
0010
0100
0000
,
0100
0001
0010
0000
0010
0100
1000
0000
,
1000
0010
0100
0001
0010
0100
1000
0000
,
0010
0000
1000
0000
0100
1000
0010
0000
,
0100
0000
0001
0000
0010
0001
0100
0000
,
0010
0000
1000
0000
0100
0010
0001
0000
,
0010
0000
0100
0000
1000
0010
0100
0000
,
0001
0000
1000
0000
0001
1000
0001
0000
,
1000
0000
0001
0000
1000
0001
1000
0000
,
0010
0000
0100
0000
0001
0010
0100
0000
,
1000
0010
1000
0001
,
1001
0000
0000
0001
1000
0000
0010
0000
,
0100
0001
0010
0000
0100
0000
1000
0000
,
0010
0100
0001
0000
0010
0100
1000
0000
,
0010
1000
0001
0010
0100
1000
0001
1000
,
0010
0000
0000
0100
0001
0000
0010
0000
,
0100
0000
1000
0000
0010
1000
0100
0000
,
0100
0010
0001
0000
0001
0100
0010
0000
,
0010
1000
0100
0000
0100
1000
0010
0100
,
0001
0000
0000
0010
0100
0000
1000
0000
,
0010
1000
0100
0010
,
0001
0000
0100
0000
0010
1000
0001
0010
,
0100
0000
0100
0010
0001
0100
0010
1000
,
0001
0000
0000
0001
1000
0000
0010
0000
,
0100
0001
0010
0100
1000
0001
0100
0010
,
1000
0001
0010
0100
0010
0001
0100
0010
,
0100
0001
0010
0100
1000
0001
0010
0000
,
0100
0000
0010
0000
0001
0100
0001
0000
,
0010
0000
0100
0000
1000
0010
1000
0000
,
0100
0000
0010
0000
0001
0100
0001
0000
,
0010
0000
0100
0000
1000
0010
1000
0000
,
0100
0000
0010
0000
0001
0100
0010
0000
,
1000
0000
0100
0000
0010
0001
0100
0000
,
0010
1000
0001
0000
0010
0100
1000
0000
,
0100
0010
0001
0010
0100
1000
0001
0000
,
2002
0000
0000
0000
,
0000
0000
0000
0000
,
3003
0000
0000
0000
;

//---------------dance-single - ----------------
#NOTES:
     dance-single:
     :
     Easy:
     2:
     0.204,0.214,0.161,0.017,0.000,147.000,19.000,2.000,0.000,0.000,0.000,0.204,0.214,0.161,0.017,0.000,147.000,19.000,2.000,0.000,0.000,0.000: // measure 0
0000
0000
0000
0000
,  // measure 1
0000
0000
0000
0000
,  // measure 2
0000
0000
0000
0000
,  // measure 3
0000
0000
0000
0000
,  // measure 4
0001
0000
0010
0100
,  // measure 5
1000
0010
1000
0000
,  // measure 6
0001
0000
1000
0000
,  // measure 7
0001
0000
1000
0001
,  // measure 8
0010
0000
0100
0000
1000
0100
1000
0000
,  // measure 9
0010
0000
0100
0000
0001
0100
0001
0000
,  // measure 10
0010
0000
0100
0000
1000
0001
1000
0000
,  // measure 11
0001
1000
0001
0000
1000
0001
1000
0000
,  // measure 12
0010
0100
0001
0001
,  // measure 13
0010
0100
1000
1000
,  // measure 14
0001
1001
1000
1001
,  // measure 15
0001
0001
1000
0000
,  // measure 16
1001
0000
0001
0010
,  // measure 17
0100
1000
1001
1000
,  // measure 18
1001
0001
0010
0100
,  // measure 19
1100
0000
1000
0001
,  // measure 20
1001
0000
0001
0010
,  // measure 21
0100
0000
1000
0000
0010
1000
0010
0000
,  // measure 22
0100
0001
0100
0000
0001
0010
0001
0000
,  // measure 23
0010
0100
0010
0000
0100
1000
0100
0000
,  // measure 24
1001
0000
1000
0010
,  // measure 25
0100
0001
0001
1000
,  // measure 26
0010
0100
0001
0001
,  // measure 27
1001
0000
0001
0010
,  // measure 28
0110
0000
0100
1000
,  // measure 29
0010
0000
0100
0000
0001
0100
0001
0000
,  // measure 30
0010
0100
0010
0000
0100
1000
0100
0000
,  // measure 31
1000
0010
1000
0000
0010
0100
0010
0000
,  // measure 32
0100
0001
0010
0011
,  // measure 33
0010
0100
1000
1100
,  // measure 34
1000
0010
0100
0101
,  // measure 35
0001
0010
0100
1100
,  // measure 36
1000
0001
1000
1001
,  // measure 37
0001
1000
0001
1001
,  // measure 38
0001
1001
1000
1001
,  // measure 39
0001
1000
0001
0000
,  // measure 40
2002
0000
0000
0000
,  // measure 41
0000
0000
0000
0000
,  // measure 42
3003
0000
0000
0000
;
