#VERSION:0.81;
#TITLE:Baby Bleep March;
#SUBTITLE:;
#ARTIST:seiya murai;
#TITLETRANSLIT:;
#SUBTITLETRANSLIT:;
#ARTISTTRANSLIT:;
#GENRE:;
#ORIGIN:;
#CREDIT:;
#BANNER:[ROUND 4] - Baby Bleep March-bn.png;
#BACKGROUND:[ROUND 4] - Baby Bleep March-bg.png;
#PREVIEWVID:;
#JACKET:[ROUND 4] - Baby Bleep March-jacket.png;
#CDIMAGE:;
#DISCIMAGE:;
#LYRICSPATH:;
#CDTITLE:cdtitle.png;
#MUSIC:[ROUND 4] - Baby Bleep March.mp3;
#OFFSET:-0.341;
#SAMPLESTART:45.839;
#SAMPLELENGTH:13.333;
#SELECTABLE:YES;
#BPMS:0.000=180.000;
#STOPS:;
#DELAYS:;
#WARPS:;
#TIMESIGNATURES:0.000=4=4;
#TICKCOUNTS:0.000=4;
#COMBOS:0.000=1;
#SPEEDS:0.000=1.000=0.000=0;
#SCROLLS:0.000=1.000;
#FAKES:;
#LABELS:0.000=Song Start;
#BGCHANGES:;
#KEYSOUNDS:;
#ATTACKS:
;

//---------------dance-single - ----------------
#NOTEDATA:;
#CHARTNAME:;
#STEPSTYPE:dance-single;
#DESCRIPTION:;
#CHARTSTYLE:;
#DIFFICULTY:Hard;
#METER:9;
#RADARVALUES:0.756,0.902,0.702,0.231,0.241,453.000,73.000,24.000,0.000,0.000,0.000,0.000,0.000,0.756,0.902,0.702,0.231,0.241,453.000,73.000,24.000,0.000,0.000,0.000,0.000,0.000;
#CREDIT:;
#NOTES:
0000
0000
0000
0000
,
0000
0000
0000
0000
,
0000
0000
0000
0000
,
0000
0000
0000
0000
,
0000
0000
0000
0000
0000
0000
0000
0000
1000
0001
1000
0001
1000
0001
1000
0001
,
1000
0010
1000
0001
1000
0010
1000
0001
,
0010
0100
0010
0001
1000
0010
0100
0010
,
1000
0100
1000
0001
1000
0100
1000
0001
,
0100
0010
0100
0001
1000
0100
0010
0100
,
1000
1000
0010
0010
0100
0010
0100
0010
,
1000
1000
0100
0100
0010
0000
0011
0000
,
0001
0000
0000
0010
0100
0000
0010
0000
0001
0000
0010
0000
0100
0000
1000
0000
,
0001
0000
1000
0010
1000
0010
1000
0000
0001
0000
1000
0100
1000
0100
1000
0000
,
0001
0100
0001
1000
0001
0100
0001
1000
,
0100
0010
0100
1000
0001
0100
0010
0100
,
0001
0010
0001
1000
0001
0010
0001
1000
,
0010
0100
0010
1000
0001
0010
0100
0010
,
0001
0001
0100
0100
0010
1000
0010
1000
,
0001
0001
0010
0010
0100
0000
1100
0000
,
1000
0000
0000
0010
0100
0000
0001
0000
1000
0000
0100
0000
0010
0000
0001
0000
,
1000
0000
0010
1000
0100
0000
1000
0010
0100
0000
0000
0000
0110
0000
0000
0010
,
1000
0000
0000
0000
1010
0000
0000
1000
0001
0000
0000
0000
0011
0000
0000
0001
,
0100
0010
0200
0000
0300
0010
1000
0010
,
0100
0001
1000
0001
0010
0000
0100
0010
,
0002
0000
0000
0000
0000
0000
0000
0000
0003
0000
0000
0000
1010
0000
0000
0010
,
0100
0000
0000
0000
0110
0000
0000
0100
0001
0000
0000
0000
0101
0000
0000
0001
,
1000
0100
2000
0000
3000
0010
0100
0010
,
1000
0000
0000
0000
0001
0000
0000
1000
0010
0000
0100
0000
0010
0000
1000
0000
,
0100
0000
0010
0001
0010
0001
0010
0001
0010
0000
0000
0000
0001
1000
0010
1000
,
0010
1000
0010
1000
0010
1000
0010
1000
0010
0000
0000
0000
0001
1000
0100
1000
,
0100
1000
0100
1000
0100
1000
0100
1000
0100
0000
0000
0000
0010
0000
0000
0100
,
0001
0010
0001
1000
0001
0100
0001
1000
,
0001
0010
0100
1000
0001
1000
0100
0010
,
0000
0011
0000
0001
0100
0000
0110
0000
,
1010
1001
0011
1001
,
0000
1100
0000
1000
0010
0000
0110
0000
,
1010
0000
0000
1000
0001
0000
0010
0000
1000
0000
0010
0000
0001
0000
1000
0000
,
0000
1010
0000
0010
0100
0000
0110
0000
,
0101
0000
1001
0000
1100
0000
0010
0001
,
0010
0000
0000
0001
0000
0000
1000
0000
0010
0000
0000
0000
0100
0000
0000
0000
,
0001
1000
0100
1000
0001
1000
0100
1000
,
0001
0100
1000
0100
0001
0100
1000
0100
,
0000
0110
0220
0330
0110
0220
0330
0100
,
0001
0010
1000
0010
0001
0010
1000
0010
,
0000
0110
0220
0330
0110
0220
0330
0100
,
1000
1100
0001
0101
,
1000
0010
2000
0000
3000
0001
0010
0001
,
1000
0100
1000
0001
1000
0000
0010
0100
,
0002
0000
0003
1000
,
0001
0011
1000
1010
,
0001
0100
0002
0000
0003
1000
0010
1000
,
0001
0000
0000
0000
1001
0000
0000
1000
0010
0000
0100
0000
0001
0000
0010
0000
,
0100
1000
0001
0000
0100
0001
1000
0000
0000
1001
0000
0000
,
0000
0101
0000
0100
0010
0000
0110
0000
,
1010
1001
0011
1001
,
0000
1010
0000
0010
0100
0000
0110
0000
,
0101
0000
0000
0001
1000
0000
0100
0000
0010
0000
0100
0000
1000
0000
0010
0000
,
0000
1010
0000
0010
0100
0000
0110
0000
,
0101
0000
1001
0000
1100
0000
0001
0010
,
0001
0000
0000
1000
0000
0000
0010
0000
1000
0000
0000
0000
0001
0000
0000
0000
,
2002
0000
0000
0000
0000
0000
0000
3003
,
0000
0011
0000
0010
0100
0000
0110
0000
,
1100
1001
0101
1001
,
0000
1100
0000
0100
0010
0000
0110
0000
,
0011
0000
0000
0001
1000
0000
0010
0000
0100
0000
0010
0000
1000
0000
0001
0000
,
0000
0101
0000
0100
0010
0000
0110
0000
,
1010
0000
1001
0000
1100
0000
0001
0100
,
0001
0000
0000
1000
0000
0000
0100
0000
1000
0000
0000
0000
0001
0000
0000
0000
,
1000
0000
0000
0010
0000
0000
0100
0000
0010
0000
0000
0000
1000
0000
0000
0000
,
0001
0000
0000
0010
0000
0000
0100
0000
0010
0000
0000
0000
0001
0000
0000
0000
,
1000
0010
0100
0010
1000
0010
0100
0010
,
0000
0110
0220
0330
0110
0220
0330
0100
,
0001
0010
0100
0010
0001
0010
0100
0010
,
0000
0110
0220
0330
0110
0220
0330
0100
,
1000
0000
0000
0000
0000
0000
0000
0000
0001
0000
0000
0000
0100
0010
0100
0010
,
0100
0000
0000
0000
;

//---------------dance-single - ----------------
#NOTEDATA:;
#CHARTNAME:;
#STEPSTYPE:dance-single;
#DESCRIPTION:;
#CHARTSTYLE:;
#DIFFICULTY:Medium;
#METER:7;
#RADARVALUES:0.560,0.541,0.250,0.212,0.000,359.000,26.000,22.000,0.000,0.000,0.000,0.000,0.000,0.560,0.541,0.250,0.212,0.000,359.000,26.000,22.000,0.000,0.000,0.000,0.000,0.000;
#CREDIT:;
#NOTES:
// measure 0
0000
0000
0000
0000
,  // measure 1
0000
0000
0000
0000
,  // measure 2
0000
0000
0000
0000
,  // measure 3
0000
0000
0000
0000
,  // measure 4
0000
0000
0000
0000
,  // measure 5
0001
0011
1000
1010
,  // measure 6
0001
0010
0100
0000
1000
0100
0010
0000
,  // measure 7
0001
0101
1000
1100
,  // measure 8
0001
0100
0010
0000
1000
0010
0100
0000
,  // measure 9
0001
0010
0001
0010
0001
0000
1000
0000
,  // measure 10
0001
0100
0001
0100
0010
0000
1010
0000
,  // measure 11
1000
0000
1000
0100
1000
0001
1000
0010
,  // measure 12
0100
0001
0010
0001
1000
0001
0010
0001
,  // measure 13
1000
1010
0001
0011
,  // measure 14
1000
0010
0100
0000
0001
0100
0010
0000
,  // measure 15
1000
1100
0001
0101
,  // measure 16
1000
0100
0010
0000
0001
0010
0100
0000
,  // measure 17
1000
0010
1000
0010
1000
0000
0001
0000
,  // measure 18
1000
0100
1000
0100
0010
0000
0011
0000
,  // measure 19
0001
0000
0001
0010
0001
0100
0001
1000
,  // measure 20
0010
0100
0001
0100
0010
0000
0110
0000
,  // measure 21
1000
0100
0010
0000
0010
0100
1000
0000
,  // measure 22
0001
0100
0010
0000
0000
0100
0001
0100
,  // measure 23
0001
0010
0100
0010
0001
0000
1000
0010
,  // measure 24
0200
0000
0300
0110
,  // measure 25
1000
0010
0100
0000
0100
0010
1000
0000
,  // measure 26
0001
0010
0100
0000
0000
0010
0001
0010
,  // measure 27
0001
0000
1000
0000
0010
1000
0100
1000
,  // measure 28
0010
0100
0010
0100
0010
0000
1000
0000
,  // measure 29
0001
0010
0001
0010
0001
0000
1000
0000
,  // measure 30
0001
0100
0001
0100
0001
0000
1000
0000
,  // measure 31
0002
0003
2000
3000
0002
0003
2000
3000
,  // measure 32
0002
0003
0200
0300
0010
1000
0010
1000
,  // measure 33
0000
1010
0000
1000
0001
0000
0010
0000
,  // measure 34
0100
1000
0100
1000
,  // measure 35
0000
0011
0000
0001
1000
0000
0010
0000
,  // measure 36
0100
0000
0001
0000
0100
0010
0100
0010
,  // measure 37
0000
1010
0000
1000
0001
0000
0010
0000
,  // measure 38
0100
0000
0010
0000
0100
0000
0010
0001
,  // measure 39
0010
0001
1000
0001
,  // measure 40
0100
0010
1000
0100
,  // measure 41
1000
0010
1000
0010
1000
0010
1000
0010
,  // measure 42
0000
0100
0020
0030
0100
0020
0030
0100
,  // measure 43
0001
0010
0001
0010
0001
0010
0001
0010
,  // measure 44
0000
0100
0020
0030
0100
0020
0030
0100
,  // measure 45
1000
1100
0001
0101
,  // measure 46
1000
0100
2000
0000
3000
0010
0100
0010
,  // measure 47
1000
0100
1000
0100
0010
0000
0001
0010
,  // measure 48
0200
0000
0300
1000
,  // measure 49
0001
0011
1000
1010
,  // measure 50
0001
0100
0002
0000
0003
0010
0100
0010
,  // measure 51
0100
0000
1000
0000
0001
0100
0001
1000
,  // measure 52
0020
0000
0200
0330
,  // measure 53
0000
0101
0000
0001
1000
0000
0100
0000
,  // measure 54
0010
0001
0010
0001
,  // measure 55
0000
1100
0000
1000
0001
0000
0100
0000
,  // measure 56
0010
0000
1000
0000
0010
0100
0010
0100
,  // measure 57
0000
0101
0000
0001
1000
0000
0100
0000
,  // measure 58
0010
0000
0100
0000
0010
0000
0100
1000
,  // measure 59
0100
1000
0010
1000
,  // measure 60
2002
0000
0000
3003
,  // measure 61
0000
0101
0000
0001
1000
0000
0001
0000
,  // measure 62
1000
0100
0010
0001
,  // measure 63
0000
1010
0000
1000
0001
0000
1000
0000
,  // measure 64
0001
0000
0010
0000
0100
1000
0100
1000
,  // measure 65
0000
1100
0000
1000
0001
0000
0100
0000
,  // measure 66
0001
0000
0010
0000
0100
0000
0010
0001
,  // measure 67
0010
0001
1000
0001
,  // measure 68
0100
0001
1000
0001
,  // measure 69
0010
0001
1000
0001
,  // measure 70
1000
0010
1000
0010
1000
0010
1000
0010
,  // measure 71
0000
0100
0020
0030
0100
0020
0030
0100
,  // measure 72
0001
0010
0001
0010
0001
0010
0001
0010
,  // measure 73
0000
0100
0020
0030
0100
0020
0030
0100
,  // measure 74
1000
0000
0000
0000
0001
0000
0100
0010
,  // measure 75
0100
0000
0000
0000
;

//---------------dance-single - ----------------
#NOTEDATA:;
#CHARTNAME:;
#STEPSTYPE:dance-single;
#DESCRIPTION:;
#CHARTSTYLE:;
#DIFFICULTY:Easy;
#METER:4;
#RADARVALUES:0.322,0.289,0.067,0.241,0.000,202.000,7.000,25.000,0.000,0.000,0.000,0.000,0.000,0.322,0.289,0.067,0.241,0.000,202.000,7.000,25.000,0.000,0.000,0.000,0.000,0.000;
#CREDIT:;
#NOTES:
0000
0000
0000
0000
,
0000
0000
0000
0000
,
0000
0000
0000
0000
,
0000
0000
0000
0000
,
0000
0000
0000
0000
,
1000
0010
1000
0010
,
2000
3000
0002
0003
,
1000
0100
1000
0100
,
2000
3000
0002
0003
,
1000
0100
0010
0000
,
0001
0100
0010
0000
,
1000
0100
1000
0100
,
0020
0030
0002
0003
,
1000
0010
1000
0010
,
2000
3000
0200
0300
,
1000
0100
1000
0100
,
2000
3000
0020
0030
,
1000
0010
0100
0000
,
0001
0010
0100
0000
,
1000
0010
1000
0010
,
0200
0300
0002
0003
,
1100
0000
1100
0000
,
1000
0001
0000
0001
,
1000
0010
0100
0001
,
2000
0000
0000
3000
,
0011
0000
0011
0000
,
0001
1000
0000
1000
,
0001
0100
0010
1000
,
0001
0000
1000
0000
,
0200
0000
0300
0000
,
0020
0000
0030
0000
,
0001
1000
0001
1000
,
0001
1000
0001
1000
,
0000
0001
0000
0000
1000
0000
0100
0000
,
1000
1000
1000
1000
,
0000
0001
0000
0000
1000
0000
0010
0000
,
0100
0001
0100
0001
,
0000
1000
0000
0000
0001
0000
0010
0000
,
0001
0100
0001
1000
,
0100
0000
0010
0000
,
0200
0000
0000
0300
,
1000
1000
1000
1000
,
0002
0000
0000
0003
,
1000
1000
1000
1000
,
0002
0000
0000
0003
,
1000
0010
1000
0010
,
0100
0010
0000
0010
,
1000
0001
1000
0001
,
0020
0000
0000
0030
,
0001
0100
0001
0100
,
0001
0010
0000
0010
,
0001
1000
0001
1000
,
0010
0000
0220
0330
,
0000
1000
0000
0000
0001
0000
0010
0000
,
0001
0001
0001
0001
,
0000
1000
0000
0000
0001
0000
0100
0000
,
0010
1000
0010
1000
,
0000
0001
0000
0000
1000
0000
0100
0000
,
1000
0010
1000
0001
,
0010
0000
0100
0000
,
0220
0000
0000
0330
,
0000
0010
0000
0000
0001
0000
1000
0000
,
0001
0100
0001
0100
,
0000
0010
0000
0000
1000
0000
0001
0000
,
1000
0100
1000
0100
,
0000
0010
0000
0000
0001
0000
1000
0000
,
0001
0100
0001
1000
,
0100
0000
0010
0000
,
0010
0000
0100
0000
,
0100
0000
0010
0000
,
0001
0001
0001
0001
,
2000
0000
0000
3000
,
0001
0001
0001
0001
,
2000
0000
0000
3000
,
0010
0000
0100
0000
,
0110
0000
0000
0000
;
