#TITLE:asdfmovie song;
#SUBTITLE:;
#ARTIST:Lil Deuce Deuce;
#TITLETRANSLIT:;
#SUBTITLETRANSLIT:;
#ARTISTTRANSLIT:;
#GENRE:;
#CREDIT:;
#BANNER:[ROUND 3] - asdfmovie song.bn.png;
#BACKGROUND:[ROUND 3] - asdfmovie song.bg.png;
#LYRICSPATH:;
#CDTITLE:cdtitle.png;
#MUSIC:[ROUND 3] - asdfmovie song.ogg;
#OFFSET:-2.611;
#SAMPLESTART:49.488;
#SAMPLELENGTH:12.000;
#SELECTABLE:YES;
#BPMS:0.000=128.130
;
#STOPS:
;
#BGCHANGES:;
#KEYSOUNDS:;
#ATTACKS:;

//---------------dance-single - ----------------
#NOTES:
     dance-single:
     :
     Hard:
     8:
     0.540,0.546,0.140,0.293,0.276,479.000,20.000,42.000,0.000,0.000,0.000,0.540,0.546,0.140,0.293,0.276,479.000,20.000,42.000,0.000,0.000,0.000:
1000
0100
1000
0001
0100
0000
0010
0000
0000
0000
0100
0001
0010
0000
0000
0100
,
0010
0000
0000
0000
0001
0000
1001
0000
0010
1000
0010
1000
0001
0000
0000
0000
,
0010
0001
0010
0100
1000
0001
0000
0000
0000
0000
1000
0010
1000
0000
0001
0000
,
0010
0000
0100
0110
0020
0000
0000
0030
,
0000
0000
0001
0100
1000
0000
0100
0000
0000
0000
0010
0100
0001
0000
0000
0001
,
1000
0000
0001
0011
0020
0000
0000
0030
,
0001
0100
0010
1000
0001
0000
0000
0000
0000
0000
1000
0100
0010
0000
0000
0010
,
0100
0000
0000
0000
1000
0000
0010
0100
0010
1000
0001
0010
0100
0010
0001
1000
,
0010
1000
0001
1000
0100
0000
0010
0000
0000
0000
0001
0100
0001
0000
0000
0001
,
0010
0000
0000
0000
0000
0000
0000
0000
0000
0000
0000
0000
0100
0000
0000
0000
0000
0000
1000
0000
0000
0100
0000
0000
1000
0000
0000
0001
0000
0000
0000
0000
0000
0001
0000
0000
0100
0000
0000
0000
0010
0000
0000
0000
0100
0000
0000
0000
,
0001
1000
0100
0001
0100
0000
0000
0000
0000
0000
0010
0001
0010
0000
0001
0000
,
1000
0000
0000
0000
0010
0000
0110
0000
0200
0000
0000
0300
0002
0000
1000
0003
,
0100
1000
0100
0010
0001
0000
0000
0000
1001
0000
0000
0000
0010
0000
0100
0000
,
0002
0000
0000
0000
0000
0000
0000
0003
0200
0000
0000
0300
2000
0000
0100
3000
,
0001
1000
0001
0010
0100
0000
0000
0000
0110
0000
0000
0000
0010
0000
0001
0000
,
2000
0000
0000
0000
0000
0000
0000
3000
0020
0000
0000
0030
0200
0000
0000
0300
,
0001
1000
0100
0000
0100
1000
0010
0000
,
0100
0000
0101
0001
1000
0000
0100
0000
,
0010
0001
0010
0000
0000
0100
1000
0100
,
0010
0000
0001
1000
0010
0000
1000
0000
,
0001
0000
0010
0001
1000
0000
0000
0000
0010
0000
1000
0001
0010
0000
0000
0000
,
0011
0000
0000
0000
0001
0000
1001
0000
2000
0000
0000
0000
0000
0000
0000
3000
,
0010
0100
0010
1000
0010
0000
0000
0000
0000
0000
0100
0001
0100
0000
0000
0010
,
1000
0000
0000
0000
0001
0000
0011
0000
0020
0000
0000
0000
0000
0000
0000
0030
,
0000
0000
0012
0000
0000
1003
0010
1000
,
0100
0020
0000
0000
0000
0130
1000
0001
,
0100
0020
0000
0000
0000
0130
0010
1000
,
0001
2000
0000
0000
0000
3001
0010
0001
,
0100
0010
0200
0000
0000
0301
0010
1000
,
0010
0002
0000
0000
0000
1003
0010
0001
,
0010
2000
0000
0000
0000
3100
0010
0001
,
0010
0200
0000
0000
0000
1300
0010
0100
,
0010
1000
0002
0000
0023
0000
0230
0000
,
2300
0000
0000
0000
3001
0010
0100
0010
0001
0000
1000
0000
0000
0000
0010
0100
,
0010
0000
0000
0010
1000
0000
0000
0000
0001
0000
0011
0000
0010
0100
0010
0100
,
1000
0000
0000
0000
0100
1000
0010
0100
0001
0100
0000
0000
0000
0000
0010
0100
,
0010
1000
0001
0000
0010
0110
0200
0000
,
0000
0000
0000
0300
0000
0000
1000
0010
2000
0000
0000
0000
0000
3000
0001
0100
,
0001
0000
0000
1000
0010
0000
0000
0000
0100
0000
0110
0000
0020
0000
0000
0000
,
0000
0000
0000
0030
0100
0001
0100
0010
1000
0000
0000
0000
0000
0000
0001
0010
,
0100
0000
0000
0010
0001
0000
0000
0000
1000
0000
0010
0100
0010
1000
0001
0000
,
0010
0100
0010
0001
1000
0001
0100
0010
,
1000
0002
0000
0000
,
0000
0000
0000
0003
1000
0000
0000
0000
0010
0000
0100
0000
0010
0000
0000
0000
,
2000
0000
0000
0000
,
0000
0000
0000
3000
0001
0000
0010
0100
0000
1000
0010
0000
1000
0001
0000
0010
,
0001
0000
0010
0000
0100
0000
1000
0100
0000
1000
0010
0000
0100
0001
0000
1000
,
0100
0000
0010
0000
0100
0000
0010
0001
0000
0100
0001
0000
1000
0010
0000
1000
,
0100
0000
1000
0000
0001
0000
1000
0010
0000
1000
0001
0000
0010
0100
0000
0010
,
0001
1000
0010
0100
0001
0100
0010
1000
,
0100
0001
0100
1000
0010
0100
0001
1000
,
0100
0010
0100
1000
0010
0100
0001
1000
,
0001
0010
0001
1000
0100
0010
0100
1000
,
0001
2000
0010
0000
0010
0000
0010
0000
,
0010
0000
0000
3000
0010
0000
1000
0000
0010
0000
0100
0000
0001
0000
1000
0000
,
0100
0000
1000
0010
1000
0001
0100
0010
,
0100
0000
0001
0010
0001
0100
0010
1000
,
0001
0000
1000
0100
0010
0100
1000
0010
,
0100
0000
0001
1000
0100
0000
1000
0001
,
0100
0000
0001
1000
0010
0000
1000
0001
,
0010
0000
0100
1000
0100
0000
0010
0001
,
0010
0000
0100
1000
0010
0000
0100
0001
,
0010
0000
0200
0000
0000
1300
0100
0010
,
0001
2000
0000
0000
0000
3010
1000
0010
,
0100
0002
0000
0000
0000
1003
0100
0001
,
0100
0020
0000
0000
0000
0130
1000
0100
,
0010
0001
2000
0000
0000
3010
0100
0010
,
1000
0002
0000
0000
0000
0013
0001
0010
,
0100
2000
0000
0000
0000
3010
1000
0010
,
0100
0002
0000
0000
0000
1003
0100
1000
,
0001
0100
0020
0000
2030
0000
3002
0000
,
0023
0130
1100
1000
,
1001
0000
0001
0000
0101
0000
0100
0010
,
0100
0010
1010
1000
,
1001
0001
0011
0000
;

//---------------dance-single - ----------------
#NOTES:
     dance-single:
     :
     Challenge:
     8:
     0.484,0.496,0.126,0.217,0.224,436.000,18.000,31.000,228.000,0.000,0.000,0.484,0.496,0.126,0.217,0.224,436.000,18.000,31.000,228.000,0.000,0.000:
0001
0010
0001
1000
0010
0000
MMMM
0000
0000
0000
0010
1000
0100
0000
MMMM
0000
,
0010
0000
0000
0000
0001
0000
1001
0000
0100
0001
0100
0000
MMMM
0000
0000
0000
,
0010
1000
0001
1000
0100
0000
0000
0000
MMMM
0000
0001
0100
0001
0000
1000
0000
,
0100
0000
0010
0110
0200
0000
0000
0300
,
0000
0000
1000
0010
0001
0000
0010
0000
MMMM
0000
0100
0010
1000
0000
0000
1000
,
0001
0000
1000
1100
0200
0000
0000
0300
,
1000
0010
0100
0001
1000
0000
0000
0000
MMMM
0000
0001
0010
0100
0000
0000
0100
,
0010
0000
0000
0000
0001
0000
0100
0010
0100
0001
0000
1000
0100
1000
0000
0001
,
0100
0001
1000
0001
0010
0000
MMMM
0000
0000
0000
1000
0010
1000
0000
0000
1000
,
0100
0000
0000
0000
0010
0000
0001
0010
0001
1000
0000
1000
0010
0000
MMMM
0000
,
1000
0001
0010
1000
0010
0000
0000
0000
MMMM
0000
0100
1000
0100
0000
1000
0000
,
0001
0000
0100
0110
0010
MMMM
1000
0001
,
0010
0001
0010
0100
1000
0000
0000
0000
MMMM
0000
0000
0000
0100
0000
0010
0000
,
2000
0000
0000
0000
0000
0000
0000
3000
0020
0000
0000
0030
0002
0000
0010
0003
,
1000
0001
1000
0100
0010
0000
0000
0000
MMMM
0000
0000
0000
0100
0000
1000
0000
,
0002
0000
0000
0000
0000
0000
0000
0003
0200
0000
0000
0300
0020
0000
0000
0030
,
1000
0001
0010
0000
0010
0001
0100
0000
,
0010
0000
1010
1000
MMMM
0000
0000
0000
,
0100
1000
0100
0000
0000
0010
0001
0010
,
0100
0000
1000
0001
0100
0000
MMMM
0000
,
1000
0000
0100
1000
0001
0000
0000
0000
0100
0000
0001
1000
0100
0000
0000
0000
,
1100
0000
0000
0000
1000
0000
1001
0000
0002
0000
0000
0000
0000
0000
0000
0003
,
0100
0010
0100
0001
0100
0000
0000
0000
MMMM
0000
0010
1000
0010
0000
0000
0100
,
0001
0000
1000
1100
0100
MMMM
0100
MMMM
,
0000
0000
2100
0000
0000
3001
0100
0001
,
0010
0100
MMMM
0000
0000
0010
0001
1000
,
0010
0100
MMMM
0000
0000
0010
0100
0001
,
1000
0001
MMMM
0000
0000
1000
0100
1000
,
0010
0100
0010
MMMM
0000
1000
0100
0001
,
0100
1000
MMMM
0000
0000
0001
0100
1000
,
0100
0001
MMMM
0000
0000
0010
0100
1000
,
0100
0010
MMMM
0000
0000
0001
0100
0010
,
0100
0001
2000
0000
3200
0000
0320
0000
,
0032
0000
0000
0000
1003
0100
0010
0100
1000
0000
0000
0000
MMMM
0000
0100
0010
,
0100
0000
MMMM
0000
0001
0000
0000
0000
1000
0000
1100
0000
0100
0010
0100
0000
,
MMMM
0000
0000
0000
0010
0001
0100
0010
1000
0010
0000
0000
MMMM
0000
0100
0010
,
0100
0001
1000
0000
0100
0110
0020
0000
,
0000
0000
0000
0030
0000
0000
0001
0100
0001
0000
0000
0000
MMMM
0000
1000
0010
,
1000
0000
0000
0001
0100
0000
0000
0000
0010
0000
0110
0000
0200
0000
0000
0000
,
0000
0000
0000
0300
0010
1000
0010
0100
0001
0000
0000
0000
MMMM
0000
1000
0100
,
0010
0000
0000
0100
1000
0000
0000
0000
0001
0000
0100
0010
0100
0001
1000
0000
,
0100
0010
0100
1000
0001
1000
0010
0100
,
0001
MMMM
2000
0000
0000
0000
0000
0000
,
0000
0000
0000
3000
0001
0000
0000
0000
0010
0000
0100
0000
0010
0000
MMMM
0000
,
0002
0000
0000
0000
,
0000
0000
0000
0003
1000
0000
0000
0001
0100
0000
MMMM
0000
0010
0000
0000
1000
,
0100
0000
MMMM
0000
0010
0000
0000
0001
0100
0000
MMMM
0000
0010
0000
0000
0100
,
0001
0000
MMMM
0000
0010
0000
0000
0100
1000
0000
MMMM
0000
0001
0000
0000
1000
,
0010
0000
MMMM
0000
0100
0000
0000
0010
1000
0000
MMMM
0000
0100
0000
0000
0010
,
0001
MMMM
0100
0010
1000
0010
0100
0001
,
0010
MMMM
0010
0001
0100
0010
1000
0001
,
0010
MMMM
0010
0001
0100
0010
1000
0001
,
1000
MMMM
1000
0001
0010
0100
0010
0001
,
1000
0002
0100
0000
0100
0000
0100
0000
,
0100
0000
0000
0003
0100
0000
0001
0000
0100
0000
0010
0000
1000
0000
0001
0000
,
0010
MMMM
0001
0100
0001
1000
0010
0100
,
0010
MMMM
1000
0100
1000
0010
0100
0001
,
1000
MMMM
0001
0010
0100
0010
0001
0100
,
0010
MMMM
1000
0001
0010
0000
0001
1000
,
0010
MMMM
1000
0001
0100
0000
0001
1000
,
0100
MMMM
0010
0001
0010
0000
0100
1000
,
0100
MMMM
0010
0001
0100
0000
0010
1000
,
0100
0000
0020
0000
0000
0031
0010
0100
,
1000
0002
0000
0000
0000
0103
0001
0100
,
0010
2000
0000
0000
0000
3001
0010
1000
,
0010
0200
0000
0000
0000
0310
0001
0010
,
0100
MMMM
2000
0000
3000
0001
0100
0001
,
1000
0200
0000
0000
0000
1300
0010
0100
,
0001
0020
0000
0000
0000
0031
0100
0010
,
0100
0002
0000
0000
0000
1003
0100
1000
,
0010
MMMM
0200
0000
0320
0000
2030
0000
,
3002
0013
0011
MMMM
,
1001
0000
MMMM
0000
1010
0000
0010
0100
,
0010
0100
0101
MMMM
,
1001
MMMM
1100
MMMM
;

//---------------dance-single - ----------------
#NOTES:
     dance-single:
     :
     Medium:
     7:
     0.473,0.418,0.210,0.286,0.038,403.000,30.000,41.000,0.000,0.000,0.000,0.473,0.418,0.210,0.286,0.038,403.000,30.000,41.000,0.000,0.000,0.000:
0001
0000
0101
0000
1000
0100
0010
0000
,
0100
0000
1100
1000
0001
0100
0001
0000
,
1000
0000
1100
0000
0001
0100
0010
0000
,
0100
0000
0101
0001
2000
0000
0100
3000
,
0001
0100
0010
0000
0100
0001
1000
0000
,
0001
0000
0011
0010
0200
0000
0000
0300
,
1000
0000
0010
0000
0100
0000
0000
0000
0000
0000
0010
0000
1000
0000
0000
1000
,
0100
0000
0110
0010
0001
0100
1000
0100
,
0010
0000
0110
0000
0100
0001
1000
0000
,
0100
0000
1100
1000
0002
0003
0200
0300
,
0010
0000
1010
0000
1000
0001
0010
0000
,
0100
0000
0110
0010
0001
1000
0001
0100
,
0001
0010
0100
0000
1100
0000
1000
0010
,
0200
0000
0000
0000
0310
0000
1000
0100
,
1000
0010
0100
0000
0101
0000
0001
0010
,
0200
0000
0000
0000
0310
0001
0010
0001
,
1000
0010
0100
0000
0010
1000
0100
0000
,
0010
0000
0011
0001
0010
0100
1000
0001
,
0010
0001
0100
0000
0010
0100
0001
0000
,
1000
0000
1100
0100
1000
0010
0100
0001
,
0010
0100
0010
0000
0100
0010
0100
0000
,
0010
0000
0011
0001
2000
0000
0000
3000
,
0010
0000
0100
0000
0001
0000
0000
0000
0000
0000
1000
0000
0100
0000
0000
0100
,
0010
0000
0100
1000
0001
0100
0010
1000
,
0000
0000
2002
0000
3003
1000
0010
0001
,
0010
2000
0000
0000
0000
3001
0010
1000
,
0010
0002
0000
0000
0000
1003
0010
0100
,
0001
2000
0000
0000
0000
3001
0010
0100
,
1000
0001
2000
0000
0000
3010
0100
0010
,
1000
0002
0000
0000
0000
0013
0100
0010
,
0001
2000
0000
0000
0000
3010
0100
1000
,
0100
0020
0000
0000
0000
0130
0001
0010
,
0100
0010
0002
0003
0200
0300
2000
3000
,
0020
0030
0001
0000
0011
0000
0100
1000
,
0001
0000
1000
0000
1010
0010
0100
0001
,
0100
0000
0010
0000
1010
0000
1000
0001
,
0010
0000
0100
0000
1100
1000
0002
0000
,
0100
0003
1000
0100
0010
0000
0001
0100
,
0010
0000
1000
0000
1001
0001
0020
0000
,
0000
0030
0100
1000
0100
0000
0000
0010
,
0001
0000
0000
0001
1000
0000
0000
0000
1010
0000
0010
0000
1000
0000
0100
0000
,
1000
0001
0100
0001
1000
0100
0010
0001
,
1000
0220
0000
0000
,
0000
0330
0001
0000
0010
0100
0010
0000
,
0220
0000
0000
0000
,
0000
0330
0010
0001
0010
0000
0100
1000
,
0100
0000
1000
0010
1000
0000
0001
0100
,
0001
0000
1000
0100
0010
0000
0001
0100
,
0010
0000
1000
0001
0100
0000
0010
1000
,
0001
0000
1000
0100
1000
0000
0100
0001
,
0100
0000
0001
0010
0001
0000
0010
1000
,
0010
0000
1000
0100
0001
0000
0001
0100
,
1000
0000
1000
0010
0001
0000
0001
0010
,
1000
0020
0100
0000
0100
0000
0100
0000
,
0130
0000
0000
0000
0010
0000
0000
1000
0000
0000
0001
0000
0000
1000
0000
0000
,
0100
0000
0000
0000
0010
0000
0000
0001
0000
0000
1000
0000
0000
0001
0000
0000
,
0100
0000
0000
0000
0001
0000
0000
0010
0000
0000
0100
0000
0000
1000
0000
0000
,
0001
0000
0000
0000
1000
0000
0000
0010
0000
0000
0100
0000
0000
0001
0000
0000
,
1000
1000
0001
0010
0100
0010
0001
0100
,
0010
0000
1000
0100
0010
0100
1000
0010
,
0100
0000
0001
1000
0100
1000
0001
0100
,
0001
0000
1000
0010
0100
0010
1000
0001
,
1000
0001
0020
0000
0000
0130
1000
0100
,
0010
0002
0000
0000
0000
0103
0001
0100
,
0010
2000
0000
0000
0000
3001
0010
0001
,
1000
0020
0000
0000
0000
0130
0001
1000
,
0001
1000
0200
0000
0000
0310
0100
1000
,
0100
0020
0000
0000
0000
0130
1000
0001
,
1000
0200
0000
0000
0000
0310
0001
1000
,
0001
0200
0000
0000
0000
0310
0100
0001
,
0100
0001
2000
3000
0200
0300
0002
0003
,
0020
0030
1000
0000
1100
0000
0001
0000
,
0101
0000
1000
0000
1010
0000
0010
0100
,
0010
0100
0101
0010
,
1010
1000
2200
3300
;

//---------------dance-single - ----------------
#NOTES:
     dance-single:
     :
     Easy:
     5:
     0.329,0.339,0.210,0.321,0.000,254.000,30.000,46.000,0.000,0.000,0.000,0.329,0.339,0.210,0.321,0.000,254.000,30.000,46.000,0.000,0.000,0.000: // measure 0
1000
1100
0001
0101
,  // measure 1
0010
0000
0110
0000
0100
1000
0100
0000
,  // measure 2
1000
1010
0001
0011
,  // measure 3
0100
0000
0110
0000
0020
0000
0000
0030
,  // measure 4
0001
0100
0001
0000
1000
0100
1000
0000
,  // measure 5
0010
0000
0110
0000
0200
0000
0000
0300
,  // measure 6
0010
1000
0010
0000
1000
0000
0001
0000
,  // measure 7
0200
0000
0010
0310
,  // measure 8
1000
1100
0001
0101
,  // measure 9
0010
0110
0100
0001
,  // measure 10
0010
0011
0100
1100
,  // measure 11
1000
0000
1010
0000
0100
0000
0010
0100
,  // measure 12
0010
1000
1001
0001
,  // measure 13
0020
0000
0000
0030
,  // measure 14
0010
0001
1001
1000
,  // measure 15
0020
0000
0000
0030
0200
0000
0000
0300
,  // measure 16
0001
0100
0001
0100
,  // measure 17
0010
0000
1000
0000
0010
1000
0010
0000
,  // measure 18
1000
0100
1000
0100
,  // measure 19
0010
0000
0001
0000
0010
0001
0010
0000
,  // measure 20
0100
1100
0000
1001
,  // measure 21
0000
0000
0101
0000
0200
0000
0000
0300
,  // measure 22
0010
1000
0010
1000
,  // measure 23
0001
0100
0002
2000
,  // measure 24
3003
0000
2000
0000
0000
3000
0100
0000
,  // measure 25
0010
0000
0002
0000
0000
0003
0100
0000
,  // measure 26
0010
0000
2000
0000
0000
3000
0010
0000
,  // measure 27
0100
0000
0002
0000
0000
0003
0010
0000
,  // measure 28
0100
0000
2000
0000
0000
3000
0001
0000
,  // measure 29
0100
0000
0002
0000
0000
0003
1000
0000
,  // measure 30
0100
0000
2000
0000
0000
3000
0001
0000
,  // measure 31
0010
0000
0002
0000
0000
0003
1000
0000
,  // measure 32
0010
2000
3002
2003
,  // measure 33
3002
1003
1010
0010
,  // measure 34
1010
0000
1000
0000
1001
0000
0001
0100
,  // measure 35
0001
1000
1100
0100
,  // measure 36
1100
1000
1001
0002
,  // measure 37
0103
0001
0011
0010
,  // measure 38
0011
0001
1001
0020
,  // measure 39
0000
0030
0100
0000
0101
0000
0001
0000
,  // measure 40
0101
0000
0100
0000
0110
0000
0010
1000
,  // measure 41
0010
1000
0100
0010
,  // measure 42
0001
2000
0000
0000
,  // measure 43
0000
3000
0001
0000
0100
0000
0010
0000
,  // measure 44
2000
0000
0000
0000
,  // measure 45
0000
3000
0002
0000
0010
0000
0000
0000
,  // measure 46
0013
0200
1000
0000
,  // measure 47
1300
0020
0100
0000
,  // measure 48
0130
0002
1000
0000
,  // measure 49
1003
2000
0100
0000
,  // measure 50
3100
0020
0001
0000
,  // measure 51
0031
0200
0010
0000
,  // measure 52
0310
2000
0001
0000
,  // measure 53
3002
0010
0010
0010
,  // measure 54
0013
0100
0100
0100
,  // measure 55
0000
1000
1000
1000
,  // measure 56
0000
0001
0001
0001
,  // measure 57
0000
0010
0010
0010
,  // measure 58
0000
0100
0100
0100
,  // measure 59
0000
1000
1000
1000
,  // measure 60
0000
0001
0001
0001
,  // measure 61
0000
0010
0010
0010
,  // measure 62
0000
0000
0002
0000
0000
0003
0100
0000
,  // measure 63
0010
0000
2000
0000
0000
3000
0100
0000
,  // measure 64
0010
0000
0002
0000
0000
0003
0010
0000
,  // measure 65
0100
0000
2000
0000
0000
3000
0010
0000
,  // measure 66
0100
0000
0002
0000
0000
0003
1000
0000
,  // measure 67
0100
0000
2000
0000
0000
3000
0001
0000
,  // measure 68
0100
0000
0002
0000
0000
0003
1000
0000
,  // measure 69
0010
0000
2000
0000
0000
3000
0001
0000
,  // measure 70
0010
0002
2003
3002
,  // measure 71
2003
3001
0100
0001
,  // measure 72
0000
1000
0100
1000
,  // measure 73
0000
0001
0010
0001
,  // measure 74
0000
1000
0010
1000
;
