#TITLE:The Nine;
#SUBTITLE:;
#ARTIST:SQUAR;
#TITLETRANSLIT:;
#SUBTITLETRANSLIT:;
#ARTISTTRANSLIT:;
#CREDIT:;
#BANNER:bn.png;
#BACKGROUND:bg.png;
#LYRICSPATH:;
#CDTITLE:;
#MUSIC:[ROUND 3] - The Nine.ogg;
#OFFSET:-0.127;
#SAMPLESTART:7.000;
#SAMPLELENGTH:12.000;
#SELECTABLE:YES;
#BPMS:0.000=140.000;
#STOPS:;
#BGCHANGES:;

//---------------dance-single - ----------------
#NOTES:
     dance-single:
     :
     Hard:
     9:
     0.586,0.610,0.217,0.105,0.175:
0000
0000
0000
0000
,
0000
0000
0000
0000
,
0000
0000
0000
0000
,
0000
0000
0000
0000
,
1000
0000
0010
0000
0100
0000
0001
0000
0010
0000
0001
0000
0010
0100
0000
0000
,
0010
0000
0001
0000
1000
0000
0010
0000
0100
0000
0001
0000
0010
0200
0000
0000
,
1300
0010
0100
0010
1000
0001
0010
0100
,
1000
0100
0001
0100
1000
0010
0100
0001
,
1000
0000
0001
0000
1000
0000
0001
0000
1000
0000
0001
1000
0001
0000
1000
0000
,
0100
0010
0100
1000
0010
0100
0002
0000
,
0013
0000
0001
0010
0001
0000
0100
0000
0010
0000
1000
0010
1000
0000
0001
0000
,
0100
0100
0010
0010
0110
0000
1001
0000
,
0001
0000
0100
0000
0010
1000
0000
0010
0000
0000
0100
0000
0001
0000
1000
0000
,
0100
0000
0010
0000
0100
0000
1000
0100
0000
0000
0100
0000
0010
0000
0001
0000
,
1000
0000
0001
0000
0100
0001
0000
0001
0000
0000
1000
0000
0010
0000
0100
0000
,
0001
0000
1000
0000
0001
0000
1000
0000
0001
0000
1000
0001
1000
0000
0001
0000
,
0100
0000
0010
0000
1000
0010
0000
0100
0000
0000
0010
0000
0100
0000
0001
0000
,
1000
0000
0100
0000
0010
0000
0001
0010
0000
0000
0100
0000
0010
0000
0001
0000
,
0010
0000
0100
0000
1000
0010
0000
0100
0000
0000
0010
0000
1000
0000
0001
0000
,
1000
0001
0100
0010
2000
0000
3100
0000
,
0110
0011
1100
0101
,
1000
0001
1001
0000
0001
0100
0101
0000
,
1000
0010
1010
0000
0100
0010
0110
0000
,
0100
0001
0101
0000
0001
0010
0011
0000
,
0010
0100
0110
0000
0100
1000
1100
0000
,
1000
0100
0010
0001
0000
0001
0010
0100
,
0000
0100
0010
0001
0000
0001
0010
0100
,
0000
0100
1000
0010
0000
0100
0010
1000
,
0000
0010
0100
0001
1000
0100
0010
0001
,
1000
0100
1000
0010
0100
0001
0010
0010
,
0100
1000
0100
0010
0100
1000
0010
0010
,
0100
0001
1000
0100
0010
0100
1000
1000
,
0001
0000
0100
0000
1000
0000
0100
0010
0000
0100
0010
0000
0100
0000
0001
0000
,
1000
0100
1100
0000
1000
0001
0100
0010
,
1000
0100
0110
0000
0010
0000
0100
0000
,
0100
0010
0011
0000
0001
0000
0100
0000
,
0001
0000
0100
0000
0010
0000
0100
0000
0010
1000
0010
1000
0010
1000
0010
1000
,
0200
0000
0000
0000
,
0320
0031
0002
0103
,
0010
1000
0100
0100
,
1000
0001
0100
0100
,
0001
1000
0010
0010
,
1000
0001
0010
0010
,
0001
0100
0101
0000
0100
0010
0110
0000
,
0010
1000
0010
0100
0100
0010
0110
0000
,
0100
0100
0010
0010
1000
1000
0001
0001
,
1000
0100
1000
0100
1000
0100
1000
0100
1000
0100
1000
0100
1000
0000
0000
0000
,
0001
0000
0100
0000
0010
0000
0100
0000
0001
0000
0010
0100
0000
0000
0100
0000
,
1000
0000
0010
0000
0100
0000
0001
0000
0010
0000
0001
1000
0000
0000
0100
0000
,
0010
0000
0001
0000
0100
0000
0010
0000
1000
0000
0001
0100
0000
0000
0010
0000
,
1000
0001
0010
0100
0010
0001
1000
0100
,
0010
0000
0100
0000
1000
0000
0010
0000
0100
0000
0001
0010
0000
0000
0100
0000
,
1000
0000
0010
0000
0100
0000
0001
0000
0100
0000
0010
0100
0000
0000
0100
0000
,
0010
0000
1000
0000
0001
0000
0010
0000
0001
0000
1000
0100
0000
0000
0100
0000
,
0100
0000
0010
0001
0010
0000
0001
0000
0100
0000
0010
1000
0010
0000
0100
0000
,
1001
0000
0000
0000
1001
0000
0000
0000
1001
0000
0010
0100
0010
0000
0100
0000
,
0001
1000
0100
1000
0001
0100
0010
0000
,
1000
1000
0010
0010
0100
0100
0200
0000
,
0310
1000
0010
0100
0001
0100
0001
0010
,
0210
0010
0010
0310
,
2001
0001
0001
3001
,
0102
0100
0100
0103
,
0001
0100
0010
1000
0001
0100
0010
1000
,
0001
0000
1100
0000
0100
0010
0002
0000
,
0013
0000
0100
0000
0010
0000
0001
0000
0100
0000
0010
0000
0100
0001
0000
0000
,
0010
0100
0010
0100
1000
0001
0020
0000
,
0130
0000
0010
0100
0010
0000
0100
0000
1000
0000
0001
0000
0100
0000
1000
0000
,
0100
0000
0100
0000
0010
0000
0010
0000
0100
0000
0010
0100
0010
0000
0100
0000
,
0001
1000
0100
1100
1000
0010
0200
0000
,
0301
0000
0100
0001
0100
0000
0001
0100
0001
0000
0100
0000
0010
0000
0000
0000
,
1000
0010
0100
0001
0011
0000
1100
0000
,
1001
1000
0100
1000
0010
0100
0002
0000
,
0013
0000
0100
0000
0010
0000
0001
0000
0100
0000
1000
0000
0100
0010
0000
0000
,
0100
0001
0010
0100
0010
0001
2000
0000
,
3100
0010
0000
0010
0001
1000
0010
0100
,
0001
0000
1000
0100
0000
0000
0010
0000
0100
0000
1000
0000
0001
0000
0010
0000
,
0100
0000
0010
0001
0000
0000
0001
0000
0100
0000
1000
0000
0100
0000
0010
0000
,
1000
0000
1000
0100
0000
0000
0100
0000
0010
0000
0001
0000
0010
0000
0001
0000
,
1000
0000
0100
0000
0010
0000
0001
0000
1000
0001
1000
0001
1000
0001
1000
0001
,
1000
0000
0000
0000
;

//---------------dance-single - ----------------
#NOTES:
     dance-single:
     :
     Medium:
     6:
     0.462,0.499,0.547,0.056,0.000:
0000
0000
0000
0000
,
0000
0000
0000
0000
,
0000
0000
0000
0000
,
0000
0000
0000
0000
,
1000
0010
1010
0000
0010
0000
0110
0000
,
0100
0001
0101
0000
0001
0000
1001
0000
,
0001
0100
0010
0000
0100
0000
0110
0000
,
0100
0010
1000
0000
1000
0010
0100
0000
,
0001
1000
0001
1000
0001
1000
0001
1000
,
0001
0000
0001
0000
1000
0010
1000
0000
,
0020
0000
0130
0000
0001
0100
0010
0000
,
0100
0000
0001
0000
0100
1000
0100
0000
,
0010
0000
1000
0000
0001
0000
0010
0100
,
1000
0000
0100
0000
0010
0000
0001
0010
,
0100
0000
0010
0000
0001
0000
1000
0001
,
0100
0000
0100
0000
0100
0000
0001
0100
,
0010
0000
0100
0000
0010
0000
0100
0001
,
1000
0000
0100
0000
0010
0000
0001
0010
,
0100
0000
1000
0000
0010
0000
0100
0001
,
1000
0000
0100
0000
1000
0010
0100
0000
,
0001
0000
0000
0000
,
1000
0001
0101
0000
0001
0000
1001
0000
,
1000
0010
1010
0000
0010
0000
0110
0000
,
0100
0001
0101
0000
0001
0000
0011
0000
,
0001
0010
0110
0000
0100
0000
0110
0000
,
0100
1000
1010
0000
0010
0000
0110
0000
,
0100
0001
0101
0000
0001
0000
1001
0000
,
0001
0010
0110
0000
0100
0000
1100
0000
,
1000
0010
0110
0000
0010
0000
1001
0000
,
0001
1000
0100
0000
1000
0010
0100
0000
,
0010
0100
0001
0000
1000
0001
1000
0000
,
0001
0001
0100
0000
0100
0100
0010
0000
,
0100
0001
1000
0000
1000
0100
0010
0000
,
0100
1000
0100
0000
0100
0010
0001
0000
,
0010
0001
0010
0000
0001
0100
0010
0000
,
0100
0001
1000
0000
0001
0100
0010
0000
,
0100
0010
1000
0000
0001
0010
0100
0000
,
2000
0000
0000
0000
,
3001
1000
0100
0010
,
0001
0001
0010
0001
,
0100
0100
0010
0100
,
0010
0010
0100
1000
,
0100
0100
1000
0001
,
1000
0101
0001
1010
,
0001
0000
0110
0000
0001
1000
1001
0000
,
0101
1010
1100
0011
,
0220
0000
0000
0330
,
1001
0000
1001
0000
0001
1000
1001
0000
,
0110
0000
0110
0000
0010
0100
0110
0000
,
0101
0000
0101
0000
0001
0100
0101
0000
,
1010
0000
0101
0000
0010
1000
0101
0000
,
0001
0000
1001
0000
0001
0100
0010
0000
,
0100
0000
1010
0000
0010
0100
0101
0000
,
0001
0000
1001
0000
1000
0100
0110
0000
,
0110
1001
0110
1001
,
0001
0100
0010
0000
0100
0010
1000
0000
,
0001
1000
0100
0000
0100
0010
0001
0000
,
0001
0010
0100
0000
0100
0010
0001
0000
,
0001
1000
0001
1000
0001
1000
0001
1000
,
0001
0000
0101
0000
0001
0100
0010
0000
,
0110
0000
0010
0000
1000
0010
0100
0000
,
0002
0000
2003
0000
,
3200
0010
0010
0310
,
0010
0000
0110
0000
0100
1000
1100
0000
,
1000
0000
1001
0000
0001
0100
0101
0000
,
0001
0000
1001
0000
0001
1000
1001
0000
,
0101
0101
1100
1100
,
1000
0100
0010
0001
0010
0100
1000
0100
,
1000
1000
1000
1100
0100
0100
0110
0000
,
0020
0000
0031
0000
0001
0010
0110
0000
,
0110
0110
1001
1001
,
0001
0000
0101
0000
0001
0100
0010
0000
,
0100
0000
0110
0000
0010
1000
0010
0000
,
0100
0000
1001
0000
0001
1000
0100
0000
,
1100
0011
1100
0011
,
1000
0000
0100
0000
0010
0001
0010
0000
,
0001
0000
0100
0000
0010
0100
0010
0000
,
0100
0000
0001
0000
1000
0100
0010
0000
,
0001
0010
0100
0010
0001
0100
0010
1000
,
1001
0000
0000
0000
;

//---------------dance-single - ----------------
#NOTES:
     dance-single:
     :
     Easy:
     4:
     0.285,0.360,0.147,0.042,0.000: // measure 1
0000
0000
0000
0000
,  // measure 2
0000
0000
0000
0000
,  // measure 3
0000
0000
0000
0000
,  // measure 4
0000
0000
0000
0000
,  // measure 5
1000
0001
1000
0010
,  // measure 6
1000
0001
0100
0100
,  // measure 7
0001
1000
0010
0010
,  // measure 8
1000
0100
0010
0001
,  // measure 9
0100
0100
0100
0100
,  // measure 10
0001
1000
0001
1001
,  // measure 11
0001
1000
0010
1000
,  // measure 12
0100
0100
0100
0100
,  // measure 13
0010
0001
0001
0000
,  // measure 14
0001
0100
0100
0000
,  // measure 15
0100
0010
1000
0000
,  // measure 16
1000
1000
1000
0001
,  // measure 17
0100
0001
0100
0000
,  // measure 18
0010
0100
0010
0000
,  // measure 19
0100
0001
1000
0000
,  // measure 20
0100
0010
0001
0010
,  // measure 21
0100
0000
1000
0000
0001
0001
1000
0000
,  // measure 22
0001
0100
0001
0100
,  // measure 23
0010
1000
0010
0100
,  // measure 24
0001
1000
0100
0010
,  // measure 25
0001
0001
1000
1000
,  // measure 26
0001
0100
0001
0010
,  // measure 27
0001
1000
0100
1000
,  // measure 28
0010
0100
0010
1000
,  // measure 29
0010
0010
0100
0100
,  // measure 30
1001
1001
0001
1001
,  // measure 31
0001
1000
0100
0100
,  // measure 32
1000
0010
0001
0010
,  // measure 33
0100
1000
0100
0100
,  // measure 34
0001
0001
1000
1000
,  // measure 35
0100
1000
0010
0100
,  // measure 36
0001
1000
0100
1000
,  // measure 37
0010
0100
0001
1000
,  // measure 38
0002
0000
0000
0003
,  // measure 39
1001
0000
0000
0000
,  // measure 40
1000
0000
0000
0000
,  // measure 41
0001
0000
0000
0000
,  // measure 42
0100
0000
0000
0000
,  // measure 43
0001
0000
0000
0000
,  // measure 44
1001
1001
1001
1001
,  // measure 45
1001
1001
1001
1001
,  // measure 46
0010
0100
0010
0100
,  // measure 47
0020
0000
0000
0030
,  // measure 48
0100
0001
0001
0000
,  // measure 49
1000
0100
0010
0000
,  // measure 50
0100
1000
0001
0000
,  // measure 51
1000
1000
0001
0001
,  // measure 52
0100
0001
0010
0000
,  // measure 53
0010
1000
0100
0000
,  // measure 54
0100
0010
0001
0000
,  // measure 55
0001
0010
0100
1000
,  // measure 56
0001
1000
0100
0100
,  // measure 57
1000
0010
0100
0100
,  // measure 58
0001
1000
0100
1000
,  // measure 59
0010
0010
0100
0100
,  // measure 60
0002
0000
0000
0003
,  // measure 61
2000
0000
0000
3000
,  // measure 62
0020
0000
0000
0030
,  // measure 63
0200
0000
0000
0300
,  // measure 64
1001
1001
0001
1000
,  // measure 65
0100
1000
0100
0100
,  // measure 66
1000
0010
0100
0100
,  // measure 67
0001
1000
0001
1000
,  // measure 68
0001
0100
0010
0010
,  // measure 69
0100
0001
1000
0101
,  // measure 70
0101
0001
0100
0100
,  // measure 71
0010
0010
1001
1001
,  // measure 72
1001
0001
1000
1000
,  // measure 73
0001
0100
0001
0010
,  // measure 74
0001
0100
0010
1000
,  // measure 75
0100
1000
0010
0010
,  // measure 76
0100
0100
0010
0010
,  // measure 77
1000
0001
0100
0001
,  // measure 78
1000
0100
0010
0100
,  // measure 79
1000
1000
0001
0001
,  // measure 80
1001
0000
0000
0000
;
