#TITLE:Sweetie;
#SUBTITLE:;
#ARTIST:小坂りゆ;
#TITLETRANSLIT:Sweetie;
#SUBTITLETRANSLIT:;
#ARTISTTRANSLIT:Riyu Kosaka;
#GENRE:;
#CREDIT:;
#BANNER:[ROUND 3] - Sweetie.png.png;
#BACKGROUND:[ROUND 3] - Sweetie-bg.png.png;
#LYRICSPATH:;
#CDTITLE:ddrsteppercdtitle.png;
#MUSIC:[ROUND 3] - Sweetie.mp3;
#OFFSET:-0.572;
#SAMPLESTART:56.170;
#SAMPLELENGTH:16.420;
#SELECTABLE:YES;
#BPMS:0.000=215.095
;
#STOPS:
;
#BGCHANGES:;
#KEYSOUNDS:;
#ATTACKS:;

//---------------dance-single - ----------------
#NOTES:
     dance-single:
     :
     Medium:
     8:
     0.559,0.614,0.277,0.237,0.188,344.000,28.000,24.000,0.000,0.000,0.000,0.559,0.614,0.277,0.237,0.188,344.000,28.000,24.000,0.000,0.000,0.000:
0000
0000
0000
0000
,
0000
0000
0000
0000
,
0000
0000
0000
0000
,
0000
0000
0000
0000
,
0000
0000
0000
0000
,
0000
0000
0000
0000
,
0000
0000
0000
0000
,
0000
0000
0000
0000
,
1000
0010
0110
0010
,
1100
0100
0110
0010
,
1001
1000
0010
1000
,
1001
1000
1100
0100
,
2000
0000
0000
3200
0000
0000
0320
0000
,
0000
0001
0100
0031
,
0010
0100
0000
0000
1000
0000
0010
0100
,
0000
0000
0010
1000
0000
0000
0100
0000
0000
0010
0000
0000
,
0001
0100
0010
1000
,
0100
1000
0010
0100
,
0001
0000
0000
0100
0000
0001
0100
0000
0000
0001
0000
0000
,
0010
0100
1000
0010
,
0100
0001
0010
1000
,
0010
0001
0100
0010
,
1000
0000
0000
0100
0000
1000
0100
0000
0000
1000
0000
0000
,
0010
0000
0100
0001
0000
0000
0010
0000
0100
0010
0000
0000
,
0001
0100
0010
1000
,
0010
0100
0001
1000
,
0100
1000
0001
0100
,
0010
0000
0000
0100
0000
0000
0001
0000
0000
1000
0000
0001
,
0010
0000
0000
0001
0000
0000
0100
0000
0000
0010
0000
0100
,
0010
0100
0001
0010
,
1100
0000
1000
0000
0010
0000
0100
0101
,
0000
0000
0000
0100
0000
0000
0010
1000
0010
1000
0010
1000
,
0020
0000
0000
0000
0230
0000
0000
0300
,
0100
0001
0100
0010
,
1000
0000
0000
0000
0000
0100
0010
0000
0000
0000
0000
0000
,
0001
1001
1000
1100
,
0100
0000
0010
0000
0001
0000
0100
0010
,
0000
1000
0010
1000
,
1010
0000
0000
0010
0000
1000
0100
0000
0000
0010
0000
0100
,
1000
0001
0010
0001
,
0020
0000
0001
0000
,
0100
0100
0100
0130
,
1000
0000
0000
0000
0000
0010
1000
0000
0000
0000
0000
0000
,
0010
0100
0001
1000
,
0010
0000
0000
0100
0000
0000
0000
0000
0000
0001
0000
0000
0000
0000
0000
0010
0000
0001
0000
0000
0000
0010
0000
0001
,
0000
1000
0010
1000
,
1010
0000
0000
1000
0000
0100
1000
0000
0000
0100
0000
0000
,
0010
0000
0010
0001
0000
0001
0010
0000
0010
0100
0000
0100
,
1000
0000
0000
0010
0000
0000
0100
0000
,
0010
0000
0000
0000
0000
0000
0000
0000
0000
1000
0000
0000
0000
0000
0000
0000
0000
0000
0100
0000
0000
0000
1000
0000
,
0100
0000
0000
1000
0000
0010
0100
0000
0000
0010
0000
0000
,
0100
0001
0010
0001
,
1000
0000
0000
0000
0000
0000
0010
0000
0000
0000
0100
0000
0010
0000
0000
0000
0000
0000
0100
0000
0000
0010
0000
0000
,
0000
1000
0001
1000
0001
0000
0001
0000
,
1002
1000
1000
1003
,
0012
0013
0120
0130
,
1100
1000
0010
0100
,
0001
0000
0000
1000
0000
0000
0100
0000
0000
1000
0000
0001
,
0010
0001
0000
0010
,
0000
0100
0010
0100
,
1000
0100
0010
0100
,
0001
0100
1000
0010
,
0100
0000
0000
0001
0000
0000
0100
0000
0000
0001
0000
0000
0000
0000
0000
0000
0010
0000
0001
0000
0000
0000
0010
0000
,
0100
1000
0001
0100
,
0010
0000
0000
1000
0000
0100
0010
0000
0000
0100
0000
0000
,
2000
3002
0023
0230
,
0310
0000
0000
0100
0000
1000
0100
0000
0000
1000
0000
0000
,
0001
0100
0010
0100
,
0001
0000
0000
0000
0000
0000
0100
0000
0000
0000
0001
0000
0100
0000
0000
0000
0000
0000
0001
0000
0000
1000
0000
0000
,
0001
0100
0001
0010
0001
0100
0001
0000
,
2000
0010
0010
3010
,
0020
0130
0200
0301
,
0001
0010
0001
0010
,
0002
2003
3200
0320
,
0031
0100
0000
0010
,
0000
0100
0010
1000
,
0001
0000
0010
0001
0000
0000
0010
0000
0001
0100
0000
0000
,
0001
0000
0100
0010
0000
0000
0100
0000
0010
1000
0000
0000
,
0001
0000
0000
0010
0000
0000
0000
0000
0000
0001
0000
0000
0000
0000
0000
1000
0000
0001
0000
0000
0000
1000
0000
0001
,
0000
1000
0100
0010
,
1100
0000
0000
1000
0000
0001
0010
0000
0000
0001
0000
0000
,
0010
1100
0110
1001
,
1002
1000
0000
1000
,
0000
0000
0000
1000
0000
0000
0000
0000
0000
1000
0003
0000
,
1001
0000
0000
1001
0000
0000
2002
0000
,
3003
1000
0001
0100
,
0102
0100
0000
0100
,
0000
0100
0000
0103
,
0101
0000
0000
0110
0000
0000
1010
0000
;

//---------------dance-single - ----------------
#NOTES:
     dance-single:
     :
     Hard:
     9:
     0.731,0.702,0.682,0.138,0.544,435.000,69.000,14.000,0.000,0.000,0.000,0.731,0.702,0.682,0.138,0.544,435.000,69.000,14.000,0.000,0.000,0.000:
0000
0000
0000
0000
,
0000
0000
0000
0000
,
0000
0000
0000
0000
,
0000
0000
0000
0000
,
0000
0000
0000
0000
,
0000
0000
0000
0000
,
0000
0000
0000
0000
,
0000
0000
0000
0000
,
1000
0000
1000
0010
0000
0010
0100
0000
0100
0001
0000
0001
,
1000
0000
1000
0001
0000
0001
0010
0000
0010
0100
0000
0100
,
1000
0000
1000
0010
0000
0010
0100
0000
0100
0001
0000
0001
,
1000
0000
1000
0100
0000
0100
0010
0000
0010
0001
0000
0001
,
0200
0000
0000
0320
0000
0000
2030
0000
,
0000
0100
0100
3100
,
0010
0100
0000
0000
0011
0000
0001
0010
,
0000
0000
0100
1000
0000
0000
0010
0000
0000
0100
0000
0010
,
1000
0000
1000
0010
0000
0010
0100
0000
0100
0001
0000
0001
,
0010
0000
0010
0100
0000
0100
0001
0000
0001
0100
0000
0100
,
1000
0000
0000
1010
0000
0010
0100
0000
0000
0101
0000
0001
,
1000
0000
1000
0100
0000
0100
1000
0000
0000
1001
0000
0001
,
0010
0100
1000
0010
,
0100
0010
1000
0001
,
0100
0000
0000
0010
0000
1000
0010
0000
0000
0100
0000
0000
,
0010
0000
1000
0100
0000
0000
0010
0000
0001
0100
0000
0000
,
0010
0000
0010
0100
0000
0100
0010
0000
0010
1000
0000
1000
,
0100
0000
0100
0010
0000
0010
1000
0000
1000
0010
0000
0010
,
0001
0000
0000
0101
0000
0100
0010
0000
0000
0110
0000
0100
,
0001
0000
0001
0010
0000
0010
0100
0000
0000
1100
0000
1000
,
0010
0000
1000
0000
0001
0000
0100
0010
,
0100
0001
0010
0000
0100
0000
0010
0000
,
0011
0000
0001
0000
0100
0000
0010
0110
,
0000
0000
0000
0010
0000
0000
1000
0000
0000
0000
0000
0000
0001
0000
1000
0000
0010
0000
0100
0000
0001
0000
1000
0000
,
0001
0000
0000
0101
0000
0000
0001
0000
0000
1001
0000
1000
,
0100
1100
1000
0101
,
0001
0000
0000
1001
0000
0001
0100
0000
0000
1001
0000
0000
,
1000
0000
1000
0010
0000
0010
0100
0000
0000
0110
0000
0000
,
2000
0010
0100
0010
,
0001
0001
0100
0100
,
3010
0000
0000
0101
0000
0100
0010
0000
0000
0100
0000
0010
,
1000
0000
0000
0001
0000
0000
0010
0000
0000
0001
0000
0100
,
0020
0000
0000
0130
0000
0100
0002
0000
0000
1003
0000
1000
,
0200
0310
0012
0013
,
0001
0101
0100
0110
,
0010
0000
0010
1000
0000
1000
0100
0000
0000
1100
0000
0000
,
1000
0000
0000
0010
0000
0000
0000
0000
0000
0100
0000
0000
0000
0000
0000
0001
0000
0100
0000
0000
0000
0001
0000
0100
,
0000
0110
0010
0101
,
0001
0000
0000
0011
0000
0100
1000
0000
0000
0010
0000
1000
,
0100
0000
1000
0010
0000
1000
0001
0000
0100
0010
0000
0100
,
0001
0000
0000
0101
0000
0000
0010
0000
,
1010
0000
0000
0000
0000
0000
0000
0000
0000
1100
0000
0000
0000
0000
0000
0000
0000
0000
0100
0000
0000
0000
0010
0000
,
0100
0000
0100
1000
0000
1000
0010
0000
0010
0100
0000
0100
,
0010
0000
0010
1000
0000
1000
0001
0000
0001
0010
0000
0010
,
0100
0000
0000
1100
0000
0100
1000
0000
0000
1010
0000
1000
,
0010
0000
0010
1000
0000
1000
0010
0000
0000
1010
0000
0000
,
2100
0000
0000
0100
0000
0000
0100
0000
0000
0100
3000
0000
,
0210
0310
0021
0031
,
0100
0000
0000
0001
0000
0000
0010
0000
0000
0100
0000
1000
,
0100
0000
0000
1000
0000
0000
0010
0000
0000
0100
0000
0001
,
0010
0011
0001
0101
,
0010
1000
0010
0100
,
1010
1001
1100
0110
,
0011
0000
0001
0100
0000
0000
0010
0000
0100
0010
0000
0000
,
1000
0000
0000
0100
0000
0000
0010
0000
0000
0100
0000
0000
0000
0000
0000
0000
1000
0000
0010
0000
0000
0000
0100
0000
,
0010
1000
0001
0010
,
0101
0000
0000
0010
0000
1000
0001
0000
0000
0100
0000
0001
,
0010
0000
0000
0011
0000
0000
0001
0000
0000
0101
0000
0001
,
0010
0000
0000
0001
0000
0100
0001
0000
0000
1000
0000
0000
,
0010
0000
1000
0100
1000
0000
0001
0100
,
1000
0000
0000
0000
0000
0000
0100
0000
0000
0000
0001
0000
0010
0000
0000
0000
0000
0000
0001
0000
0000
1000
0000
0000
,
0100
0010
1000
0010
0100
0010
0100
0000
,
1100
1100
1100
1100
,
0011
0011
1001
1001
,
1000
0000
0000
0001
0000
0000
0100
0000
0000
0001
0000
0010
,
0001
0000
0010
0100
0000
0010
0001
0000
1000
0100
0000
0000
,
1000
1010
0010
0110
,
0010
1000
0010
0100
,
0011
0101
0110
1010
,
1001
0011
0101
1010
,
1000
0000
0000
0010
0000
0000
0000
0000
0000
0110
0000
0000
0000
0000
0000
0100
0000
0001
0000
0000
0000
1000
0000
0100
,
0000
1000
0010
0100
,
0010
0000
0000
1000
0000
0010
0100
0000
0000
0010
0000
0000
,
0100
0101
0011
1100
,
1010
0000
0000
0100
0000
0000
0000
0000
0010
0100
0000
0000
,
0010
0000
0000
0100
0000
0001
0010
0000
0000
0001
0100
0001
,
0200
0000
0000
0302
0000
0000
0023
0000
,
0000
0000
0000
0130
0000
1000
0100
0000
0000
1000
0000
0000
,
1010
0000
0000
0010
0000
0000
0000
0000
0100
0010
0000
0000
,
0100
0000
0000
0001
0000
0100
0001
0000
0000
0010
0001
0010
,
0001
0000
0000
1100
0000
0000
0011
0000
;

//---------------dance-single - ----------------
#NOTES:
     dance-single:
     :
     Challenge:
     7:
     0.425,0.570,0.138,0.089,0.153,278.000,14.000,9.000,212.000,0.000,0.000,0.425,0.570,0.138,0.089,0.153,278.000,14.000,9.000,212.000,0.000,0.000: // measure 0
0000
0000
0000
0000
,  // measure 1
0000
0000
0000
0000
,  // measure 2
0000
0000
0000
0000
,  // measure 3
0000
0000
0000
0000
,  // measure 4
0000
0000
0000
0000
,  // measure 5
0000
0000
0000
0000
,  // measure 6
0000
0000
0000
0000
,  // measure 7
0000
0000
0000
0000
,  // measure 8
1000
0100
MMMM
MMMM
,  // measure 9
0010
0000
0001
0000
,  // measure 10
0100
0010
MMMM
MMMM
,  // measure 11
0010
0000
1000
0000
,  // measure 12
1010
0000
0000
MMMM
0000
0000
0101
0000
,  // measure 13
0000
1000
0010
0100
,  // measure 14
0010
0100
0000
0000
MMMM
0000
0001
1000
,  // measure 15
0000
0000
0100
1000
0000
0000
0010
0000
0000
MMMM
0000
0000
,  // measure 16
0200
0000
0320
0000
,  // measure 17
1030
0100
0010
MMMM
,  // measure 18
0002
0000
0023
0000
,  // measure 19
0031
0100
MMMM
MMMM
,  // measure 20
1000
0100
1000
0010
,  // measure 21
0100
0010
0100
0001
,  // measure 22
MMMM
0000
0000
0010
0000
0001
1000
0000
0000
MMMM
0000
0000
,  // measure 23
1000
0000
0010
0100
0000
0000
MMMM
0000
0001
0100
0000
0000
,  // measure 24
0001
0100
0010
1000
,  // measure 25
0100
0010
1000
0010
,  // measure 26
0001
MMMM
0010
MMMM
,  // measure 27
0010
0000
0001
0010
0000
0100
1000
0000
0000
MMMM
0000
0000
,  // measure 28
0001
0000
0000
0100
0000
0000
0010
0000
0000
0100
0000
0001
,  // measure 29
0010
0100
1000
0010
,  // measure 30
MMMM
0000
0001
0000
0100
0000
0010
MMMM
,  // measure 31
0000
0100
0001
0010
,  // measure 32
0002
0000
0203
0000
,  // measure 33
0310
1000
MMMM
0100
,  // measure 34
MMMM
0000
0000
MMMM
0000
1000
0001
0000
0000
0000
0000
0000
,  // measure 35
0010
0100
0010
1000
,  // measure 36
0010
0000
0001
0000
0100
0000
0010
0100
,  // measure 37
0000
0010
0100
0001
,  // measure 38
MMMM
0000
0000
1000
0000
0001
0100
0000
0000
MMMM
0000
0100
,  // measure 39
0001
MMMM
0100
MMMM
,  // measure 40
0001
MMMM
0100
MMMM
,  // measure 41
0001
0010
0100
MMMM
,  // measure 42
0010
0000
0000
0000
0000
0100
0010
0000
0000
0000
0000
0000
,  // measure 43
0100
1000
0100
MMMM
,  // measure 44
0001
0000
0000
0100
0000
0000
0000
0000
0000
0010
0000
0000
0000
0000
0000
0100
0000
0001
0000
0000
0000
0100
0000
0001
,  // measure 45
0000
0010
0100
1000
,  // measure 46
0010
0000
0000
0100
0000
0001
0100
0000
0000
0001
0000
0000
,  // measure 47
0010
0000
0100
0010
0000
0000
0100
0000
1000
0100
0000
0000
,  // measure 48
1100
0000
0000
0110
0000
0000
MMMM
0000
,  // measure 49
0011
0000
0000
0101
0000
0000
MMMM
0000
,  // measure 50
0010
0000
0000
0100
0000
0010
1000
0000
0000
0001
0000
0000
,  // measure 51
0010
1000
0010
0001
,  // measure 52
0100
0000
0000
0000
0000
0000
MMMM
0000
0000
0000
0100
0000
0010
0000
0000
0000
0000
0000
MMMM
0000
0000
0100
0000
0000
,  // measure 53
0000
0000
0000
0001
0000
0000
0000
0000
0000
0000
0010
0000
0100
0000
0000
0000
0000
0000
MMMM
0000
0000
0000
0000
0000
,  // measure 54
2000
0000
0000
0000
,  // measure 55
3020
0000
2030
0000
,  // measure 56
3100
0010
0100
0010
,  // measure 57
MMMM
0001
0100
0010
,  // measure 58
1000
0001
MMMM
0010
,  // measure 59
MMMM
0001
0100
0001
,  // measure 60
0010
0001
0100
0010
,  // measure 61
1000
0100
0010
MMMM
,  // measure 62
0100
0000
0000
1000
0000
0000
0001
0000
0000
0100
0000
0000
0000
0000
0000
0001
0000
0100
0000
0000
0000
0010
0000
1000
,  // measure 63
0000
0010
0100
0001
,  // measure 64
1001
0000
0000
0001
0000
0100
0010
0000
0000
1000
0000
0100
,  // measure 65
1000
MMMM
0010
MMMM
,  // measure 66
1000
0000
0000
0100
0000
0010
0100
0000
0000
1000
0000
0000
,  // measure 67
0010
0000
0100
0001
1000
0000
0010
0100
,  // measure 68
0010
0000
0000
0000
0000
0000
1000
0000
0000
0000
0100
0000
0010
0000
0000
0000
0000
0000
0100
0000
0000
1000
0000
0000
,  // measure 69
0010
0100
0010
1000
0001
0100
0010
0000
,  // measure 70
MMMM
1000
0100
0010
,  // measure 71
MMMM
0001
MMMM
0100
,  // measure 72
MMMM
0010
1000
0010
,  // measure 73
0100
0000
0010
1000
0000
0100
0010
0000
0000
MMMM
0000
0000
,  // measure 74
0100
0010
MMMM
0001
,  // measure 75
MMMM
0100
0010
1000
,  // measure 76
0101
MMMM
1010
MMMM
,  // measure 77
1001
MMMM
0110
MMMM
,  // measure 78
1000
0000
0000
0010
0000
0000
0000
0000
0000
0100
0000
0000
0000
0000
0000
0010
0000
1000
0000
0000
0000
0100
0000
0010
,  // measure 79
0000
0100
1000
0001
,  // measure 80
0100
0000
0000
0010
0000
1000
0001
0000
0000
0010
0000
0000
,  // measure 81
0001
0101
0011
1100
,  // measure 82
MMMM
1000
0000
1000
,  // measure 83
0000
1000
0000
1000
,  // measure 84
0010
0000
0000
0100
0000
0000
0010
0000
,  // measure 85
0000
0000
0000
0100
0000
0001
0010
0000
0000
0001
0000
0000
,  // measure 86
MMMM
0010
0000
0010
,  // measure 87
0000
0010
0000
0010
,  // measure 88
0001
0000
0000
0100
0000
0000
0010
0000
;

//---------------dance-single - ----------------
#NOTES:
     dance-single:
     :
     Easy:
     5:
     0.319,0.395,0.138,0.030,0.000,209.000,14.000,3.000,0.000,0.000,0.000,0.319,0.395,0.138,0.030,0.000,209.000,14.000,3.000,0.000,0.000,0.000:
0000
0000
0000
0000
,
0000
0000
0000
0000
,
0000
0000
0000
0000
,
0000
0000
0000
0000
,
0000
0000
0000
0000
,
0000
0000
0000
0000
,
0000
0000
0000
0000
,
0000
0000
0000
0000
,
1000
0000
1000
0000
,
1000
0000
1000
0000
,
0010
0000
0010
0000
,
0010
0000
0010
0000
,
0100
0000
0000
0000
,
0100
0000
0010
0000
,
1010
0000
0000
0000
,
0101
0000
0001
0000
,
1000
0000
1000
0000
,
0010
1000
0010
0000
,
0100
0000
0100
0000
,
0001
0100
0001
0000
,
1000
0000
0100
0000
,
0010
0100
1000
0000
,
0010
0000
0100
0000
,
0010
1000
0001
1000
,
0100
0000
1000
0000
,
0010
1000
0010
0000
,
0100
0000
0001
0000
,
0100
0001
0100
0000
,
0010
0000
1000
0000
,
0001
0010
0100
1000
,
0010
0000
0100
0000
,
0001
0000
1000
0001
,
1000
0000
0010
0000
,
0100
0010
0100
0000
,
0001
0000
0010
0000
,
0100
1000
0100
0000
,
1000
0000
0010
0000
,
0100
0010
0100
0000
,
0001
0000
0100
0010
,
1000
0000
0010
0100
,
0001
0000
0010
0000
,
0100
0010
0100
0000
,
1000
0000
0010
0000
,
0100
0010
0100
0000
,
0100
0100
0100
0000
,
0010
0000
1000
0000
,
0001
0000
0001
0000
,
1000
1000
1000
0000
,
0100
0000
0100
0010
,
0001
0000
0001
0100
,
0010
0000
0100
0000
,
0010
1000
0010
0000
,
1000
0000
0001
0000
,
1000
0001
1000
0000
,
0100
0000
0100
1000
,
0100
0000
0010
0000
,
0001
0010
0001
0100
,
0010
0100
0010
1000
,
0010
0000
1000
0000
,
0001
1000
0001
0000
,
0011
0000
1100
0000
,
1001
0001
1001
0000
,
1000
0000
0010
0000
,
0100
0010
0100
0000
,
0001
0000
0010
0000
,
0100
1000
0010
0100
,
0001
0000
0010
0000
,
0001
1000
0001
1000
,
0010
0000
1000
0000
,
0010
0010
0100
0100
,
0002
0000
0000
0000
,
0023
0000
0230
0000
,
1300
0000
1000
0000
,
0010
0100
0010
1000
,
0001
0000
0010
0000
,
0100
0010
0100
0000
,
1000
1000
0001
0001
,
1000
0001
1000
0000
,
0010
0000
0100
0000
,
0001
0010
0100
1000
,
0010
0000
0100
0000
,
0010
0010
1000
1000
,
1001
0000
0001
0000
,
0001
0000
0001
1000
,
1010
0000
0000
1010
0000
0000
1010
0000
,
0000
0000
0010
0100
,
0110
0000
0010
0000
,
0010
0000
0010
0000
,
1001
0000
0000
1001
0000
0000
1001
0000
;

//---------------dance-single - ----------------
#NOTES:
     dance-single:
     :
     Beginner:
     3:
     0.172,0.217,0.020,0.000,0.000,120.000,2.000,0.000,0.000,0.000,0.000,0.172,0.217,0.020,0.000,0.000,120.000,2.000,0.000,0.000,0.000,0.000:
0000
0000
0000
0000
,
0000
0000
0000
0000
,
0000
0000
0000
0000
,
0000
0000
0000
0000
,
0000
0000
0000
0000
,
0000
0000
0000
0000
,
0000
0000
0000
0000
,
0000
0000
0000
0000
,
1000
1000
1000
0000
,
0010
0000
0010
0000
,
0100
0100
0100
0000
,
0010
0000
0010
0000
,
1000
0000
0000
0000
,
0000
0000
0001
0000
,
1001
0000
0000
0000
,
1001
0000
0001
0000
,
1000
0000
1000
0000
,
0010
0000
0010
0000
,
0100
0000
0000
0000
,
0100
0000
0000
0000
,
0001
0000
0001
0000
,
1000
0000
1000
0000
,
0100
0000
0000
0000
,
0100
0000
0000
0000
,
0010
0000
0010
0000
,
0001
0000
0001
0000
,
1000
0000
0000
0000
,
1000
0000
0000
0000
,
0010
0000
1000
0000
,
0001
0000
0100
0000
,
0010
0000
0000
0000
,
1000
0000
0001
0000
,
1000
0000
0010
0000
,
0100
0000
0100
0000
,
0001
0000
0000
0000
,
0000
0000
0000
0000
,
0010
0000
0100
0000
,
0001
0000
0100
0000
,
0010
0000
0000
0000
,
0001
0000
0000
0000
,
1000
0000
0010
0000
,
0100
0000
0100
0000
,
0010
0000
0000
0000
,
0000
0000
0000
0000
,
1000
0000
0001
0000
,
1000
0000
0001
0000
,
1000
0000
0000
0000
,
0010
0000
0000
0000
,
0100
0000
0010
0000
,
0100
0000
0010
0000
,
1000
0000
1000
0000
,
0010
0000
0010
0000
,
0100
0000
0000
0000
,
0001
0000
0000
0000
,
1000
0000
1000
0000
,
0001
0000
0001
0000
,
0010
0000
0010
0000
,
0100
0100
0100
0000
,
1000
0000
0000
0000
,
1000
0000
0000
0000
,
0010
0000
0010
0000
,
0010
0000
0000
0000
,
0100
0000
0000
0000
,
0100
0000
0100
0000
,
0100
0000
0000
0000
,
0001
0000
1000
0000
,
0001
0000
0000
0000
,
1000
0000
0000
0000
,
0010
0000
0000
0000
,
0010
0000
0010
0000
,
0100
0000
0000
0000
,
0010
0000
0010
0000
,
1000
0000
1000
0000
,
0001
0001
0001
0000
,
1000
0000
0000
0000
,
1000
0000
0000
0000
,
0010
0000
0010
0000
,
0010
0000
0000
0000
,
0100
0000
0000
0000
,
0001
0000
0001
0000
,
0010
0000
0000
0000
,
0100
0000
1000
0000
,
0010
0000
0000
0000
,
0000
0000
0000
0000
,
0100
0000
0000
0000
,
0000
0000
0000
0000
,
0001
0000
0000
0000
,
0000
0000
0000
0000
,
1000
0000
0000
0000
;
