#VERSION:0.81;
#TITLE:QQQ;
#ARTIST:TaQ;
#GENRE:Goa;
#CREDIT:A. Michaelangelo;
#BANNER:[ROUND 3] - QQQ.png;
#BACKGROUND:[ROUND 3] - QQQ-bg.png;
#JACKET:[ROUND 3] - QQQ-jacket.png;
#CDTITLE:cdtitle.png;
#MUSIC:[ROUND 3] - QQQ.mp3;
#OFFSET:-0.983;
#SAMPLESTART:0.001;
#SAMPLELENGTH:12.000;
#BPMS:0.000=155.000;
#NOTEDATA:;
#CHARTNAME:Beginner;
#STEPSTYPE:dance-single;
#CHARTSTYLE:Pad;
#DIFFICULTY:Beginner;
#METER:2;
#CREDIT:A. Michaelangelo;
#NOTES:
1000
0000
0000
0000
,
0001
0000
0000
0000
,
1000
0000
0000
0000
,
0001
0000
0000
0000
,
0100
0000
0000
0000
,
0001
0000
0000
0000
,
0010
0000
0000
0000
,
0100
0000
0000
0000
,
1000
1000
0000
0000
,
0000
0000
0000
0000
,
0010
0010
0000
0000
,
0000
0000
0000
0000
,
0100
0100
0000
0000
,
0000
0000
0000
0000
,
0001
0001
0000
0000
,
1000
1000
0000
0000
,
1001
0000
0000
0000
,
0001
0001
0000
0000
,
1001
0000
0000
0000
,
1000
1000
0000
0000
,
1001
0000
0000
0000
,
0010
0010
0000
0000
,
1001
0000
0000
0000
,
0100
0100
0000
0000
,
0010
0000
1000
0000
,
0001
0000
1000
0000
,
0010
0000
0100
0000
,
0001
0000
1000
0000
,
0100
0000
0000
0000
,
0010
0000
0000
0000
,
0010
0000
0000
0000
,
1000
0000
0000
0000
,
0001
0000
0000
0000
,
0000
0000
0000
0000
,
0100
0000
0000
0000
,
0000
0000
0000
0000
,
0010
0000
0000
0000
,
0000
0000
0000
0000
,
0100
0000
0000
0000
,
0110
0000
0000
0000
,
0001
0001
0000
0000
,
1000
0000
0010
0000
,
1000
1000
0000
0000
,
0100
0000
0001
0000
,
0100
0100
0000
0000
,
1000
0000
0100
0000
,
0010
0010
0000
0000
,
0010
0000
0010
0000
,
0001
0001
0000
0000
,
1000
1000
0000
0000
,
0001
0001
0000
0000
,
1000
1000
0000
0000
,
0001
0001
0000
0000
,
0100
0100
0000
0000
,
0010
0010
0000
0000
,
0100
0100
0000
0000
,
0010
0010
0000
0000
,
1000
1000
0000
0000
,
0100
0100
0000
0000
,
0010
0010
0000
0000
,
1000
1000
0000
0000
,
0001
0001
0000
0000
,
0001
0001
0000
0000
,
0100
0100
0000
0000
,
1001
0000
0001
0000
,
0001
0000
0100
0000
,
0100
0000
0010
0000
,
0010
0000
1000
0000
,
1000
0000
0100
0100
,
0100
0000
0010
0010
,
0010
0000
0000
0110
;
#NOTEDATA:;
#CHARTNAME:Basic;
#STEPSTYPE:dance-single;
#CHARTSTYLE:Pad;
#DIFFICULTY:Easy;
#METER:4;
#CREDIT:A. Michaelangelo;
#NOTES:
0001
1000
0001
0000
,
1000
0001
1000
0000
,
0001
0100
0001
0000
,
1000
0100
1000
0000
,
0010
0100
0010
0000
,
0100
0010
0100
0000
,
0001
1000
0001
0000
,
0001
1000
0001
0000
,
0001
0001
1000
0000
,
0010
0010
0100
0000
,
1000
1000
0001
0000
,
0001
0001
0010
0000
,
1000
1000
0100
0000
,
0010
0010
0001
0000
,
0100
0100
0010
0000
,
0001
0001
1001
0000
,
1001
0101
0000
0000
,
1001
1100
0000
0000
,
0110
0011
0000
0000
,
1100
1010
0000
0000
,
0101
0011
0000
0000
,
1010
1100
0000
0000
,
1001
0011
0000
0000
,
1001
1010
0000
0000
,
0001
0000
0001
0000
0001
0100
0001
0000
,
1000
0000
1000
0000
1000
0010
1000
0000
,
0010
0000
0010
0000
0010
1000
0010
0000
,
0100
0000
0100
0000
0100
0010
0100
0000
,
0001
0000
0001
0000
0001
0010
0001
0000
,
1000
0000
1000
0000
1000
0001
1000
0000
,
0100
0000
0100
0000
0100
1000
0100
0000
,
0001
0000
0001
0000
0001
1000
0001
0000
,
0002
0000
0003
0100
0000
0000
0000
0000
,
0020
0000
0030
1000
0000
0000
0000
0000
,
2000
0000
3000
0001
0000
0000
0000
0000
,
0020
0000
0030
1000
0000
0000
0000
0000
,
0200
0000
0300
0001
0000
0000
0000
0000
,
0002
0000
0003
1000
0000
0000
0000
1000
,
0000
0000
0000
0001
0000
0000
0000
1000
,
0000
0000
0000
0000
,
0001
0001
0001
0010
,
1000
0100
0010
0100
,
0001
0001
1000
1000
,
0010
0100
0001
1000
,
0010
0010
0100
0100
,
0001
1000
0100
1000
,
0001
0001
1000
1000
,
0010
0010
0000
0000
,
0100
0000
0100
0000
0010
0100
1000
0000
,
0001
0000
0010
0000
0001
0010
1000
0000
,
1000
0000
0100
0000
1000
0001
1000
0000
,
0010
0000
1000
0000
0001
1000
0100
0000
,
0001
0000
0001
0000
1000
0010
0100
0000
,
0010
0000
0010
0000
0001
1000
0001
0000
,
1000
0000
0100
0000
0100
0001
0010
0000
,
1000
0000
0001
0000
0100
1000
0100
0000
,
0001
0000
1000
0000
0001
0100
1000
0000
,
0100
0000
0100
0000
0010
0100
1000
0000
,
0001
0000
0001
0000
1000
0001
0010
0000
,
0100
0000
1000
0000
0010
1000
0010
0000
,
0001
0000
0001
0000
1000
0100
0010
0000
,
1000
0000
1000
0000
0010
0001
0100
0000
,
1000
0000
0010
0000
0100
0010
0001
0000
,
1000
0000
0001
0000
1000
0001
1000
0001
,
1001
0000
0001
0001
,
1000
0010
0100
0001
,
0001
0010
0010
1000
,
0100
0001
1000
0010
,
0100
0001
0100
0100
,
0001
0001
1000
0100
,
0100
0000
1000
0000
0010
0000
1000
0001
;
#NOTEDATA:;
#CHARTNAME:Difficult;
#STEPSTYPE:dance-single;
#CHARTSTYLE:Pad;
#DIFFICULTY:Medium;
#METER:7;
#CREDIT:A. Michaelangelo;
#NOTES:
1000
0100
0010
0000
0000
0000
0000
0000
,
1000
0100
0010
0000
0000
0000
0000
0000
,
0001
0010
0100
0000
0000
0000
0000
0000
,
0001
0010
0100
0000
0000
0000
0000
0000
,
0010
1000
0100
0000
0000
0000
0000
0000
,
0010
1000
0100
0000
0000
0000
0000
0000
,
0010
0001
0100
0000
0000
0000
0000
0000
,
0010
0001
0100
0000
0000
0000
0000
0000
,
0001
1000
0100
0000
0010
1000
0100
0000
,
0010
0001
0100
0000
0010
1000
0001
0000
,
1000
0001
0100
0000
0001
1000
0100
0000
,
0010
0001
0100
0000
1000
0100
0010
0000
,
0001
1000
0010
0000
0100
0001
0010
0000
,
1000
0100
0010
0000
0100
0010
0001
0000
,
0001
0010
0100
0000
1000
0010
0100
0000
,
0001
0100
0010
0000
0000
0000
0000
0000
,
0011
1000
0100
0000
0000
0000
0000
0000
,
0110
0001
1000
0000
0000
0000
0000
0000
,
1010
0100
0001
0000
0000
0000
0000
0000
,
0101
0010
0100
0000
0000
0000
0000
0000
,
1001
0001
0010
0000
0000
0000
0000
0000
,
0011
0100
1000
0000
0000
0000
0000
0000
,
0101
1000
0100
0000
0000
0000
0000
0000
,
1100
0010
0100
0000
0000
0000
0000
0000
,
0001
0010
0001
0010
0001
0000
0000
0000
,
1000
0010
1000
0010
1000
0000
0000
0000
,
0100
0010
0100
0010
0100
0000
0000
0000
,
0001
0100
0001
0100
0001
0000
0000
0000
,
1000
0100
0001
0100
1000
0000
0000
0000
,
0001
1000
0100
1000
0001
0000
0000
0000
,
0010
1000
0001
1000
0010
0000
0000
0000
,
0100
0001
0010
0001
0100
0000
0000
0000
,
2002
0000
0000
0000
3003
0000
0000
0101
0000
0000
0000
0000
0000
0000
0000
0000
,
2200
0000
0000
0000
3300
0000
0000
0110
0000
0000
0000
0000
0000
0000
0000
0000
,
0202
0000
0000
0000
0303
0000
0000
1001
0000
0000
0000
0000
0000
0000
0000
0000
,
0022
0000
0000
0000
0033
0000
0000
1100
0000
0000
0000
0000
0000
0000
0000
0000
,
1000
0001
1000
0001
0000
0000
0000
0000
,
0001
0100
0001
0100
0000
0000
0000
1010
,
0000
0000
0000
0110
0000
0000
0000
0101
,
0000
0000
0000
0000
,
1000
0010
1000
0001
0100
0010
1000
0100
,
0010
0001
0010
0001
0100
0010
1000
0010
,
0100
0001
0010
0100
1000
0100
0010
0001
,
0100
0010
1000
0001
0100
0000
0000
0000
,
0010
0001
1000
0010
0100
1000
0100
0010
,
1000
0001
0010
0100
1000
0001
1000
0010
,
1000
0100
0010
0001
0100
0010
0001
0010
,
1000
0100
0010
0100
1000
0000
0000
0000
,
0001
0001
1000
0010
1000
0100
0010
0100
,
1000
1000
0001
0100
0010
1000
0001
0100
,
0010
0010
0100
0010
0100
0001
1000
0100
,
0001
0001
0100
1000
0001
0100
0010
0100
,
0001
0001
1000
0100
0001
0100
1000
0010
,
0100
0100
0010
1000
0001
0100
0001
1000
,
0010
0010
0010
1000
0100
0010
0001
1000
,
0100
0100
0100
0010
0001
0100
0010
1000
,
0001
0001
0001
0100
0010
0010
1000
0100
,
0010
0001
1000
1000
1000
0010
0010
0100
,
0001
1000
0001
0100
0100
0001
0010
0100
,
0100
0100
1000
1000
1000
0001
0100
0010
,
0010
1000
1000
0001
0001
0100
0010
1000
,
0010
1000
1000
0001
0010
0010
0010
0001
,
1000
0100
0010
0010
0001
1000
0001
0100
,
0100
0001
1000
1000
0100
0010
0010
0001
,
1001
0000
0000
1000
0100
0010
0000
1000
,
0100
0010
0000
0001
0010
0100
0000
0001
,
0010
0100
0000
1000
0100
0010
0000
1000
,
0100
0010
0000
0000
0000
0001
1000
0001
,
0010
0001
0100
0001
1000
0100
0010
0100
,
0001
0100
0010
0100
1000
0100
0001
0100
,
1000
0010
0001
0010
1000
0100
0011
1001
;
#NOTEDATA:;
#CHARTNAME:Expert;
#STEPSTYPE:dance-single;
#DESCRIPTION:;
#CHARTSTYLE:Pad;
#DIFFICULTY:Hard;
#METER:9;
#CREDIT:A. Michaelangelo;
#NOTES:
1000
0010
1000
0010
0000
0000
0000
0000
,
0001
0100
0001
0100
0000
0000
0000
0000
,
1000
0100
1000
0100
0000
0000
0000
0000
,
0010
0001
0010
0001
0000
0000
0000
0000
,
1000
0010
0010
1000
0000
0000
0000
0000
,
0001
0100
0100
0001
0000
0000
0000
0000
,
1000
0100
0100
0010
0000
0000
0000
0000
,
0010
0010
0010
0010
0000
0000
0000
0000
,
0001
0100
0010
0100
0000
1000
0100
0000
,
0010
0001
1000
0100
0000
0010
0100
0000
,
0100
0010
0001
0100
0000
0010
1000
0000
,
1000
0001
0001
0100
0000
0001
1000
0000
,
0010
0100
0001
1000
0000
0100
0010
0000
,
1000
0100
1000
0010
0000
0100
0001
0000
,
1000
0010
0001
0010
0000
1000
0100
0000
,
0010
1000
0100
0010
0100
0001
0100
0000
,
1000
0100
0011
0000
0000
0000
0000
0000
,
0001
0010
1100
0000
0000
0001
0100
0000
,
0100
0010
0101
0000
0000
0000
0000
0000
,
0010
0100
1010
0000
0000
0001
0010
0000
,
1000
0100
1100
0000
0000
0000
0000
0000
,
0010
0100
0011
0000
0000
0001
1000
0000
,
1000
1000
1001
0000
0000
0000
0000
0000
,
0001
1000
0110
0000
0000
0000
1000
0010
,
0101
0010
1000
0100
1000
0100
0010
0001
,
0110
0001
0100
0010
1000
0010
0100
0001
,
0011
1000
0100
0010
0001
0010
0001
0010
,
1100
0010
0001
0010
0001
1000
0010
0100
,
1010
0100
0001
1000
0001
0100
0001
1000
,
1001
1000
0010
1000
0100
0010
0100
0001
,
0101
0100
1000
0010
0100
0001
0010
1000
,
0110
1000
0100
0010
0001
0010
0100
1000
,
2000
0000
0000
0000
3000
0000
1000
0001
0000
0000
0000
0000
0000
0000
0110
0000
,
0010
0000
1000
0000
0100
0000
0010
0001
0000
0000
0000
0000
0000
0000
0001
0000
,
0002
0000
0000
0000
0003
0000
0001
0100
0000
0000
0000
0000
0000
0000
1010
0000
,
1000
0000
0010
0000
1000
0000
0100
0010
0000
0000
0000
0000
0000
0000
0001
0000
,
0002
0000
0003
0001
0000
0000
0000
0100
,
0200
0000
0300
0100
0000
0000
0000
2000
,
0000
3000
0000
0200
0000
0300
0000
0020
,
0000
0030
0000
0000
0000
0000
0000
1000
,
1001
1000
0100
1000
0010
0100
0001
1000
,
0101
0001
1000
0100
0010
0100
0001
0100
,
0110
0100
1000
0010
0100
0001
0010
0001
,
1100
1000
0010
0100
0010
1000
0001
0010
,
1010
0100
0010
0001
1000
0100
0010
0001
,
0110
0000
0001
0000
1000
0000
0100
0000
1000
0001
0100
0000
0010
0000
1000
0000
,
0011
1000
0001
1000
0100
0010
0100
0001
,
1100
0010
1000
0010
0001
1000
0010
0100
,
0001
1000
0001
1000
0100
0000
0010
0000
1000
0000
0010
0000
0001
0000
0100
0000
,
0010
1000
0001
0100
0010
0000
0100
0000
0010
0000
1000
0000
0100
0000
0010
0000
,
0001
1000
0100
1000
0010
0000
0100
0000
0001
0000
0010
0000
0100
0000
1000
0000
,
0100
0010
0100
1000
0100
0000
1000
0000
0100
0000
0010
0000
0001
0000
1000
0000
,
0010
0001
1000
0100
0010
0000
1000
0000
0010
0000
0100
0000
0001
0000
0100
0000
,
0010
1000
0010
1000
0001
0000
1000
0000
0010
0000
1000
0000
0100
0000
0010
0000
,
0100
1000
0001
1000
0010
0000
0100
0000
0010
0000
0001
0000
0010
0000
0100
0000
,
0010
0100
0010
0100
0010
0000
1000
0000
0001
0000
0010
0000
0100
0000
1000
0000
,
1100
0000
0001
0010
0100
0000
1000
0000
0010
0000
0100
0000
0001
0000
1000
0000
,
0011
0000
1000
0100
0010
0000
0001
0000
0010
0000
0001
0000
1000
0000
0010
0000
,
0101
0000
0010
0100
0001
0000
0100
0000
0010
0000
1000
0000
0100
0000
0001
0000
,
0110
0000
0001
0010
0100
0000
1000
0000
0010
0000
1000
0000
0100
0000
0010
0000
,
0011
0000
0010
0001
0100
0000
0010
0000
0100
0000
0001
0000
1000
0000
0100
0000
,
0110
0000
0010
0100
0010
0000
0100
0000
0001
0000
1000
0000
0010
0000
0100
0000
,
1001
0000
0001
1000
0001
0000
1000
0000
0010
0000
0100
0000
0001
0000
1000
0000
,
0101
0000
0100
0010
0001
0000
1000
0000
0100
0000
0010
0000
0001
0000
0100
0000
,
1001
0000
0000
1000
0010
1000
0010
0000
,
0001
0100
0001
0100
0000
0010
1000
0001
,
1001
0000
1000
0000
0100
0000
0010
0000
0001
0000
0100
0000
0001
0100
0010
0000
,
1000
0000
1100
0000
0010
0000
0011
0000
0100
0000
1100
0000
0000
0000
1000
0100
,
0001
0001
0101
1000
1100
0001
1000
0010
,
0100
1000
0100
0010
0001
1010
0001
0010
,
0100
1000
0100
0010
1001
0010
0101
1100
;
