#VERSION:0.80;
#TITLE:Love or Lies;
#SUBTITLE:;
#ARTIST:capsule;
#TITLETRANSLIT:;
#SUBTITLETRANSLIT:;
#ARTISTTRANSLIT:;
#GENRE:;
#ORIGIN:;
#CREDIT:;
#BANNER:Love or Lies-banner.png;
#BACKGROUND:Love or Lies-bg.png;
#LYRICSPATH:;
#CDTITLE:cdtitle.png;
#MUSIC:[ROUND 3] - Love or Lies.ogg;
#OFFSET:-1.864;
#SAMPLESTART:68.461;
#SAMPLELENGTH:15.000;
#SELECTABLE:YES;
#BPMS:0.000=128.000;
#STOPS:;
#DELAYS:;
#WARPS:;
#TIMESIGNATURES:0.000=4=4;
#TICKCOUNTS:0.000=4;
#COMBOS:0.000=1;
#SPEEDS:0.000=1.000=0.000=0;
#SCROLLS:0.000=1.000;
#FAKES:;
#LABELS:0.000=Song Start;
#LASTSECONDHINT:116.274;
#BGCHANGES:16.000=mood1a.avi=0.800=1=0=1===CrossFade==,
28.000=mood1.avi=1.000=0=0=1=====,
32.000=cards1.avi=1.000=0=0=1=====,
40.000=girl1.avi=1.000=0=0=1=====,
48.000=tropical1.avi=0.800=0=0=1=====,
56.000=tropical2.avi=1.000=0=0=1=====,
62.000=star2b.avi=1.000=0=0=1=====,
64.000=tropical1.avi=0.800=0=0=1=====,
72.000=tropical2.avi=1.000=0=0=1=====,
76.000=star2b.avi=0.000=0=0=1=StretchPaused====,
76.750=girl1.avi=0.000=0=0=1=StretchPaused====,
77.500=circle3.avi=1.200=0=0=1=====,
80.000=arrows1.avi=1.000=0=0=1=====,
96.000=arrows2.avi=1.000=0=0=1=====,
112.000=city3.avi=1.000=0=0=1=====,
128.000=stairs1.avi=0.900=0=0=1=====,
136.000=film1.avi=1.000=0=0=1=====,
140.000=blackhole1.avi=1.000=0=0=1=====,
144.000=dance3.avi=0.900=0=0=1=====,
160.000=cards1.avi=1.000=0=0=1=====,
176.000=dance3.avi=1.000=0=1=1=StretchRewind====,
192.000=cards2.avi=1.000=0=0=1=====,
200.000=girl1.avi=1.000=0=1=1=StretchRewind====,
208.000=tropical1.avi=1.000=0=1=1=StretchRewind====,
216.000=tropical2.avi=1.000=0=1=1=StretchRewind====,
222.000=star2b.avi=1.000=0=0=1=====,
224.000=tropical1.avi=1.000=0=0=1=====,
232.000=tropical2.avi=1.000=0=0=1=====,
236.000=star2b.avi=0.000=0=0=1=StretchPaused====,
236.750=girl1.avi=0.000=0=0=1=StretchPaused====,
237.500=circle3.avi=1.000=0=1=1=StretchRewind====,
240.000=Love or Lies-bg.png=1.000=0=0=1=====,
99999=-nosongbg-=1.000=0=0=0 // don't automatically add -songbackground-
;
#KEYSOUNDS:;
#ATTACKS:;

//---------------dance-single - Rygon----------------
#NOTEDATA:;
#CHARTNAME:X-3;
#STEPSTYPE:dance-single;
#DESCRIPTION:Rygon;
#CHARTSTYLE:;
#DIFFICULTY:Beginner;
#METER:2;
#RADARVALUES:0.158,0.150,0.057,0.074,0.000,119.000,7.000,9.000,0.000,0.000,0.000,0.000,0.000,0.158,0.150,0.057,0.074,0.000,119.000,7.000,9.000,0.000,0.000,0.000,0.000,0.000;
#CREDIT:Rygon;
#OFFSET:-1.864;
#BPMS:0.000=128.000
;
#STOPS:;
#DELAYS:;
#WARPS:;
#TIMESIGNATURES:0.000=4=4
;
#TICKCOUNTS:0.000=4
;
#COMBOS:0.000=1
;
#SPEEDS:0.000=1.000=0.000=0
;
#SCROLLS:0.000=1.000
;
#FAKES:;
#LABELS:0.000=Song Start
;
#NOTES:
0000
0000
0000
0000
,
0000
0000
0000
0000
,
0000
0000
0000
0000
,
0000
0000
0000
0000
,
0000
0000
0000
0000
,
0000
0000
0000
0000
,
0000
0000
0000
0000
,
0000
0000
0000
0000
,
0010
0000
0010
0000
,
0001
0000
0001
0000
,
1000
0000
1000
0000
,
0200
0000
0000
0300
0000
0000
1001
0000
,
1000
1000
1000
0000
,
1000
1000
1000
0000
,
0001
0001
0001
0000
,
0001
0001
0001
0000
,
1000
1000
1000
0000
,
1000
1000
1000
0000
,
0001
0001
0001
0000
,
0001
0000
0000
1001
,
1001
0000
0000
0000
,
0010
0000
0000
0000
,
0100
0000
0000
0000
,
0010
0000
0000
0000
,
0000
1000
0000
1000
,
0000
0001
0000
0001
,
0000
0010
0000
0010
,
0000
0100
0000
0100
,
0200
0000
0300
0000
,
0020
0000
0030
0000
,
0002
0000
0003
0000
,
2000
0000
3000
0000
,
0001
0000
0100
0000
,
1000
0000
0010
0000
,
0001
0000
1000
0000
,
0220
0000
0000
0330
0000
0000
0000
0000
,
1000
1000
1000
0000
,
0010
0010
0010
0000
,
0001
0001
0001
0000
,
0100
0100
0100
0000
,
1000
1000
1000
0000
,
0010
0010
0010
0000
,
0001
0001
0001
0000
,
0100
0100
0100
0000
,
1000
0010
0000
0000
,
0010
0001
0000
0000
,
0001
0100
0000
0000
,
0100
1000
0000
0000
,
1000
0010
0000
0000
,
0010
0001
0000
0000
,
0001
0100
0000
0000
,
0000
1001
0000
1001
,
1000
1000
1000
0000
,
0001
0001
0001
0000
,
0010
0010
0100
0000
,
0100
0100
0010
0000
,
0001
0001
0001
0000
,
1000
1000
1000
0000
,
0010
0010
0100
0000
,
0100
0100
0010
0000
,
2002
0000
0000
0000
,
3003
0000
0000
0000
;

//---------------dance-single - Rygon----------------
#NOTEDATA:;
#CHARTNAME:X-5;
#STEPSTYPE:dance-single;
#DESCRIPTION:Rygon;
#CHARTSTYLE:;
#DIFFICULTY:Easy;
#METER:4;
#RADARVALUES:0.250,0.250,0.107,0.107,0.000,187.000,13.000,13.000,0.000,0.000,0.000,0.000,0.000,0.250,0.250,0.107,0.107,0.000,187.000,13.000,13.000,0.000,0.000,0.000,0.000,0.000;
#CREDIT:Rygon;
#OFFSET:-1.864;
#BPMS:0.000=128.000
;
#STOPS:;
#DELAYS:;
#WARPS:;
#TIMESIGNATURES:0.000=4=4
;
#TICKCOUNTS:0.000=4
;
#COMBOS:0.000=1
;
#SPEEDS:0.000=1.000=0.000=0
;
#SCROLLS:0.000=1.000
;
#FAKES:;
#LABELS:0.000=Song Start
;
#NOTES:
0000
0000
0000
0000
,
0000
0000
0000
0000
,
0000
0000
0000
0000
,
0000
0000
0000
0000
,
0000
0000
0000
0000
,
0000
0000
0000
0000
,
0000
0000
0000
0000
,
0000
0000
0000
0000
,
0010
0010
1000
0001
,
0010
0010
0001
1000
,
0010
0010
0100
0010
,
2002
0000
0000
3003
0000
0000
0110
0000
,
0010
1000
0100
0001
,
0100
1000
0010
0001
,
0010
0100
0001
0010
,
1000
0010
0001
0000
,
1001
1000
0100
0001
,
0100
1000
0010
0001
,
0010
1000
0001
0010
,
0002
0000
0000
0003
0000
0000
1001
0000
,
1000
1000
0010
0000
,
0100
0001
0010
0000
,
0001
0001
0010
0000
,
0100
1000
0010
0000
,
1000
0100
1000
0100
,
0001
0100
1000
1000
,
0001
0100
0001
0100
,
1000
0100
0001
1001
,
2000
0010
3010
0000
,
0010
0100
0001
1000
,
0002
0010
0013
0000
,
0010
0100
1000
0001
,
2000
0100
0010
3001
,
0002
0100
0010
1003
,
1000
0010
0001
0100
,
2002
0000
0000
3003
,
0010
1000
0001
0010
,
0001
1000
0010
1000
,
0001
0100
1000
0100
,
0001
1000
1001
0000
,
0100
0001
1000
0100
,
1000
0001
0100
0001
,
1000
0010
0001
0010
,
1000
0001
1001
0000
,
1000
0100
0010
1000
,
0010
0100
1000
0010
,
0100
0001
0010
0100
,
0001
0100
0110
0000
,
0001
0100
0010
0001
,
0010
0100
0001
0010
,
0100
1000
0010
0100
,
0200
0000
0300
0110
,
0100
0001
0010
1000
,
0010
0001
0100
1000
,
0100
0010
1000
0100
,
0001
0100
1000
0000
,
1001
0001
0010
1000
,
0010
0001
0100
1000
,
0100
0001
1000
0100
,
2000
0000
0000
3000
0000
0000
0110
0000
,
2002
0000
0000
0000
,
3003
0000
0000
0000
;

//---------------dance-double - Rygon----------------
#NOTEDATA:;
#CHARTNAME:X-5;
#STEPSTYPE:dance-double;
#DESCRIPTION:Rygon;
#CHARTSTYLE:;
#DIFFICULTY:Easy;
#METER:4;
#RADARVALUES:0.272,0.400,0.164,0.197,0.000,188.000,20.000,24.000,0.000,0.000,0.000,0.000,0.000,0.272,0.400,0.164,0.197,0.000,188.000,20.000,24.000,0.000,0.000,0.000,0.000,0.000;
#CREDIT:Rygon;
#OFFSET:-1.864;
#BPMS:0.000=128.000
;
#STOPS:;
#DELAYS:;
#WARPS:;
#TIMESIGNATURES:0.000=4=4
;
#TICKCOUNTS:0.000=4
;
#COMBOS:0.000=1
;
#SPEEDS:0.000=1.000=0.000=0
;
#SCROLLS:0.000=1.000
;
#FAKES:;
#LABELS:0.000=Song Start
;
#NOTES:
00000000
00000000
00000000
00000000
,
00000000
00000000
00000000
00000000
,
00000000
00000000
00000000
00000000
,
00000000
00000000
00000000
00000000
,
00000000
00000000
00000000
00000000
,
00000000
00000000
00000000
00000000
,
00000000
00000000
00000000
00000000
,
00000000
00000000
00000000
00000000
,
00010000
01000000
00010000
01000000
,
00001000
00010000
00001000
00010000
,
00000100
00001000
00000100
00000010
,
00002002
00000000
00000000
00003003
00000000
00000000
00001001
00000000
,
00000010
00000010
00001000
00000100
,
00010000
00010000
00001000
00100000
,
00010000
00010000
00100000
01000000
,
10000000
00010000
10010000
00000000
,
00100000
00100000
00010000
01000000
,
00001000
00001000
00010000
00000100
,
00001000
00001000
00000010
00000100
,
00002002
00000000
00000000
00003003
00000000
00000000
00011000
00000000
,
00001000
00001000
00010000
00000000
,
00001000
00100000
01000000
00000000
,
00100000
00100000
01000000
00000000
,
00100000
01000000
10000000
00000000
,
00100000
01000000
00100000
01000000
,
00010000
01000000
00001000
00010000
,
00000100
00001000
00000100
00001000
,
00000100
00000010
00001001
00000000
,
00000002
00000100
00001003
00000000
,
00001000
00000100
00010000
00011000
,
00002000
00100000
01003000
00000000
,
00100000
01000000
00010000
10010000
,
20000000
32000000
03200000
00302000
,
00023000
00030020
00000230
00000302
,
00000023
00000230
00020300
00032000
,
02003000
00000000
00000000
03000000
00000000
00000000
00000000
00000000
,
10010000
00010000
01000000
00001000
,
00010000
00000100
00000010
00000001
,
00001001
00001000
00000100
00010000
,
00001000
01000000
00100000
10000000
,
10010000
00010000
00100000
00001000
,
00010000
00000010
00000100
00000001
,
00001001
00001000
00000010
00010000
,
00001000
00100000
01000000
10000000
,
10010000
00010000
00100000
00001000
,
00000010
00000001
00000100
00000010
,
00001001
00001000
00000010
00010000
,
00100000
10000000
01000000
00100000
,
10010000
00010000
01000000
00001000
,
00000100
00000001
00000010
00000100
,
00001001
00001000
00000100
00010000
,
02000000
00000000
03000000
10010000
,
01000000
01000000
00010000
00100000
,
00001000
00001000
00010000
00000100
,
00001000
00001000
00000100
00000010
,
00000001
00001000
00001001
00000000
,
00000100
00000100
00001000
00000010
,
00010000
00010000
00001000
00100000
,
00010000
00010000
01000000
00100000
,
20020000
00000000
00000000
30030000
00000000
00000000
00000000
00000000
,
00022000
00000000
00000000
00000000
,
00033000
00000000
00000000
00000000
;

//---------------dance-single - Rygon----------------
#NOTEDATA:;
#CHARTNAME:X-7;
#STEPSTYPE:dance-single;
#DESCRIPTION:Rygon;
#CHARTSTYLE:;
#DIFFICULTY:Medium;
#METER:6;
#RADARVALUES:0.354,0.350,0.222,0.304,0.021,238.000,27.000,37.000,0.000,0.000,0.000,0.000,0.000,0.354,0.350,0.222,0.304,0.021,238.000,27.000,37.000,0.000,0.000,0.000,0.000,0.000;
#CREDIT:Rygon;
#OFFSET:-1.864;
#BPMS:0.000=128.000
;
#STOPS:;
#DELAYS:;
#WARPS:;
#TIMESIGNATURES:0.000=4=4
;
#TICKCOUNTS:0.000=4
;
#COMBOS:0.000=1
;
#SPEEDS:0.000=1.000=0.000=0
;
#SCROLLS:0.000=1.000
;
#FAKES:;
#LABELS:0.000=Song Start
;
#NOTES:
0000
0000
0000
0000
,
0000
0000
0000
0000
,
0000
0000
0000
0000
,
0000
0000
0000
0000
,
0000
0000
0000
0000
,
0000
0000
0000
0000
,
0000
0000
0000
0000
,
0000
0000
0000
0000
,
0010
0000
2000
0000
3100
0000
0010
0001
,
0100
0000
0002
0000
0013
0000
0100
1000
,
0010
0001
0100
1000
,
0010
0000
0000
0010
0000
0000
0010
0000
0000
0000
0000
0000
1001
0000
0000
0000
,
1000
0100
0010
0100
,
1000
0000
0010
0100
0010
0000
1000
0000
,
0001
0100
0010
0100
,
0001
0000
0000
0000
0010
0000
0100
0000
0020
0000
0000
0030
0000
0000
0010
0000
,
0001
0000
1000
0000
0010
0000
0100
0010
,
1000
0000
0001
0000
0010
0000
0100
0010
,
0001
0000
0100
1000
0100
0001
0100
0000
,
0010
0000
0000
0010
0000
0000
0010
0000
0000
0000
0000
0000
1001
0000
0000
0000
,
1000
0010
1000
0001
,
0010
0000
1000
0000
0010
0000
0001
1000
,
0001
0010
0001
1000
,
0010
0000
0001
0000
0010
0000
1000
0001
,
1000
0000
0200
0000
0010
0000
1300
0100
,
0010
0000
0002
0000
0100
0000
0013
0001
,
1000
0010
0100
0001
,
0010
0010
0100
1001
,
2000
0010
0100
0001
,
3020
1000
0100
0001
,
0230
0001
0010
1000
,
0302
0010
1000
0100
,
2003
0000
0000
0000
3010
0000
0000
0010
0000
0000
0000
0000
0010
0000
1000
0000
,
0002
0000
0000
0000
0013
0000
0000
0010
0000
0000
0000
0000
0001
0000
1000
0000
,
1100
0110
0011
1001
,
0220
0000
0000
0330
,
1000
0001
1000
0000
0010
0100
0001
0000
,
0020
0130
0200
1300
,
0001
1000
0001
0000
0010
0100
1000
0000
,
0020
0130
0200
0301
,
1000
0100
0001
0000
0001
0100
1000
0000
,
0020
0230
0302
2003
,
3001
0100
1000
0000
1000
0100
0001
0000
,
0020
0230
2300
3002
,
1003
0001
1000
0000
0100
0010
0001
0000
,
0200
0310
0020
1030
,
0001
1000
0001
0000
0100
0010
1000
0000
,
0200
0310
0020
0031
,
1000
0010
0001
0000
0001
0010
1000
0000
,
0200
0320
0032
2003
,
3001
0010
1000
0000
1000
0010
0001
0000
,
0011
0110
2100
3001
,
0101
0010
1100
0110
,
1001
0000
0010
0100
0010
0000
0001
0000
,
1100
0010
0101
0110
,
1001
0000
0000
0000
0010
0000
0100
0000
0020
0000
0000
0030
0000
0000
1000
0000
,
0001
0100
1010
0110
,
1001
0000
0100
0010
0100
0000
0001
0000
,
1010
0100
0011
0110
,
1000
0000
0000
0001
0000
0000
1001
0000
0000
0000
0000
0000
0000
0000
0000
0000
,
0220
0000
0000
0000
,
0330
0000
0000
0000
;

//---------------dance-double - Rygon----------------
#NOTEDATA:;
#CHARTNAME:X-8;
#STEPSTYPE:dance-double;
#DESCRIPTION:Rygon;
#CHARTSTYLE:;
#DIFFICULTY:Medium;
#METER:6;
#RADARVALUES:0.373,0.425,0.222,0.509,0.016,229.000,27.000,62.000,0.000,0.000,0.000,0.000,0.000,0.373,0.425,0.222,0.509,0.016,229.000,27.000,62.000,0.000,0.000,0.000,0.000,0.000;
#CREDIT:Rygon;
#OFFSET:-1.864;
#BPMS:0.000=128.000
;
#STOPS:;
#DELAYS:;
#WARPS:;
#TIMESIGNATURES:0.000=4=4
;
#TICKCOUNTS:0.000=4
;
#COMBOS:0.000=1
;
#SPEEDS:0.000=1.000=0.000=0
;
#SCROLLS:0.000=1.000
;
#FAKES:;
#LABELS:0.000=Song Start
;
#NOTES:
00000000
00000000
00000000
00000000
,
00000000
00000000
00000000
00000000
,
00000000
00000000
00000000
00000000
,
00000000
00000000
00000000
00000000
,
00000000
00000000
00000000
00000000
,
00000000
00000000
00000000
00000000
,
00000000
00000000
00000000
00000000
,
00000000
00000000
00000000
00000000
,
00000100
00000000
00002000
00000000
00003010
00000000
00000100
00000010
,
00001000
00000000
00000200
00000000
00010300
00000000
00001000
01000000
,
00100000
00000000
20000000
00000000
32000000
00000000
03100000
00010000
,
00100000
00000000
00000000
00001000
00000000
00000000
00002000
00000000
00000000
00000000
00000000
00000000
00013000
00000000
00000000
00000000
,
00011000
00000000
00010000
00000000
00000100
00000000
00000010
00000001
,
00000200
00000010
00001000
00000301
,
00000100
00000000
00000010
00000000
00001000
00000000
00000100
00010000
,
00001000
00000000
00010000
00000000
00022000
00000000
00000000
00033000
,
00011000
00000000
00001000
00000000
01000000
00000000
00100000
10000000
,
02000000
00100000
00010000
13000000
,
01000000
00000000
00100000
00000000
00010000
00000000
01000000
00001000
,
00010000
00000000
00000000
00001000
00000000
00000000
00011000
00000000
00000000
00000000
00000000
00000000
00011000
00000000
00000000
00000000
,
00010000
00000100
00000200
00000310
,
00000001
00000100
00000020
00001030
,
00001000
00000000
00000100
00000000
00010000
00001000
00010000
00000000
,
00001000
00000000
01000000
00100000
01000000
00000000
10010000
00000000
,
10000000
01000000
00200000
00302000
,
00013000
00010100
00000110
00000001
,
00000100
00000000
00000010
00001000
00000100
00000000
00010000
00001000
,
01000000
00020000
00100000
01030000
,
00200000
00310000
00000020
00001030
,
02000000
03010000
00000200
00001300
,
00200000
00302000
00003200
00020300
,
02030000
03002000
00003020
00000230
,
00010300
00010000
00001000
00001000
,
00100000
00001000
00010000
00000010
,
00000101
00010100
01001000
11000000
,
10000000
00000000
00000000
00010000
00000000
00000000
20020000
00000000
00000000
00000000
00000000
00000000
30030000
00000000
00000000
00000000
,
00110000
00000000
00100000
00001000
00010000
00000000
00002000
00000000
,
00003100
00000000
00000001
00000010
00001000
00000000
00000010
00000000
,
00000002
00000203
00002300
00023000
,
02030000
23000000
30010000
10010000
,
01010000
00000000
01000000
00001000
00010000
00000000
00002000
00000000
,
00003010
00000000
00000001
00000100
00001000
00000000
00000100
00000000
,
00000002
00000023
00002030
00023000
,
00230000
20300000
30010000
10010000
,
00120000
00000000
00230000
00000000
00302000
00000000
00003010
00000001
,
00000200
00000000
00000320
00000000
00002030
00000000
00103000
01000000
,
00010000
00100000
01000000
10000000
,
00010000
00100000
00001000
00010000
00000100
00000000
00001001
00000000
,
00002100
00000000
00003200
00000000
00020300
00000000
01030000
10000000
,
00200000
00000000
02300000
00000000
03020000
00000000
00030100
00000010
,
00001000
00000100
00000010
00000001
,
00001000
00010100
00022000
00033000
,
00011000
00000000
00001000
00000000
00100000
00000000
01000000
10000000
,
00200000
01000000
00010000
10300000
,
00100000
00000000
01000000
00000000
00010000
00000000
00100000
00001000
,
00010000
00000000
00001000
00000000
00022000
00000000
00000000
00033000
,
00011000
00000000
00010000
00000000
00000010
00000000
00000100
00000001
,
00000020
00000100
00001000
00000031
,
00000010
00000000
00000100
00000000
00001000
00000000
00000010
00010000
,
00001000
00000000
00000000
00010000
00000000
00000000
00011000
00000000
00000000
00000000
00000000
00000000
00000000
00000000
00000000
00000000
,
00022000
00000000
00000000
00000000
,
00033000
00000000
00000000
00000000
;

//---------------dance-single - Rygon----------------
#NOTEDATA:;
#CHARTNAME:X-12;
#STEPSTYPE:dance-single;
#DESCRIPTION:Rygon;
#CHARTSTYLE:;
#DIFFICULTY:Hard;
#METER:8;
#RADARVALUES:0.482,0.525,0.386,0.451,0.176,309.000,47.000,55.000,0.000,0.000,0.000,0.000,0.000,0.482,0.525,0.386,0.451,0.176,309.000,47.000,55.000,0.000,0.000,0.000,0.000,0.000;
#CREDIT:Rygon;
#OFFSET:-1.864;
#BPMS:0.000=128.000
;
#STOPS:;
#DELAYS:;
#WARPS:;
#TIMESIGNATURES:0.000=4=4
;
#TICKCOUNTS:0.000=4
;
#COMBOS:0.000=1
;
#SPEEDS:0.000=1.000=0.000=0
;
#SCROLLS:0.000=1.000
;
#FAKES:;
#LABELS:0.000=Song Start
;
#NOTES:
0000
0000
0000
0000
,
0000
0000
0000
0000
,
0000
0000
0000
0000
,
0000
0000
0000
0000
,
0000
0000
0000
0000
,
0000
0000
0000
0000
,
0000
0000
0000
0000
,
0000
0000
0000
0000
,
0010
0000
0000
1000
0000
0100
0000
0000
0002
0000
0000
0000
0203
0000
0000
0000
,
0310
0000
0000
0001
0000
0100
0000
0000
2000
0000
0000
0000
3200
0000
0000
0000
,
0310
0000
0000
1000
0000
0001
0000
0000
0010
0000
0000
0000
0100
0000
0000
0000
,
1100
0000
0000
0101
0000
0000
1001
0000
0000
0000
0000
0000
0110
0000
0000
0000
,
1002
0000
0203
0000
2300
0000
3100
0001
,
0020
0000
0230
0000
1300
0000
0100
0010
,
0001
0000
0021
0000
1000
0000
0031
0100
,
1000
0000
0100
0000
0010
0000
0000
0000
0100
0000
0001
1000
0000
0000
1001
0000
,
2000
0000
3200
0000
0302
0000
0103
1000
,
0020
0000
0230
0000
0301
0000
0100
0010
,
1000
0000
1020
0000
0001
0000
1030
0100
,
0010
0000
0000
1100
0000
0000
0102
0000
0000
0000
0000
0013
0100
0000
1000
0000
,
2000
0000
0000
0000
0010
0000
0000
3020
0000
0000
0000
0000
0130
0000
0001
0000
,
0002
0000
0000
0000
0010
0000
0000
0023
0000
0000
0000
0000
0130
0000
1000
0000
,
0001
0000
1100
0000
0101
0001
1000
0100
,
1000
0000
0101
0000
1100
1000
0001
0100
,
0002
0000
0000
0000
0100
0000
0000
0203
0000
0000
0000
0000
0310
0000
1000
0000
,
2000
0000
0000
0000
0100
0000
0000
3200
0000
0000
0000
0000
0310
0000
0001
0000
,
1000
0000
0011
0000
1010
1000
0001
0010
,
0001
0000
1010
0000
0011
0001
1000
0010
,
0200
0000
0001
0302
0000
1000
1003
0001
,
2000
0000
0100
3200
0000
0010
0310
0001
,
0100
1000
0100
0001
0100
1000
0100
0001
,
0100
0000
0010
2001
0000
0000
3001
1000
,
0200
0000
1000
2300
0000
0001
3001
1000
,
0002
0000
0100
0203
0000
0010
0310
1000
,
1010
0110
0101
1001
,
0110
0000
0000
0110
0000
0000
2002
0000
0000
0000
0000
0000
3003
0000
0000
0000
,
1000
0000
0100
0000
0010
0000
0000
0011
0000
0000
0001
0000
1000
0000
1000
0000
,
0001
0000
0100
0000
0010
0000
0000
1010
0000
0000
1000
0000
0001
0000
0001
0000
,
1000
0000
0100
0000
0010
0000
0000
0110
0000
0000
0100
0000
1000
0000
0001
0000
,
0200
1000
0001
0310
,
1000
0000
0010
0000
0100
0000
0000
0101
0000
0000
0001
0000
1000
0000
1000
0000
,
0001
0000
0010
0000
0100
0000
0000
1100
0000
0000
1000
0000
0001
0000
0001
0000
,
1000
0000
0010
0000
0100
0000
0000
0110
0000
0000
0010
0000
1000
0000
0001
0000
,
0020
0000
0000
0000
0230
0000
0000
0000
0300
1000
0000
0001
1000
0000
1001
0000
,
0001
0000
0010
0000
0100
0000
0000
1100
0000
1000
0001
0000
0100
0000
0010
0000
,
1000
0000
0010
0000
0100
0000
0000
0101
0000
0001
1000
0000
0100
0000
0010
0000
,
0001
0000
0100
0000
1000
0000
0000
1100
0000
0100
0001
0000
0010
0000
0100
0000
,
2000
0000
0010
0000
3001
0000
1001
0001
,
1000
0000
0100
0000
0010
0000
0000
0011
0000
0001
1000
0000
0010
0000
0100
0000
,
0001
0000
0100
0000
0010
0000
0000
1010
0000
1000
0001
0000
0010
0000
0100
0000
,
1000
0000
0010
0000
0001
0000
0000
0011
0000
0010
1000
0000
0100
0000
0010
0000
,
0001
0010
0000
0010
0100
0000
0100
1000
0010
0000
0010
0100
0001
1000
0001
0000
,
2001
0000
3020
0000
0032
0000
0013
1000
,
0200
0000
0320
0000
0031
0000
0010
0100
,
1000
0000
1200
0000
0001
0000
1300
0010
,
0001
0000
0010
0000
0100
0000
0000
0000
0010
0000
1000
0001
0000
0001
1000
0000
,
1002
0000
0023
0000
2030
0000
3010
0001
,
0200
0000
0320
0000
1030
0000
0010
0100
,
0001
0000
0201
0000
1000
0000
0301
0010
,
0100
0000
0000
0011
0000
0000
2010
0000
0000
0000
0000
0000
3000
0000
0000
0000
,
2002
0000
0000
0000
,
3003
0000
0000
0000
;

//---------------dance-double - Rygon----------------
#NOTEDATA:;
#CHARTNAME:X-12;
#STEPSTYPE:dance-double;
#DESCRIPTION:Rygon;
#CHARTSTYLE:;
#DIFFICULTY:Hard;
#METER:8;
#RADARVALUES:0.522,0.525,0.230,0.394,0.193,369.000,28.000,48.000,0.000,0.000,0.000,0.000,0.000,0.522,0.525,0.230,0.394,0.193,369.000,28.000,48.000,0.000,0.000,0.000,0.000,0.000;
#CREDIT:Rygon;
#OFFSET:-1.864;
#BPMS:0.000=128.000
;
#STOPS:;
#DELAYS:;
#WARPS:;
#TIMESIGNATURES:0.000=4=4
;
#TICKCOUNTS:0.000=4
;
#COMBOS:0.000=1
;
#SPEEDS:0.000=1.000=0.000=0
;
#SCROLLS:0.000=1.000
;
#FAKES:;
#LABELS:0.000=Song Start
;
#NOTES:
// measure 0
00000000
00000000
00000000
00000000
,  // measure 1
00000000
00000000
00000000
00000000
,  // measure 2
00000000
00000000
00000000
00000000
,  // measure 3
00000000
00000000
00000000
00000000
,  // measure 4
00000000
00000000
00000000
00000000
,  // measure 5
00000000
00000000
00000000
00000000
,  // measure 6
00000000
00000000
00000000
00000000
,  // measure 7
00000000
00000000
00000000
00000000
,  // measure 8
00100000
01000000
00001000
00010000
01000000
10000000
00010000
01000000
,  // measure 9
00001000
00000100
00000001
00001000
00000100
00010000
00100000
10000000
,  // measure 10
00010000
00100000
10000000
00100000
00001000
00000010
00000001
00000100
,  // measure 11
00001000
00000000
00000100
00000001
00000000
00000001
00002000
00000000
00000000
00000000
00000000
00000000
00003100
00000000
00000000
00000000
,  // measure 12
00020100
00031000
00102000
02003000
,  // measure 13
13000000
01000000
00010000
00100000
00001000
00000100
00000001
00000000
,  // measure 14
00000021
00001030
00210000
10300000
,  // measure 15
00100000
00000000
01000000
00000000
10000000
00000000
00010000
00000000
00100000
00000000
00002000
00020000
00000000
00000000
00033000
00000000
,  // measure 16
00021000
00030100
00001200
00000310
,  // measure 17
00000010
00001000
00010000
00100000
10000000
01000000
00010000
01000000
,  // measure 18
10000000
01020000
00230000
00302000
,  // measure 19
00013000
00000000
00001000
00010000
00000000
00001000
00010000
00000000
00000000
00000100
00000000
00000100
00000010
00000000
00000001
00000000
,  // measure 20
00000100
00000000
00000010
00000000
00000100
00000000
00000000
00001000
00000000
00000000
00000100
00000000
00000001
00000000
00001000
00000000
,  // measure 21
00000100
00000000
00010000
00000000
00001000
00000000
00000000
01001000
00000000
00000000
01000000
00000000
00100000
00000000
10000000
00000000
,  // measure 22
01000000
00000000
00010000
00000000
01000000
00000000
00000000
10000000
00000000
00000000
00010000
00000000
01000000
00000000
00001000
00000000
,  // measure 23
00000100
00000000
00010000
00000000
00000100
00000000
00000000
00000101
00000000
00000000
00000001
00000000
00001000
00000000
00000100
00000000
,  // measure 24
00010000
00001000
00200000
01000000
01300000
00000000
01000000
10000000
,  // measure 25
00010000
01000000
00002000
00010000
00013000
00000000
00000100
00000010
,  // measure 26
00000002
00000100
00000203
00001000
00002300
00010000
00023000
00100000
,  // measure 27
00130000
10000000
01000000
00010000
01000000
10000000
10010000
00000000
,  // measure 28
00002000
00000000
00100000
00203000
00000000
00000000
01300000
10000000
,  // measure 29
00020000
00000000
01000000
02030000
00000000
00000000
03100000
01000000
,  // measure 30
00001000
00000100
00000001
00001000
01000000
10000000
00010000
01000000
,  // measure 31
00001000
00010000
00001000
00022000
00000000
00003000
00031000
00010000
,  // measure 32
00000100
00000010
00000002
00000100
00000103
00000000
00000100
00000010
,  // measure 33
00010000
00001000
00200000
01000000
01300000
00000000
01000000
10000000
,  // measure 34
10010000
00011000
00001001
00011000
,  // measure 35
00101000
00000000
00000000
00010100
00000000
00000000
00022000
00000000
00000000
00000000
00000000
00000000
00033000
00000000
00000000
00000000
,  // measure 36
00011000
00000000
00010000
00000000
00000100
00000000
00000010
00000100
00000000
00000100
00001000
00000000
00000001
00000000
00000100
00000000
,  // measure 37
00000010
00000000
00010000
00000000
00001000
00000000
00100000
01000000
00000000
01000000
10000000
00000000
00010000
00000000
01000000
00000000
,  // measure 38
00100000
00000000
01000000
00000000
00001000
00000000
00010000
00000100
00000000
00000100
00001000
00000000
00000010
00000000
00000100
00000000
,  // measure 39
00000001
00000000
00001000
00000000
00000100
00000000
00010000
00001000
00000000
00100000
01000000
00000000
10000000
00000000
00010000
00000000
,  // measure 40
01000000
00000000
00010000
00000000
00100000
00000000
00002000
00010000
00000000
00000000
00013000
00000000
00001000
00000000
00000100
00000000
,  // measure 41
00000010
00000000
00001000
00000000
00000100
00000000
00000020
00000001
00000000
00000000
00000031
00000000
00000010
00000000
00000100
00000000
,  // measure 42
00010000
00000000
00001000
00000000
00100000
00000000
01000000
20000000
00000000
00000000
30010000
00000000
10000000
00000000
00010000
00000000
,  // measure 43
00100000
00000000
00001000
00000000
00010000
00000000
00000100
00000010
00000000
00000100
00000000
00000100
00010000
00000000
00001000
00000000
,  // measure 44
00011000
00000000
00010000
00000000
00000010
00000000
00000100
00000010
00000000
00000010
00001000
00000000
00000001
00000000
00000010
00000000
,  // measure 45
00000100
00000000
00010000
00000000
00001000
00000000
01000000
00100000
00000000
00100000
10000000
00000000
00010000
00000000
00100000
00000000
,  // measure 46
01000000
00000000
00100000
00000000
00001000
00000000
00010000
00000010
00000000
00000010
00001000
00000000
00000100
00000000
00000010
00000000
,  // measure 47
00000001
00000000
00001000
00000000
00000010
00000000
00010000
00001000
00000000
01000000
00100000
00000000
10000000
00000000
00010000
00000000
,  // measure 48
00100000
00000000
00010000
00000000
01000000
00000000
00002000
00010000
00000000
00000000
00013000
00000000
00001000
00000000
00000010
00000000
,  // measure 49
00000100
00000000
00001000
00000000
00000010
00000000
00000200
00000001
00000000
00000000
00000301
00000000
00000100
00000000
00000010
00000000
,  // measure 50
00010000
00000000
00001000
00000000
01000000
00000000
00100000
20000000
00000000
00000000
30010000
00000000
10000000
00000000
00010000
00000000
,  // measure 51
01000000
00001000
00000000
00100000
00000100
00000000
00010000
00001000
00100000
00000000
00001000
00010000
00000100
00100000
00001000
00000000
,  // measure 52
00102000
00013000
00020100
00030020
,  // measure 53
00000031
00000010
00001000
00000100
00010000
00100000
10000000
00000000
,  // measure 54
12000000
03010000
00001200
00000301
,  // measure 55
00000100
00000000
00000010
00000000
00000001
00000000
00001000
00000000
00000100
00000000
00010000
00002000
00000000
00000000
00013000
00000000
,  // measure 56
00012000
00103000
00210000
01300000
,  // measure 57
01000000
00010000
00001000
00000100
00000001
00000010
00001000
00000010
,  // measure 58
00000001
00002010
00003200
00020300
,  // measure 59
00031000
00000000
00010000
00001000
00000000
00010000
00001000
00000000
00000000
00100000
00000000
00100000
01000000
00000000
10000000
00000000
,  // measure 60
20020000
00000000
00000000
00000000
,  // measure 61
30030000
00000000
00000000
00000000
;
