#TITLE:Fallen Angel;
#SUBTITLE:El Poco Maro Drum'n'Bass Remix;
#ARTIST:Mitsunori Ikeda feat. Aimee B;
#TITLETRANSLIT:;
#SUBTITLETRANSLIT:;
#ARTISTTRANSLIT:;
#GENRE:;
#CREDIT:Lisek;
#BANNER:bn.png;
#BACKGROUND:bg.png;
#LYRICSPATH:;
#CDTITLE:Lisek.png;
#MUSIC:[ROUND 3] - Fallen Angel (El Poco Maro Drum'n'Bass Remix).mp3;
#OFFSET:-0.060;
#SAMPLESTART:65.497;
#SAMPLELENGTH:21.700;
#SELECTABLE:YES;
#DISPLAYBPM:176.000;
#BPMS:0.000=176.000
,31.000=160.000
,32.000=176.000
;
#STOPS:
;
#BGCHANGES:;
#KEYSOUNDS:;
#ATTACKS:;

//---------------dance-single - Lisek----------------
#NOTES:
     dance-single:
     Lisek:
     Hard:
     8:
     0.422,0.492,0.022,0.073,0.000,390.000,3.000,10.000,0.000,0.000,32.000,0.422,0.492,0.022,0.073,0.000,390.000,3.000,10.000,0.000,0.000,32.000: // measure 0
0000
0000
0000
0000
,  // measure 1
0000
0000
0000
0000
,  // measure 2
0000
0000
0000
0000
,  // measure 3
0000
0000
0000
0000
,  // measure 4
1000
0000
0010
0000
0100
0010
1000
0000
,  // measure 5
0100
0000
0010
0000
0001
0100
0010
0000
,  // measure 6
0100
0001
1000
0100
0010
0001
1000
0010
,  // measure 7
0200
0000
0001
0010
,  // measure 8
0301
0000
0000
0100
0000
0000
0010
0000
,  // measure 9
0000
1000
0000
0000
0010
0000
0100
0000
,  // measure 10
0001
0000
0000
0010
0000
0000
0100
0000
,  // measure 11
0000
1000
0000
0000
0010
0000
0100
0000
,  // measure 12
0010
0000
0000
1000
0000
0000
0100
0000
,  // measure 13
0000
0010
0000
0000
0001
0000
1000
0000
,  // measure 14
0010
0100
0001
0010
,  // measure 15
0100
1000
0001
0100
,  // measure 16
0010
0000
0000
1000
0000
0000
0100
0000
,  // measure 17
0000
1000
0000
0000
0001
0000
0100
0000
,  // measure 18
0010
0000
0000
0100
0000
0000
0001
0000
,  // measure 19
0000
0010
0000
0000
0100
0000
1000
0000
,  // measure 20
0001
0100
1000
0100
,  // measure 21
0001
1000
0001
0000
,  // measure 22
1000
0100
0001
0100
,  // measure 23
1000
0001
1000
0000
,  // measure 24
1001
0000
0000
0001
,  // measure 25
1000
0010
0002
0000
,  // measure 26
0013
0000
0000
1000
,  // measure 27
0001
0010
2000
0000
,  // measure 28
3010
0000
0000
0001
,  // measure 29
0100
1000
0002
0000
,  // measure 30
0023
0000
2030
0000
,  // measure 31
3020
0000
0230
0000
,  // measure 32
0301
0000
0000
0100
0000
0000
0010
0000
,  // measure 33
0000
0100
0000
0000
0001
0000
1000
0000
,  // measure 34
0100
0000
0000
0010
0000
0000
0100
0000
,  // measure 35
0000
1000
0000
0000
0100
0000
0010
0000
,  // measure 36
0100
0000
0000
1000
0000
0000
0001
0000
,  // measure 37
0000
0100
0000
0000
0010
0000
1000
0000
,  // measure 38
2002
0000
0000
0000
,  // measure 39
0000
0000
0000
3003
,  // measure 40
0001
0000
0100
0010
0000
1000
0100
0000
,  // measure 41
0010
0100
1000
0001
0100
0010
1000
0001
,  // measure 42
0010
0000
0100
1000
0000
0001
0100
0000
,  // measure 43
0010
1000
0100
0010
0100
1000
0001
0100
,  // measure 44
0010
0000
0100
0001
0000
0100
0010
0000
,  // measure 45
1000
0001
0100
0010
0100
0001
0010
0100
,  // measure 46
1000
0000
0001
0100
0000
0001
0010
0000
,  // measure 47
0100
1000
0001
0100
0010
0100
0001
1000
,  // measure 48
0001
0100
1000
0001
0000
0010
0000
1000
,  // measure 49
0000
0100
0010
0001
,  // measure 50
1000
0100
0001
1000
0000
0010
0000
0001
,  // measure 51
0000
0010
0100
1000
,  // measure 52
0001
0010
1000
0001
0000
0100
0000
1000
,  // measure 53
0000
0010
0100
0001
,  // measure 54
1000
0010
0001
1000
0000
0100
0000
0001
,  // measure 55
0000
0100
0010
1000
,  // measure 56
0001
0100
0010
1000
0000
0100
0000
0010
,  // measure 57
0000
0001
0100
0010
,  // measure 58
1000
0010
0001
0010
0000
1000
0000
0001
,  // measure 59
0000
0010
0100
1000
,  // measure 60
0001
0100
0010
0001
0000
0010
0000
1000
,  // measure 61
0000
0001
0010
0100
,  // measure 62
0010
0001
1000
0010
0000
1000
0000
0100
,  // measure 63
0000
0010
0001
1000
,  // measure 64
0004
0000
0000
0043
0000
0000
0430
0000
,  // measure 65
0000
4300
0000
0000
3001
0000
1000
0000
,  // measure 66
0040
0000
0000
0430
0000
0000
0304
0000
,  // measure 67
0000
4003
0000
0000
3001
0000
0100
0000
,  // measure 68
0004
0000
0000
0043
0000
0000
0430
0000
,  // measure 69
0000
0340
0000
0000
0031
0000
0010
0000
,  // measure 70
0004
0000
0000
4003
0000
0000
3400
0000
,  // measure 71
0000
4300
0000
0000
3010
0000
0100
0000
,  // measure 72
0040
0000
0000
4030
0000
0000
3400
0000
,  // measure 73
0000
0340
0000
0000
0031
0000
0100
0000
,  // measure 74
0040
0000
0000
4030
0000
0000
3400
0000
,  // measure 75
0000
0340
0000
0000
0130
0000
0010
0000
,  // measure 76
0004
0000
0000
0403
0000
0000
0304
0000
,  // measure 77
0000
4003
0000
0000
3100
0000
0010
0000
,  // measure 78
0004
0000
0000
4003
0000
0000
3040
0000
,  // measure 79
0000
0430
0000
0000
0301
0000
0100
0000
,  // measure 80
0010
1000
0010
0100
0001
0010
0001
0000
,  // measure 81
1000
0100
0010
0100
1000
0010
0100
0000
,  // measure 82
0010
1000
0010
0100
0001
0010
0001
0000
,  // measure 83
0100
0010
0100
0001
1000
0100
0010
0000
,  // measure 84
0001
1000
0010
0100
0010
1000
0001
0000
,  // measure 85
0010
0100
1000
0100
0010
0001
1000
0000
,  // measure 86
0001
0100
0010
1000
0010
0100
0001
0000
,  // measure 87
1000
0100
0010
0100
1000
0001
0100
0000
,  // measure 88
0001
1000
0100
0010
0100
1000
0010
0000
,  // measure 89
0100
0010
0100
1000
0100
0001
0010
0000
,  // measure 90
0100
1000
0100
0010
0100
0001
0100
0000
,  // measure 91
1000
0001
0100
0010
0100
0001
1000
0000
,  // measure 92
0100
0010
0001
1000
0100
0010
0001
0000
,  // measure 93
1000
0010
0100
0001
0010
0001
1000
0000
,  // measure 94
0001
1000
0001
0100
0010
1000
0001
1000
,  // measure 95
0000
0000
0000
0000
,  // measure 96
1001
0000
0000
0000
;

//---------------dance-single - Lisek----------------
#NOTES:
     dance-single:
     Lisek:
     Beginner:
     1:
     0.078,0.141,0.007,0.073,0.000,64.000,1.000,10.000,0.000,0.000,0.000,0.078,0.141,0.007,0.073,0.000,64.000,1.000,10.000,0.000,0.000,0.000: // measure 0
0000
0000
0000
0000
,  // measure 1
0000
0000
0000
0000
,  // measure 2
0000
0000
0000
0000
,  // measure 3
0000
0000
0000
0000
,  // measure 4
0000
0000
0000
0000
,  // measure 5
0000
0000
0000
0000
,  // measure 6
0000
0000
0000
0000
,  // measure 7
0000
0000
0000
0000
,  // measure 8
1000
0000
0000
0000
,  // measure 9
0000
0000
0000
0000
,  // measure 10
0001
0000
0000
0000
,  // measure 11
0000
0000
0000
0000
,  // measure 12
1000
0000
0000
0000
,  // measure 13
0000
0000
0000
0000
,  // measure 14
0001
0000
0000
0000
,  // measure 15
0000
0000
0000
0000
,  // measure 16
1000
0000
0000
0000
,  // measure 17
0000
0000
0000
0000
,  // measure 18
0010
0000
0000
0000
,  // measure 19
0000
0000
0000
0000
,  // measure 20
1000
0000
0000
0000
,  // measure 21
0000
0000
0000
0000
,  // measure 22
0001
0000
0000
0000
,  // measure 23
0000
0000
0000
0000
,  // measure 24
1000
0000
0000
0000
,  // measure 25
0000
0000
0000
0000
,  // measure 26
0100
0000
0000
0000
,  // measure 27
0000
0000
0000
0000
,  // measure 28
0010
0000
0000
0000
,  // measure 29
0000
0000
0000
0000
,  // measure 30
0001
0000
0000
0000
,  // measure 31
1000
0000
0000
0000
,  // measure 32
0001
0000
0000
0000
,  // measure 33
0000
0000
0000
0000
,  // measure 34
0010
0000
0000
0000
,  // measure 35
0000
0000
0000
0000
,  // measure 36
0100
0000
0000
0000
,  // measure 37
0000
0000
0000
0000
,  // measure 38
1000
0000
0000
0000
,  // measure 39
0000
0000
0000
0000
,  // measure 40
0001
0000
0000
0000
,  // measure 41
1000
0000
0000
0000
,  // measure 42
0010
0000
0000
0000
,  // measure 43
1000
0000
0000
0000
,  // measure 44
0001
0000
0000
0000
,  // measure 45
0100
0000
0000
0000
,  // measure 46
0001
0000
0000
0000
,  // measure 47
1000
0000
0000
0000
,  // measure 48
0001
0000
0000
0000
,  // measure 49
0010
0000
0000
0000
,  // measure 50
0001
0000
0000
0000
,  // measure 51
0100
0000
0000
0000
,  // measure 52
0001
0000
0000
0000
,  // measure 53
0010
0000
0000
0000
,  // measure 54
0001
0000
0000
0000
,  // measure 55
1000
0000
0000
0000
,  // measure 56
1000
0000
0000
0000
,  // measure 57
0010
0000
0000
0000
,  // measure 58
1000
0000
0000
0000
,  // measure 59
0100
0000
0000
0000
,  // measure 60
1000
0000
0000
0000
,  // measure 61
0010
0000
0000
0000
,  // measure 62
1000
0000
0000
0000
,  // measure 63
0001
0000
0000
0000
,  // measure 64
2000
0000
0000
0000
,  // measure 65
0000
0000
0000
3000
,  // measure 66
0200
0000
0000
0000
,  // measure 67
0000
0000
0000
0300
,  // measure 68
0020
0000
0000
0000
,  // measure 69
0000
0000
0000
0030
,  // measure 70
0002
0000
0000
0000
,  // measure 71
0000
0000
0000
0003
,  // measure 72
2000
0000
0000
0000
,  // measure 73
0000
0000
0000
3000
,  // measure 74
0020
0000
0000
0000
,  // measure 75
0000
0000
0000
0030
,  // measure 76
0200
0000
0000
0000
,  // measure 77
0000
0000
0000
0300
,  // measure 78
0002
0000
0000
0000
,  // measure 79
0000
0000
0000
0003
,  // measure 80
1000
0000
0000
0000
,  // measure 81
0001
0000
0000
0000
,  // measure 82
0100
0000
0000
0000
,  // measure 83
0010
0000
0000
0000
,  // measure 84
1000
0000
0000
0000
,  // measure 85
0100
0000
0000
0000
,  // measure 86
1000
0000
0000
0000
,  // measure 87
0001
0000
0000
0000
,  // measure 88
0100
0000
0000
0000
,  // measure 89
0001
0000
0000
0000
,  // measure 90
1000
0000
0000
0000
,  // measure 91
0010
0000
0000
0000
,  // measure 92
1000
0000
0000
0000
,  // measure 93
0001
0000
0000
0000
,  // measure 94
2002
0000
0000
0000
,  // measure 95
0000
0000
0000
0000
,  // measure 96
3003
0000
0000
0000
;

//---------------dance-single - Lisek----------------
#NOTES:
     dance-single:
     Lisek:
     Medium:
     5:
     0.293,0.352,0.022,0.417,0.000,220.000,3.000,57.000,0.000,0.000,0.000,0.293,0.352,0.022,0.417,0.000,220.000,3.000,57.000,0.000,0.000,0.000: // measure 0
0000
0000
0000
0000
,  // measure 1
0000
0000
0000
0000
,  // measure 2
0000
0000
0000
0000
,  // measure 3
0000
0000
0000
0000
,  // measure 4
1000
0001
0000
1000
,  // measure 5
0001
0100
0000
0001
,  // measure 6
2002
0000
0000
0000
,  // measure 7
0000
0000
0000
3003
,  // measure 8
1000
0000
0100
0000
,  // measure 9
1000
0000
0000
0000
,  // measure 10
0001
0000
0100
0000
,  // measure 11
0010
0000
1000
0000
,  // measure 12
0100
0000
1000
0000
,  // measure 13
0001
0000
0000
0000
,  // measure 14
1000
0000
0100
0000
,  // measure 15
0010
0000
0001
0000
,  // measure 16
1000
0000
0001
0000
,  // measure 17
0100
0000
0000
0000
,  // measure 18
0010
0000
1000
0000
,  // measure 19
0001
0000
0010
0000
,  // measure 20
0001
0100
0001
0000
,  // measure 21
1000
0010
1000
0000
,  // measure 22
0001
1000
0001
1000
,  // measure 23
0001
1000
0001
0000
,  // measure 24
1001
0000
0000
0001
,  // measure 25
0100
0010
0200
0000
,  // measure 26
0310
0000
0000
0100
,  // measure 27
0010
1000
0020
0000
,  // measure 28
1030
0000
0000
0000
,  // measure 29
0001
0000
0010
0000
,  // measure 30
0100
0000
1000
0000
,  // measure 31
0001
0000
1000
0000
,  // measure 32
0000
0000
0000
0001
,  // measure 33
0100
0001
2000
0000
,  // measure 34
3001
0000
0000
1000
,  // measure 35
0010
1000
0002
0000
,  // measure 36
1003
0000
0000
0000
,  // measure 37
0000
0000
0000
0000
,  // measure 38
0001
0000
0100
0000
,  // measure 39
0020
0000
0000
0000
,  // measure 40
1030
0000
0000
0001
0000
0000
1000
0000
,  // measure 41
0000
0001
0000
0000
1000
0000
0000
0000
,  // measure 42
0001
0000
0000
0010
0000
0000
0001
0000
,  // measure 43
0000
0010
0000
0000
0001
0000
0000
0000
,  // measure 44
1000
0000
0000
0010
0000
0000
1000
0000
,  // measure 45
0000
0010
0000
0000
1000
0000
0000
0000
,  // measure 46
0001
0000
0000
1000
0000
0000
0001
0000
,  // measure 47
0000
1000
0000
0000
0001
0000
0000
0000
,  // measure 48
1000
0000
0000
0100
0000
1000
0000
0000
,  // measure 49
0200
0000
0000
0300
,  // measure 50
1000
0000
0000
0100
0000
1000
0000
0000
,  // measure 51
0200
0000
0300
0000
,  // measure 52
1000
0000
0000
0001
0000
0100
0000
0000
,  // measure 53
0002
0000
0000
0003
,  // measure 54
1000
0000
0000
0001
0000
0100
0000
0000
,  // measure 55
0020
0000
0000
0030
,  // measure 56
1000
0000
0000
0100
0000
0010
0000
0000
,  // measure 57
0002
0000
0000
0003
,  // measure 58
1000
0000
0000
0010
0000
0100
0000
0000
,  // measure 59
0020
0000
0000
0030
,  // measure 60
1000
0000
0000
0100
0000
1000
0000
0000
,  // measure 61
0020
0000
0000
0030
,  // measure 62
1000
0000
0000
0001
0000
1000
0000
0000
,  // measure 63
0002
0000
0000
0003
,  // measure 64
2000
0000
0000
3200
0000
0000
0320
0000
,  // measure 65
0000
0032
0000
0000
2003
0000
0000
0000
,  // measure 66
3002
0000
0000
0023
0000
0000
0230
0000
,  // measure 67
0000
2300
0000
0000
3002
0000
0000
0000
,  // measure 68
2003
0000
0000
3020
0000
0000
0230
0000
,  // measure 69
0000
0302
0000
0000
2003
0000
0000
0000
,  // measure 70
3002
0000
0000
0203
0000
0000
0320
0000
,  // measure 71
0000
2030
0000
0000
3002
0000
0000
0000
,  // measure 72
2003
0000
0000
3200
0000
0000
0320
0000
,  // measure 73
0000
0230
0000
0000
2300
0000
0000
0000
,  // measure 74
3002
0000
0000
0023
0000
0000
0230
0000
,  // measure 75
0000
0320
0000
0000
0032
0000
0000
0000
,  // measure 76
2003
0000
0000
3002
0000
0000
0203
0000
,  // measure 77
0000
0302
0000
0000
2003
0000
0000
0000
,  // measure 78
3002
0000
0000
2003
0000
0000
3020
0000
,  // measure 79
0000
2030
0000
0000
3002
0000
0000
0000
,  // measure 80
1003
0100
0010
0001
,  // measure 81
1000
0010
0100
0010
,  // measure 82
1000
0001
0100
0001
,  // measure 83
1000
0010
0100
0010
,  // measure 84
1000
0100
0010
0001
,  // measure 85
1000
0001
0100
0001
,  // measure 86
1000
0010
0100
0001
,  // measure 87
0010
0001
0100
0001
,  // measure 88
1000
0010
0100
0001
,  // measure 89
0010
0001
0100
0001
,  // measure 90
0010
0001
1000
0010
,  // measure 91
1000
0100
0010
0100
,  // measure 92
1000
0001
0100
0010
,  // measure 93
1000
0001
0100
0001
,  // measure 94
2002
0000
0000
0000
,  // measure 95
0000
0000
0000
0000
,  // measure 96
3003
0000
0000
0000
;

//---------------dance-single - Lisek----------------
#NOTES:
     dance-single:
     Lisek:
     Easy:
     2:
     0.120,0.141,0.015,0.110,0.000,98.000,2.000,15.000,0.000,0.000,0.000,0.120,0.141,0.015,0.110,0.000,98.000,2.000,15.000,0.000,0.000,0.000: // measure 0
0000
0000
0000
0000
,  // measure 1
0000
0000
0000
0000
,  // measure 2
0000
0000
0000
0000
,  // measure 3
0000
0000
0000
0000
,  // measure 4
1000
0000
0000
0000
,  // measure 5
0001
0000
0000
0000
,  // measure 6
0200
0000
0000
0000
,  // measure 7
0000
0000
0000
0000
,  // measure 8
0301
0000
0000
0000
,  // measure 9
0010
0000
0000
0000
,  // measure 10
0001
0000
0000
0000
,  // measure 11
1000
0000
0000
0000
,  // measure 12
0010
0000
0000
0000
,  // measure 13
1000
0000
0000
0000
,  // measure 14
0001
0000
0000
0000
,  // measure 15
1000
0000
0000
0000
,  // measure 16
0010
0000
0000
0000
,  // measure 17
1000
0000
0000
0000
,  // measure 18
0001
0000
0000
0000
,  // measure 19
0100
0000
0000
0000
,  // measure 20
0001
0000
0000
0000
,  // measure 21
1000
0000
0000
0000
,  // measure 22
0001
0000
0000
0000
,  // measure 23
0000
0000
0000
0000
,  // measure 24
1000
0000
0000
0000
,  // measure 25
0010
0000
1000
0000
,  // measure 26
0010
0000
0000
0000
,  // measure 27
1000
0000
0100
0000
,  // measure 28
1000
0000
0000
0000
,  // measure 29
0001
0000
1000
0000
,  // measure 30
0002
0000
0000
0000
,  // measure 31
2003
0000
0000
0000
,  // measure 32
3000
0000
0000
0000
,  // measure 33
0001
0000
0100
0000
,  // measure 34
0001
0000
0000
0000
,  // measure 35
1000
0000
0010
0000
,  // measure 36
1000
0000
0000
0000
,  // measure 37
0000
0000
0000
0000
,  // measure 38
2002
0000
0000
0000
,  // measure 39
0000
0000
3003
0000
,  // measure 40
0001
0000
0000
0000
,  // measure 41
0100
0000
0000
0000
,  // measure 42
0010
0000
0000
0000
,  // measure 43
1000
0000
0000
0000
,  // measure 44
0100
0000
0000
0000
,  // measure 45
1000
0000
0000
0000
,  // measure 46
0001
0000
0000
0000
,  // measure 47
0100
0000
0000
0000
,  // measure 48
0001
0000
1000
0000
,  // measure 49
0001
0000
0000
0000
,  // measure 50
1000
0000
0001
0000
,  // measure 51
1000
0000
0000
0000
,  // measure 52
0001
0000
1000
0000
,  // measure 53
0001
0000
0000
0000
,  // measure 54
1000
0000
0001
0000
,  // measure 55
1000
0000
0000
0000
,  // measure 56
0010
0000
0100
0000
,  // measure 57
0010
0000
0000
0000
,  // measure 58
0100
0000
0010
0000
,  // measure 59
0100
0000
0000
0000
,  // measure 60
0010
0000
0100
0000
,  // measure 61
0010
0000
0000
0000
,  // measure 62
0100
0000
0010
0000
,  // measure 63
0100
0000
0000
0000
,  // measure 64
0002
0000
0000
0000
,  // measure 65
0000
0000
0000
0003
,  // measure 66
0020
0000
0000
0000
,  // measure 67
0000
0000
0000
0030
,  // measure 68
0002
0000
0000
0000
,  // measure 69
0000
0000
0000
0003
,  // measure 70
2000
0000
0000
0000
,  // measure 71
0000
0000
0000
3000
,  // measure 72
0002
0000
0000
0000
,  // measure 73
0000
0000
0000
0003
,  // measure 74
0200
0000
0000
0000
,  // measure 75
0000
0000
0000
0300
,  // measure 76
0020
0000
0000
0000
,  // measure 77
0000
0000
0000
0030
,  // measure 78
0200
0000
0000
0000
,  // measure 79
0000
0000
0000
0300
,  // measure 80
0001
0000
0010
0000
,  // measure 81
0001
0000
0000
0000
,  // measure 82
1000
0000
0010
0000
,  // measure 83
1000
0000
0000
0000
,  // measure 84
0001
0000
0100
0000
,  // measure 85
0001
0000
0000
0000
,  // measure 86
1000
0000
0010
0000
,  // measure 87
1000
0000
0000
0000
,  // measure 88
0001
0000
0010
0000
,  // measure 89
0001
0000
0000
0000
,  // measure 90
1000
0000
0010
0000
,  // measure 91
1000
0000
0000
0000
,  // measure 92
0001
0000
1000
0000
,  // measure 93
0001
0000
0000
0000
,  // measure 94
2002
0000
0000
0000
,  // measure 95
0000
0000
0000
0000
,  // measure 96
3003
0000
0000
0000
;
