#TITLE:Esperanza;
#SUBTITLE:;
#ARTIST:KaW;
#TITLETRANSLIT:;
#SUBTITLETRANSLIT:;
#ARTISTTRANSLIT:;
#CREDIT:;
#BANNER:;
#BACKGROUND:;
#LYRICSPATH:;
#CDTITLE:;
#MUSIC:[ROUND 3] - Esperanza.mp3;
#OFFSET:0.009;
#SAMPLESTART:45.620;
#SAMPLELENGTH:11.840;
#SELECTABLE:YES;
#BPMS:0.000=147.246;
#STOPS:180.000=0.407
,195.000=0.407
;
#BGCHANGES:;

//---------------dance-single - Copied from----------------
#NOTES:
     dance-single:
     :
     Easy:
     4:
     0.296,0.362,0.144,0.171,0.000:
0000
0000
0000
0000
,
0000
0000
0000
0000
,
0000
0000
0000
0000
,
1001
0000
0000
0000
,
1001
0000
1000
0000
,
0001
0100
0001
0000
,
1000
0001
1000
0000
,
0001
0010
0001
0000
,
1000
0001
1000
0000
,
0001
0100
0001
0000
,
1000
0001
1000
0000
,
1010
0000
0000
0000
,
1001
0001
0000
1000
,
0001
0000
0000
1000
0000
0000
0010
0000
,
1000
0000
0000
0001
0000
0000
1000
0000
,
0010
0000
0000
0100
0000
0000
0001
0000
,
1001
0000
0000
0010
0000
0000
1000
0000
,
0100
0000
0000
0010
0000
0000
0001
0000
,
1000
0000
0000
0010
0000
0000
0100
0000
,
1001
0000
0000
0010
0000
0000
1000
0000
,
0000
0001
0000
0000
1000
0000
0000
0010
,
0000
0100
0000
0000
0001
0000
0000
0010
,
0000
0100
0000
0000
1000
0000
0000
0001
,
0000
1000
0000
0000
0010
0000
0000
1000
,
0000
0001
0000
0000
1000
0000
0000
0001
,
0000
1000
0000
0000
0010
0000
0000
1000
,
0000
0001
0000
0000
0100
0000
0000
0000
,
1000
0001
1000
0010
,
2001
0000
3010
0100
,
0002
0000
0013
0100
,
2000
0000
3001
0100
,
0020
0000
1030
0001
,
2000
0000
3001
0100
,
0020
0000
1030
0001
,
2000
0000
3010
0010
,
0020
0000
0230
0300
,
1001
0001
1000
0001
,
1000
0010
1000
0001
,
0100
0010
1000
0001
,
1000
0000
0000
1000
0000
0000
0010
0000
,
1001
0000
0000
0001
0000
0000
0001
0000
,
1000
0000
0000
1000
0000
0000
1000
0000
,
1001
0010
1000
0001
,
1000
1000
0010
0010
,
0100
0001
1000
0001
,
1001
0000
1001
0000
0001
1000
0001
0000
,
1000
0010
0100
0001
,
0010
0100
1000
0001
,
0100
0010
1000
1001
,
1000
0000
0001
0100
0001
0000
0000
0000
,
0100
0000
0000
0010
0000
0001
0000
0000
,
1000
0000
0000
0010
0000
0100
0000
0000
,
0001
0000
0000
0010
0000
0100
0000
0000
,
1000
0000
0000
0001
0000
1000
0000
0000
,
0010
0000
0000
1000
0000
0001
0000
0000
,
0100
0000
0000
0010
0000
1000
0000
0000
,
0001
0000
1000
0001
,
1000
0010
1001
0001
,
2000
0000
3010
0100
,
0002
0000
1003
0010
,
0002
0000
0013
1000
,
0002
0000
0000
0003
1000
0000
0010
0000
,
2000
0000
3001
1000
,
0002
0000
0103
0010
,
0200
0000
0302
0000
,
1003
1001
2002
0000
,
0000
0000
0000
0000
0000
0000
0000
0000
0000
0000
0000
0000
0000
0000
0000
0000
0000
0000
0000
0000
0000
0000
0000
0000
0000
0000
0000
0000
0000
0000
0000
0000
0000
0000
0000
0000
0000
0000
0000
0000
0000
0000
0000
0000
0000
0000
0000
0000
0000
0000
0000
0000
0000
0000
0000
0000
0000
0000
0000
0000
0000
0000
0000
0000
0000
0000
0000
0000
0000
0000
0000
0000
0000
0000
0000
0000
0000
0000
0000
0000
0000
0000
0000
0000
0000
0000
0000
0000
0000
0000
0000
0000
0000
0000
0000
0000
0000
0000
0000
0000
0000
0000
0000
0000
0000
0000
0000
0000
0000
0000
0000
0000
0000
0000
0000
0000
0000
0000
0000
0000
0000
0000
0000
0000
0000
0000
0000
0000
0000
0000
0000
0000
0000
0000
0000
0000
0000
0000
0000
0000
0000
0000
0000
0000
0000
0000
0000
0000
0000
0000
0000
0000
0000
0000
0000
0000
0000
0000
0000
0000
0000
0000
0000
0000
0000
0000
0000
0000
0000
3003
0000
0000
0000
0000
0000
0000
0000
0000
0000
0000
0000
0000
0000
0000
0000
0000
0000
0000
0000
0000
0000
0000
;

//---------------dance-single - Copied from----------------
#NOTES:
     dance-single:
     :
     Medium:
     7:
     0.471,0.449,0.126,0.198,0.325:
0000
0000
0000
0000
,
0000
0000
0000
0000
,
1000
0100
1000
0000
0001
0000
0100
0000
,
1010
1000
0001
0000
,
1001
0001
0100
0010
,
1000
0100
1000
0001
1000
0000
0001
0000
,
0100
0010
0100
0010
0100
0000
0001
0000
,
0010
0100
0010
0100
0010
0000
0001
0000
,
1000
0000
0001
0000
0000
1000
0000
0000
0010
0000
0000
0100
0000
0000
0010
0000
,
0000
0000
1000
0000
0000
0100
0000
0000
1000
0000
0000
0100
0000
0000
0010
0000
,
0000
0000
0001
0000
0000
0100
0000
0000
0001
0000
0000
0100
0000
0000
0010
0000
,
1000
0010
0000
1000
0200
0000
0320
0000
,
0031
0000
1000
0001
1000
0000
0001
0000
0000
0000
0000
0000
0100
0000
0000
0000
,
0010
0000
0000
1000
0000
0000
0001
0000
,
0010
0000
0100
1000
0100
0000
0010
0000
0000
0000
0000
0000
0001
0000
0000
0000
,
0100
0000
0000
0010
0000
1000
0100
1000
,
0001
0000
0000
0100
0000
0000
0010
0000
0000
1000
0000
0000
0010
0000
0000
0000
,
0100
0000
0000
0010
0000
0000
1000
0000
0000
0010
0000
0000
1000
0000
0000
0000
,
1001
0001
0100
0000
0010
1000
0010
0000
,
1000
0001
0010
0001
1000
0000
0001
0000
,
1000
0000
0010
0000
0000
1000
0000
0000
0010
0000
0000
0100
0000
0000
0010
0000
,
0000
0000
1000
0000
0000
0010
0000
0000
0100
0000
0000
0010
0000
0000
1000
0000
,
0000
0000
0001
0000
0000
0010
0000
0000
0001
0000
0000
1000
0000
0000
0001
0000
,
0000
0000
0100
0000
0000
0010
0000
0000
1000
0000
0000
0010
0000
0000
0100
0000
,
0010
0000
1000
0000
0000
0100
0000
0000
0010
0000
0000
0001
0000
0000
0100
0000
,
0010
0000
1000
0000
0000
0010
0000
0000
0100
0000
0000
0010
0000
0000
1000
0000
,
0100
0000
0010
0000
0000
0001
0000
0000
0100
0000
0000
0001
0000
0000
0100
0000
,
0010
1000
0001
0100
0001
1000
0010
0100
,
0002
0000
0000
0000
0203
0000
0000
0000
0010
0000
0000
0010
0000
0000
0010
0000
,
0320
0000
0000
0000
1000
0000
0000
0000
0100
0000
0000
0100
0000
0000
0100
0000
,
0230
0000
0000
0000
0001
0000
0000
0000
0010
0000
0000
0010
0000
0000
0001
0000
,
0301
0000
0000
0000
1000
0000
0000
0000
0100
0000
0000
0100
0000
0000
0010
0000
,
0001
0000
0010
0000
0001
0000
0000
0000
0002
0000
0000
0100
0000
0000
0103
0000
,
0010
0000
0000
0000
1010
0000
0000
0000
1000
0000
0000
0100
0000
0000
1000
0000
,
0200
0000
0000
0000
1300
0000
0000
0000
0001
0000
0000
1000
0000
0000
0100
0000
,
1100
0000
0000
0000
1000
0000
0000
0000
0001
0000
0000
0100
0000
0000
0010
0000
,
1000
0000
0000
0001
0000
0000
0100
0000
,
0010
0000
0000
1000
0000
0000
0001
0000
,
0100
0000
0000
0010
0000
0000
1000
0000
,
1000
0000
0000
0001
0000
1000
0010
0100
,
0001
0000
0000
1000
0000
0000
0100
0000
0000
0010
0000
0000
0001
0000
0000
0000
,
0002
0000
0000
0103
0000
0000
0010
0000
0000
1000
0000
0000
0001
0000
0000
0000
,
1001
0000
0000
0000
0001
0000
0000
0000
1000
0001
0000
0000
1000
0000
0000
0000
,
0010
0000
0000
0000
1000
0000
0000
0000
0001
0100
0000
0000
0001
0000
0000
0000
,
1000
0000
0000
0000
0001
0000
0000
0000
1000
0010
0000
0000
1000
0000
0000
0000
,
1001
0000
0000
0000
1001
0000
0000
0000
1000
0001
1000
0001
1000
0000
0000
0100
,
0000
0000
0010
0000
0000
0001
0000
0000
0001
0000
0000
0000
0100
0000
0000
0001
,
0000
0000
1000
0000
0000
0100
0000
0000
1000
0000
0000
0000
1000
0000
0000
0010
,
0000
0000
0100
0000
0000
0001
0000
0000
0001
0000
0000
0000
1001
0000
0000
0000
,
0000
0000
0000
0000
0010
1000
0010
1000
0010
0000
1000
0000
0000
0001
0000
0000
,
0100
0000
0000
0010
0000
0000
1000
0000
0000
0000
0001
0000
0000
0100
0000
0000
,
0010
0000
0000
1000
0000
0000
0001
0000
0000
0000
0100
0000
0000
0010
0000
0000
,
1000
0000
0000
0001
0000
0000
1000
0000
0000
0000
0010
0000
0000
0100
0000
0000
,
0001
0000
0000
1000
0000
0000
0001
0000
0000
0000
1000
0000
0000
0100
0000
0000
,
0001
0000
0000
0100
0000
0000
1000
0000
0000
0000
0001
0000
0000
0010
0000
0000
,
1000
0000
0000
0010
0000
0000
0001
0000
0000
0000
1000
0000
0000
0100
0000
0000
,
0001
0000
0000
0100
0000
0000
1000
0000
0001
0000
0100
0000
0010
0000
1000
0000
,
0001
1000
0010
0000
0201
0000
0010
0000
,
0301
0000
0000
0100
0000
0000
0010
0000
2000
0000
0000
0000
3002
0000
0000
0000
,
1003
0000
0000
0010
0000
0000
0100
0000
0002
0000
0000
0000
1000
0000
0000
0000
,
0103
0000
0000
0010
0000
0000
1000
0000
0001
0000
0000
0000
0001
0000
0100
0000
,
0001
0000
0000
1000
0000
0000
0010
0000
1001
0000
0000
0000
2000
0000
0000
0000
,
3100
0000
0000
0001
0000
0000
0100
0000
2000
0000
0000
0000
3002
0000
0000
0000
,
0013
0000
0000
0100
0000
0000
1000
0000
0002
0000
0000
0000
2003
0000
0000
0000
,
3010
0000
0000
0100
0000
0000
0001
0000
0021
0000
0000
0000
0032
0000
0000
0000
,
1003
1001
2002
0000
,
0000
0000
0000
3003
0000
0000
0000
0000
;

//---------------dance-single - Copied from Copied f----------------
#NOTES:
     dance-single:
     :
     Hard:
     10:
     0.717,0.808,0.180,0.343,0.730:
0000
0000
0000
0000
,
0000
0000
0000
0000
,
1000
0000
0000
0000
0100
0000
0010
0000
0100
0000
0000
0000
0010
0000
0000
0000
0001
0000
1000
0001
1000
0000
0000
0000
0001
0000
0000
0000
1000
0000
0000
0000
,
1001
0000
0001
0100
0010
0000
1000
0010
0100
0000
0001
0000
0100
0000
0000
0000
,
1010
0000
1000
0000
0001
0000
0100
0010
0100
0000
0001
0000
1000
0100
1000
0000
,
0001
1000
0001
0000
1000
0000
0001
0010
0001
0000
1000
0000
0010
0100
0010
0000
,
1000
0100
1000
0000
0001
0000
1000
0100
1000
0000
0001
0000
0100
0010
0100
0000
,
0001
0010
0001
0000
1000
0000
0100
0010
0100
0000
0010
0000
0001
0010
0001
0000
,
1000
0000
0001
0000
0000
0100
0000
0000
1000
0000
0000
0100
0000
0000
0010
0000
,
0000
0000
1000
0000
0000
0100
0000
0000
0001
0000
0000
0100
0000
0000
0010
0000
,
0000
0000
0001
0000
0000
0100
0000
0000
1000
0000
0000
0100
0000
0000
0010
0000
,
0000
0001
0000
1000
0020
0000
2030
0000
,
3001
0000
0100
0010
0100
0000
0001
0000
0000
0000
1000
0100
1000
0001
1000
0001
,
0100
0010
0100
0010
1000
0000
0001
0000
0000
0000
1000
0100
1000
0100
0010
0001
,
1000
0100
0010
0100
0010
0001
1000
0000
0000
0000
1000
0100
1000
0100
0010
0001
,
0010
0001
1000
0100
0010
0100
1000
0000
0000
0000
0001
0100
0001
1000
0100
1000
,
0001
0000
0100
0001
0100
0000
0010
0000
1000
0010
1000
0010
1000
0000
0100
0000
,
0010
0000
0001
1000
0100
0000
0010
0000
0001
0010
0100
0010
0001
0000
1000
0000
,
1100
0000
1000
0100
0010
0000
0001
0000
0010
0100
1000
0100
0010
0000
0001
0000
,
0011
0000
0001
0100
0010
0000
1000
0000
0010
0100
0001
0100
0010
1000
0010
0000
,
1010
0000
0010
0000
0000
1000
0000
0000
0010
0000
0000
0100
0000
0000
0010
0000
,
0000
0000
1000
0000
0000
0010
0000
0000
0100
0000
0000
0010
0000
0000
1000
0000
,
0000
0000
0001
0000
0000
0010
0000
0000
0001
0000
0000
1000
0000
0000
0001
0000
,
0000
0000
0100
0000
0000
0010
0000
0000
1000
0000
0000
0010
0000
0000
0100
0000
,
0010
0000
1000
0000
0000
0100
0000
0000
0010
0000
0000
0001
0000
0000
0100
0000
,
0010
0000
1000
0000
0000
0010
0000
0000
0100
0000
0000
0010
0000
0000
1000
0000
,
0100
0000
0010
0000
0000
0001
0000
0000
0100
0000
0000
0001
0000
0000
0100
0000
,
0010
0000
1000
0001
1000
0000
0001
0100
0001
0000
1000
0000
0010
0000
0100
0000
,
0102
0000
0000
0000
0203
0000
0000
0000
0010
0000
0000
0010
0000
0000
0010
0000
,
0320
0000
0000
0000
1000
0000
0000
0000
0100
0000
0000
0100
0000
0000
0100
0000
,
0230
0000
0000
0000
0001
0000
0000
0000
0010
0000
0000
0010
0000
0000
0001
0000
,
0301
1000
0000
0000
1000
0010
0000
0000
0100
0001
0000
0100
0000
0000
0010
0000
,
1000
0000
0010
0000
0100
0000
0000
0000
0002
0000
0000
0100
0000
0000
0103
0000
,
0010
0000
0000
0000
1010
0000
0000
0000
1000
0000
0000
0100
0000
0000
0001
0000
,
0200
0000
0000
0000
1300
0000
0000
0000
0001
0000
0000
1000
0000
0000
0100
0000
,
1001
0000
0001
0100
0010
0000
1000
0000
0100
0000
0010
0000
0001
0000
1000
0000
,
1001
0000
0001
0010
0100
1000
0100
0000
0000
0000
0010
0001
0010
0001
1000
0001
,
1000
0010
1000
0010
0100
0001
0100
0000
0000
0000
0010
1000
0010
1000
0100
0010
,
0001
0100
0010
1000
0100
0010
0001
0000
0000
0000
1000
0010
1000
0010
0100
0001
,
0100
0010
1000
0001
0010
0001
1000
0000
0000
0000
0001
1000
0001
0100
0001
0000
,
1001
0000
0000
1000
0000
0000
0100
0000
0000
0010
0000
0000
0001
1000
0000
1000
,
0002
0000
0000
0103
0000
0000
0010
0000
0000
1000
0000
1000
0001
1000
0000
0000
,
1001
0000
0001
0000
0100
0000
0010
0000
1000
0010
0000
0010
0100
0000
0000
0100
,
0001
0000
0001
0100
0000
0000
0010
0000
1000
0001
0000
0001
1000
0000
0010
0000
,
0100
0000
0001
1000
0000
0000
0001
0000
1000
0010
0000
1000
0010
0000
0100
0000
,
0101
0000
0000
0000
1001
0000
0000
0000
1000
0001
1000
0001
1000
0000
0001
0100
,
0000
0000
0010
0000
0000
1000
0000
0000
0001
0100
0000
0000
0010
0000
0000
1000
,
0000
0000
0010
0000
0000
0100
0000
0001
1000
0001
0000
0000
1000
0000
0000
0010
,
0000
0000
0100
0000
0000
0001
0000
1000
0001
0000
0001
0000
1001
0000
1000
0000
,
0001
0000
0100
0000
0010
1000
0010
1000
0010
0000
2000
0000
0000
3002
0000
0000
,
0203
0000
0000
0320
0000
0000
1030
0000
0000
0000
0002
0000
0000
0203
0000
0000
,
0320
0000
0000
2030
0000
0000
3001
0000
0000
0000
0200
0000
0000
0320
0000
0000
,
2030
0000
0000
3002
0000
0000
1003
0000
0000
0000
0020
0000
0000
0230
0000
0000
,
0302
0000
0000
2003
0000
0000
3001
0000
1000
0100
1000
0000
0000
0000
0001
0100
,
0001
0000
0000
0000
1000
0010
1000
0000
0001
0100
0001
0000
0000
0000
1000
0001
,
1000
0000
0000
0000
0001
0100
0010
0000
1000
0010
0100
0000
0000
0000
0001
0100
,
0010
0000
0000
0000
1000
0001
1000
0000
0001
0000
0100
0010
0100
0000
0001
0100
,
0001
1000
0010
0100
0201
0000
0010
0000
,
0301
0000
0000
0100
0000
0000
0010
0000
2000
0000
0000
0000
3002
0000
0000
0000
,
1003
0000
0000
0010
0000
0000
0100
0000
0002
0000
0000
0000
1000
0000
0000
0000
,
0103
0000
0000
0010
0000
0000
1000
0000
1001
0000
0000
0000
0001
0000
0100
0000
,
0001
0000
0000
1000
0000
0000
0010
0000
1001
0000
0000
0000
2000
0000
0000
0000
,
3100
0000
0000
0001
0000
0000
0100
0000
2000
0000
0000
0000
3002
0000
0000
0000
,
0013
0000
0000
0100
0000
0000
1000
0000
0002
0000
0000
0000
2003
0000
0000
0000
,
3010
0000
0000
0100
0000
0000
0001
0000
0021
0000
0000
0000
0032
0000
0000
0000
,
1003
1001
2002
0000
,
0000
0000
0000
3003
0000
0000
0000
0000
;

//---------------dance-double - Copied from ----------------
#NOTES:
     dance-double:
     :
     Challenge:
     11:
     0.800,0.922,0.334,0.189,0.951: // measure 1
00000000
00000000
00000000
00000000
,  // measure 2
00000000
00000000
00000000
00000000
,  // measure 3
00010000
00000000
00000000
00000000
00001000
00000000
00010000
00000000
00001000
00000000
00000000
00000000
00010000
00000000
00000000
00000000
00001000
00000000
00100000
00010000
00100000
00000000
00000000
00000000
00010000
00000000
00000000
00000000
01000000
00000000
00000000
00000000
,  // measure 4
01010000
00000000
00010000
01000000
00100000
00000000
10000000
00010000
00100000
00000000
00001000
00000000
00010000
00000000
00000000
00000000
,  // measure 5
00010100
00000000
00001000
00000000
00000010
00000000
00000100
00000001
00000100
00000000
00000010
00000000
00001000
00000100
00001000
00000000
,  // measure 6
00000010
00010000
00000010
00000000
00010000
00000000
00001000
00010000
00001000
00000000
00010000
00000000
00000100
00010000
00000100
00000000
,  // measure 7
00001000
00000010
00001000
00000000
00000001
00000000
00000100
00000010
00000100
00000000
00000010
00000000
00010000
00001000
00010000
00000000
,  // measure 8
00001000
01000000
00001000
00000000
01000000
00000000
00100000
10000000
00100000
00000000
01000000
00000000
00010000
00100000
00010000
00000000
,  // measure 9
10000000
00010000
1000000M
00000000
00010000
000000M0
01000000
00010000
01000M00
00000000
00100000
0000M000
10000000
00010000
1000000M
00000000
,  // measure 10
00010000
00100000
000100M0
00000000
01000000
0000M000
00010000
00100000
00010M00
00000000
01000000
000000M0
00001000
00010000
0000100M
00000000
,  // measure 11
00010000
00001000
00M10000
00000000
00000100
M0000000
00001000
00000010
00M01000
00000000
00000001
0M000000
00000100
00000010
000M0100
00000000
,  // measure 12
00000101
00000000
00000010
00000000
00000000
00001000
00000000
00000000
00000200
00000000
00000000
00000000
00020300
00000000
00000000
00000000
,  // measure 13
00030000
00000000
00001000
00010000
00001000
01000000
00010000
10000000
00010000
00000000
00100000
00010000
00100000
00001000
00010000
00001000
,  // measure 14
00010000
00000100
00001000
00000100
00001000
00000010
00000100
00000001
00000100
00000000
00000010
00010000
00001000
00010000
00000100
00001000
,  // measure 15
00000100
00010000
00001000
00100000
00010000
00100000
00001000
00010000
00001000
00000000
00100000
00010000
10000000
01000000
10000000
00010000
,  // measure 16
01000000
00100000
01000000
00010000
00100000
00001000
00010000
00000010
00000100
00000000
00000001
00000100
00000010
00010000
00001000
01000000
,  // measure 17
00100000
00000000
01000000
00010000
01000000
00000000
00100000
00000000
10000000
00100000
10000000
00100000
10000000
00010000
01000000
00010000
,  // measure 18
01000000
00000000
00010000
00100000
00001000
00000000
00010000
00000000
00000010
00000100
00000010
00000100
00000001
00000100
00000001
00000100
,  // measure 19
00000101
00000000
00000010
00001000
00000100
00000000
00001000
00000100
00010000
00001000
00010000
00001000
00010000
00001000
00010000
00000000
,  // measure 20
00011000
00000000
00001000
00100000
00001000
00000000
01000000
00100000
10000000
00100000
10000000
00000000
20000000
00000000
30000000
00000000
,  // measure 21
10100000
00000000
10000000
00000000
00000000
01000000
00000000
00000000
00010000
00000000
00000000
00001000
00000000
00000000
00000100
00000000
,  // measure 22
00000000
00000000
00000001
00000000
00000000
00000100
00000000
00000000
00001000
00000000
00000000
00010000
00000000
00000000
01000000
00000000
,  // measure 23
00000000
00000000
10000000
00000000
00000000
00100000
00000000
00000000
00001000
00000000
00000000
00100000
00000000
00000000
10000000
00000000
,  // measure 24
00000000
00000000
00010000
00000000
00000000
01000000
00000000
00000000
00001000
00000000
00000000
00010000
00000000
00000000
00000010
00000000
,  // measure 25
00010000
00000100
00010000
00000000
00000000
00001000
00010000
00001000
00010000
00000000
00000000
00001000
01000000
00001000
01000000
00000000
,  // measure 26
00010000
10000000
00010000
00000000
00000000
10000000
00100000
01000000
00010000
00000000
00000000
10000000
00100000
01000000
00001000
00000000
,  // measure 27
00100000
00010000
00100000
00000000
00000000
00001000
00010000
00000010
00001000
00000000
00000000
00000100
00010000
00001000
00010000
00000000
,  // measure 28
00001000
00000000
00100000
00010000
00100000
00000000
00001000
00010000
00001000
00000000
00010000
00000000
00001000
00000000
00010000
00000000
,  // measure 29
00002000
00000000
00000000
00000000
00000000
00000000
00000000
00000000
01000000
00000000
00000000
00000000
00000000
00000000
00000000
00000000
00103000
00000000
00000000
00000000
00000000
00000000
00100000
00000000
00000000
00000000
00000000
00000000
00100000
00001000
00100000
00001000
,  // measure 30
00200000
00000000
00000000
00000000
00000000
00000000
00000000
00000000
00010000
00000000
00000000
00000000
00000000
00000000
00000000
00000000
00300100
00000000
00000000
00000000
00000000
00000000
00000100
00000000
00000000
00000000
00000000
00000000
00000100
00001000
00000100
00001000
,  // measure 31
00000200
00000000
00000000
00000000
00000000
00000000
00000000
00000000
00100000
00000000
00000000
00000000
00000000
00000000
00000000
00000000
00001300
00000000
00000000
00000000
00000000
00000000
00010000
00000000
00000000
00000000
00000000
00000000
00000010
00000100
00000010
00000100
,  // measure 32
00000010
00000000
00000000
00000000
00000100
00000001
00000000
00000000
00000100
00000001
00000000
00000100
00000000
00000000
00000100
00000000
,  // measure 33
00000002
00000000
00000000
00000000
00000000
00000000
00000000
00000000
00002003
00000000
00000000
00000000
00000000
00000000
00000000
00000000
00000100
00000000
00000000
00000000
00000000
00000000
00000010
00000000
00000000
00000000
00000000
00000000
00003100
00010000
00000100
00010000
,  // measure 34
00000200
00000000
00000000
00000000
00000000
00000000
00000000
00000000
00010000
00000000
00000000
00000000
00000000
00000000
00000000
00000000
00100300
00000000
00000000
00000000
00000000
00000000
00010000
00000000
00000000
00000000
00000000
00000000
01000000
00100000
01000000
00100000
,  // measure 35
02000000
00000000
00000000
00000000
03020000
00000000
00000000
00000000
00130000
00000000
00000000
00001000
00000000
00000000
00010000
00000000
,  // measure 36
00011000
00000000
00010000
00000100
00010000
00000000
00001000
00000000
00010000
00000000
00000010
00000000
00000100
00000000
00000010
00000000
,  // measure 37
00000110
00000000
00000010
00010000
00001000
00010000
00000010
00000000
00000000
00000000
00000100
00000001
00000100
00000001
00001000
00000100
,  // measure 38
00010000
00001000
00010000
00000100
00010000
00001000
00100000
00000000
00000000
00000000
00010000
10000000
01000000
10000000
00010000
00100000
,  // measure 39
00001000
00100000
00010000
10000000
01000000
10000000
00010000
00000000
00000000
00000000
00100000
00001000
00010000
00000100
00100000
00001000
,  // measure 40
00010000
00000100
00100000
00001000
00010000
00001000
00100000
00000000
00000000
00000000
00001000
00010000
00000100
00010000
00001000
00000000
,  // measure 41
00011000
00000000
00000000
00010000
00000000
00000000
00000010
00000000
00000000
00000100
00000000
00000000
00000001
00000100
00000000
00000100
,  // measure 42
00000001
00000000
00000000
00000100
00000000
00000000
00000010
00000000
00000000
00001000
00000000
00000100
00010000
00001000
00000000
00000000
,  // measure 43
00011000
00000000
00010000
00000000
01000000
00000000
00100000
00000000
10000000
00100000
00000000
00100000
01000000
00000000
00000000
01000000
,  // measure 44
00010000
00000000
00010000
01000000
00000000
00000000
00100000
00000000
10000000
00010000
00000000
00010000
10000000
00000000
00100000
00000000
,  // measure 45
01000000
00000000
00100000
10000000
00000000
00000000
00010000
00000000
10000000
00100000
00000000
10000000
00100000
00000000
01000000
00000000
,  // measure 46
10010000
00000000
00000000
00000000
00001100
00000000
00000000
00000000
00000100
00000010
00000100
00000010
00000100
00000000
00000010
00000100
,  // measure 47
00000000
00000000
00000001
00000000
00000000
00001000
00000000
00000100
00010000
00001000
00000000
00000000
00100000
00000000
00000000
00010000
,  // measure 48
00000000
00000000
01000000
00000000
00000000
00100000
00000000
10000000
00010000
10000000
00000000
00000000
00010000
00000000
00000000
00100000
,  // measure 49
00000000
00000000
00001000
00000000
00000000
00010000
00000000
00001000
00010000
00001000
00000000
00000000
00011000
00000000
00010000
00000000
,  // measure 50
00000010
00000000
00000000
00000000
00000100
00000000
00000000
00000000
00000001
00001000
00000001
00001000
00000001
00001000
00000001
00001000
00000001
00000000
00000000
00000000
00001001
00000000
00000000
00000000
00000000
00000000
00001100
00000000
00000000
00000000
00000000
00000000
,  // measure 51
00010100
00000000
00000000
00011000
00000000
00000000
00101000
00000000
00000000
00000000
00110000
00000000
00000000
10010000
00000000
00000000
,  // measure 52
11000000
00000000
00000000
10100000
00000000
00000000
01001000
00000000
00000000
00000000
00011000
00000000
00000000
00010010
00000000
00000000
,  // measure 53
00001100
00000000
00000000
00000011
00000000
00000000
00001001
00000000
00000000
00000000
00000011
00000000
00000000
00001100
00000000
00000000
,  // measure 54
00011000
00000000
00000000
01100000
00000000
00000000
01001000
00000000
01000000
00010000
01000000
00000000
00000000
00000000
00001000
00010000
,  // measure 55
00001000
00000000
00000000
00000000
00010000
00000010
00001000
00000000
00000100
00010000
00000100
00000000
00000000
00000000
00001000
00000001
,  // measure 56
00001000
00000000
00000000
00000000
00000001
00000010
00000001
00000000
00001000
00000100
00001000
00000000
00000000
00000000
00000100
00100000
,  // measure 57
00001000
00000000
00000000
00000000
00010000
10000000
00010000
00000000
10000000
00000000
00010000
01000000
00010000
00000000
01000000
00000000
,  // measure 58
00010000
10000000
00100000
01000000
02100000
00000000
00010000
00000000
,  // measure 59
00100000
00000000
00000000
00100000
00000000
00000000
00100000
00000000
03200000
00000000
00000000
00000000
10000000
00000000
00000000
00000000
,  // measure 60
00010000
00000000
00000000
00010000
00000000
00000000
00010000
00000000
00320000
00000000
00000000
00000000
00100000
00000000
00000000
00000000
,  // measure 61
00000010
00000000
00000000
00000010
00000000
00000000
00000010
00000000
00030020
00000000
00000000
00000000
00010000
00000000
00010000
00000000
,  // measure 62
00010030
00000000
00000000
00001000
00000000
00000000
00010000
00000000
00011000
00000000
00000000
00000000
00002000
00000000
00000000
00000000
,  // measure 63
01003000
00000000
00000000
00010000
00000000
00000000
01000000
00000000
00002000
00000000
00000000
00000000
00013000
00000000
00000000
00000000
,  // measure 64
00000010
00000000
00000000
00000100
00000000
00000000
00000001
00000000
00002000
00000000
00000000
00000000
00003200
00000000
00000000
00000000
,  // measure 65
00010300
00000000
00000000
00001000
00000000
00000000
00100000
00000000
00010000
00000000
00000000
00000000
10000000
00000000
00001000
00000000
,  // measure 66
00010000
00001001
00002020
00000000
,  // measure 67
00003030
00000000
00000000
00000000
;

//---------------dance-double - Copied from Copied from ----------------
#NOTES:
     dance-double:
     Copied from Copied from:
     Hard:
     9:
     0.608,0.744,0.171,0.180,0.505: // measure 1
00000000
00000000
00000000
00000000
,  // measure 2
00000000
00000000
00000000
00000000
,  // measure 3
00010000
00001000
01000000
00100000
10000000
00010000
01000000
00010000
,  // measure 4
01010000
00000000
00000000
00010000
00100000
00000000
00000000
00010000
00100000
00000000
00001000
00000000
00010000
00000000
00000000
00000000
,  // measure 5
00010100
00000000
00001000
00000000
00000010
00000000
00000100
00000001
00000100
00000000
00000010
00000000
00001000
00000100
00001000
00000000
,  // measure 6
00000010
00010000
00000010
00000000
00010000
00000000
00001000
00010000
00001000
00000000
00010000
00000000
00000100
00010000
00000100
00000000
,  // measure 7
00001000
00000010
00001000
00000000
00000001
00000000
00000100
00000010
00000100
00000000
00000010
00000000
00010000
00001000
00010000
00000000
,  // measure 8
00001000
01000000
00001000
00000000
01000000
00000000
00100000
10000000
00100000
00000000
01000000
00000000
00010000
00100000
00010000
00000000
,  // measure 9
10000000
00000000
00010000
00000000
00000000
00100000
00000000
00000000
00001000
00000000
00000000
00010000
00000000
00000000
00001000
00000000
,  // measure 10
00000000
00000000
00010000
00000000
00000000
00000100
00000000
00000000
00001000
00000000
00000000
00000010
00000000
00000000
00000100
00000000
,  // measure 11
00000000
00000000
00000001
00000000
00000000
00000100
00000000
00000000
00000010
00000000
00000000
00010000
00000000
00000000
00001000
00000000
,  // measure 12
00100000
00000000
00001000
00000000
00000000
00010000
00000000
00000000
00000200
00000000
00000000
00000000
00020300
00000000
00000000
00000000
,  // measure 13
00031000
00000000
00010000
00001000
00010000
00000000
00001000
00000000
01000000
00000000
00100000
00000000
10000000
00000000
00010000
00000000
,  // measure 14
01000000
00100000
10000000
01000000
00100000
00010000
00100000
01000000
,  // measure 15
00100000
00000000
00001000
00100000
01000000
00000000
00100000
00000000
01000000
00000000
00001000
00000000
00010000
00000000
00000100
00000000
,  // measure 16
00001000
00000010
00000100
00000010
00010000
00001000
00010000
00001000
,  // measure 17
01000000
00000000
00010000
01000000
00100000
00000000
10000000
00000000
00100000
00000000
10000000
00000000
01000000
00000000
00010000
00000000
,  // measure 18
00001000
00000100
00000001
00000100
00001000
00010000
01000000
10000000
,  // measure 19
10010000
00000000
10000000
00010000
01000000
00010000
00100000
00001000
,  // measure 20
00011000
00000000
00001000
00010000
00001000
00000000
00010000
00000100
00001000
00000100
00010000
00000000
00001000
00000000
00000000
00000000
,  // measure 21
00011000
00000000
00001000
00000000
00000000
01000000
00000000
00000000
00010000
00000000
00000000
00100000
00000000
00000000
00100000
00000000
,  // measure 22
00000000
00000000
00001000
00000000
00000000
00010000
00000000
00000000
00000100
00000000
00000000
00010000
00000000
00000000
01000000
00000000
,  // measure 23
00000000
00000000
10000000
00000000
00000000
00100000
00000000
00000000
00001000
00000000
00000000
00100000
00000000
00000000
10000000
00000000
,  // measure 24
00000000
00000000
00010000
00000000
00000000
01000000
00000000
00000000
00001000
00000000
00000000
00010000
00000000
00000000
00000010
00000000
,  // measure 25
00000000
00000000
00001000
00000000
00000000
00000100
00000000
00000000
00010000
00000000
00000000
00001000
00000000
00000000
00010000
00000000
,  // measure 26
00000000
00000000
00000010
00000000
00000000
00000100
00000000
00000000
00000001
00000000
00000000
00001000
00000000
00000000
00000010
00000000
,  // measure 27
00000000
00000000
00010000
00000000
00000000
00001000
00000000
00000000
01000000
00000000
00000000
00100000
00000000
00000000
10000000
00000000
,  // measure 28
00000000
00000000
00010000
00000000
00000000
01000000
00000000
00000000
00010000
00000000
00000000
01000000
00000000
00000000
00001000
00000000
,  // measure 29
00002000
00000000
00000000
00000000
01000000
00000000
00000000
00000000
00103000
00000000
00000000
00001000
00000000
00000000
00100000
00000000
,  // measure 30
00200000
00000000
00000000
00000000
00010000
00000000
00000000
00000000
00300100
00000000
00000000
00001000
00000000
00000000
00000100
00000000
,  // measure 31
00000200
00000000
00000000
00000000
00100000
00000000
00000000
00000000
00001300
00000000
00000000
00010000
00000000
00000000
00000010
00000000
,  // measure 32
00000010
00000000
00000000
00000000
00000100
00000000
00000000
00000000
00000100
00000000
00000000
00000100
00000000
00000000
00000100
00000000
,  // measure 33
00000002
00000000
00000000
00000000
00002003
00000000
00000000
00000000
00003100
00000000
00000000
00000010
00000000
00000000
00000100
00000000
,  // measure 34
00000200
00000000
00000000
00000000
00010000
00000000
00000000
00000000
00100300
00000000
00000000
00010000
00000000
00000000
01000000
00000000
,  // measure 35
02000000
00000000
00000000
00000000
03020000
00000000
00000000
00000000
00130000
00000000
00000000
00001000
00000000
00000000
00010000
00000000
,  // measure 36
00011000
00000000
00010000
00001000
00010000
00000000
00000100
00000000
,  // measure 37
00001000
00000000
00000100
00001000
00000100
00001000
00000100
00000000
00000000
00000000
00010000
00001000
00010000
00001000
00010000
00001000
,  // measure 38
00010000
00000000
00001000
00010000
00001000
00010000
00001000
00000000
00000000
00000000
00100000
00010000
00100000
00010000
00100000
00010000
,  // measure 39
00100000
00000000
00010000
00100000
00010000
00100000
00010000
00000000
00000000
00000000
10000000
00010000
10000000
00010000
10000000
00010000
,  // measure 40
10000000
00000000
00010000
10000000
00010000
10000000
00010000
00000000
00000000
00000000
10000000
01000000
10000000
01000000
10000000
00000000
,  // measure 41
00010000
00000000
00000000
00100000
00000000
00000000
00000100
00000000
00000000
00010000
00000000
00000000
00000010
00000000
00000000
00000000
,  // measure 42
00000010
00000000
00000000
00000100
00000000
00000000
00000010
00000000
00000000
00001000
00000000
00000000
00010000
00000000
00000000
00000000
,  // measure 43
00011000
00000000
00000000
00000000
00001000
00000000
00000000
00000000
00100000
00010000
00000000
00000000
00100000
00000000
00000000
00000000
,  // measure 44
00010000
00000000
01000000
00010000
00000000
00000000
10000000
00000000
00010000
01000000
00000000
00000000
00010000
00000000
10000000
00000000
,  // measure 45
00010000
00000000
00100000
00001000
00000000
00000000
00010000
00000000
00000010
00000100
00000000
00000000
00000001
00000000
00000000
00000000
,  // measure 46
00001001
00000000
00000000
00000000
00001100
00000000
00000000
00000000
00000100
00000010
00000100
00000010
00000100
00000000
00000000
00000001
,  // measure 47
00000000
00000000
00000001
00000000
00000000
00000100
00000000
00000000
00000100
00000000
00000000
00000000
00000010
00000000
00000000
00010000
,  // measure 48
00000000
00000000
00001000
00000000
00000000
00010000
00000000
00000000
00000010
00000000
00000000
00000000
00010000
00000000
00000000
00001000
,  // measure 49
00000000
00000000
00100000
00000000
00000000
00001000
00000000
00000000
00010000
00000000
00000000
00000000
00011000
00000000
00010000
00000000
,  // measure 50
00000010
00000000
00000100
00000000
00000001
00001000
00000001
00001000
00000001
00000000
00001001
00000000
00000000
00001000
00000000
00000000
,  // measure 51
00000100
00000000
00000000
00010000
00000000
00000000
00101000
00000000
00000000
00000000
00110000
00000000
00000000
00010000
00000000
00000000
,  // measure 52
01000000
00000000
00000000
00100000
00000000
00000000
01001000
00000000
00000000
00000000
00011000
00000000
00000000
00010000
00000000
00000000
,  // measure 53
00000100
00000000
00000000
00010000
00000000
00000000
00010010
00000000
00000000
00000000
00000010
00000000
00000000
00001000
00000000
00000000
,  // measure 54
00000010
00000000
00000000
00010000
00000000
00000000
00000010
00000000
00010000
00001000
00100000
00000000
00000000
00000000
00001000
00010000
,  // measure 55
00001000
00000000
00000000
00000000
00010000
00000010
00001000
00000000
00000100
00010000
00000100
00000000
00000000
00000000
00001000
00000001
,  // measure 56
00001000
00000000
00000000
00000000
00000001
00000010
00000001
00000000
00001000
00000100
00001000
00000000
00000000
00000000
00000100
00100000
,  // measure 57
00001000
00000000
00000000
00000000
10000000
00010000
10000000
00000000
00010000
00000000
01000000
00010000
01000000
00000000
00010000
00000000
,  // measure 58
10000000
00100000
01000000
00100000
02000000
00000000
00010000
00000000
,  // measure 59
03100000
00000000
00000000
00100000
00000000
00000000
00100000
00000000
20000000
00000000
00000000
00000000
00010000
00000000
00000000
00000000
,  // measure 60
30010000
00000000
00000000
00010000
00000000
00000000
00010000
00000000
00200000
00000000
00000000
00000000
00001000
00000000
00000000
00000000
,  // measure 61
00300010
00000000
00000000
00001000
00000000
00000000
00000010
00000000
00000020
00000000
00000000
00000000
00010000
00000000
00010000
00000000
,  // measure 62
00010030
00000000
00000000
00001000
00000000
00000000
00010000
00000000
00011000
00000000
00000000
00000000
00002000
00000000
00000000
00000000
,  // measure 63
01003000
00000000
00000000
00010000
00000000
00000000
01000000
00000000
00002000
00000000
00000000
00000000
00013000
00000000
00000000
00000000
,  // measure 64
00000010
00000000
00000000
00000100
00000000
00000000
00000001
00000000
00002000
00000000
00000000
00000000
00003200
00000000
00000000
00000000
,  // measure 65
00010300
00000000
00000000
00001000
00000000
00000000
00100000
00000000
00010000
00000000
00000000
00000000
10000000
00000000
00001000
00000000
,  // measure 66
00010000
00001001
00002020
00000000
,  // measure 67
00003030
00000000
00000000
00000000
;
