#TITLE:Disco Gino (Disko Warp 'Don't Touch My Moustache' Remix);
#SUBTITLE:;
#ARTIST:J Mi & Midi D;
#TITLETRANSLIT:;
#SUBTITLETRANSLIT:;
#ARTISTTRANSLIT:;
#CREDIT:;
#BANNER:Disco Gino (Disko Warp 'Don't Touch My Moustache' Remix).png;
#BACKGROUND:Disco Gino (Disko Warp 'Don't Touch My Moustache' Remix)-bg.png;
#LYRICSPATH:;
#CDTITLE:;
#MUSIC:[ROUND 3] - Disco Gino (Disko Warp 'Don't Touch My Moustache' Remix).mp3;
#OFFSET:-0.041;
#SAMPLESTART:49.387;
#SAMPLELENGTH:10.971;
#SELECTABLE:YES;
#BPMS:0.000=175.000,40.000=350.000,41.003=175.000;
#DISPLAYBPM:175
#STOPS:40.000=0.171
;
#BGCHANGES:;

//---------------dance-single - ----------------
#NOTES:
     dance-single:
     :
     Hard:
     9:
     0.736,0.714,0.344,0.163,0.208:
0000
0000
0000
0000
,
0000
0000
0000
0000
,
0000
0000
0000
0000
,
0000
0000
0000
0000
,
1000
0100
0001
0100
1000
0010
0100
1000
,
0100
0010
1000
0001
0010
0100
0001
0000
,
0100
1000
0010
0100
1000
0100
0010
1000
,
0001
0010
1000
0010
0001
0100
0010
0000
,
1000
0100
0001
0100
0010
0001
0100
0010
,
1000
0100
0001
0100
1000
0010
0100
0000
,
2001
0000
3100
1000
0001
0001
0100
0010
,
1000
0000
0001
0000
0000
0000
0001
1000
0200
0000
0010
0000
0310
0000
0000
0000
,
0110
0000
1100
0000
1001
0000
0001
0200
,
0000
0000
1300
0000
0000
0000
0100
0001
0100
0000
0001
0000
0010
0000
1000
0000
,
1010
0000
0011
0000
1001
0000
0001
0020
,
0000
1030
0010
0001
0100
0010
0100
0001
,
0000
1000
0100
0010
0001
0010
0000
0100
,
1000
0010
0100
0002
0100
0000
1003
0001
,
0101
0000
1010
0000
1000
0100
0001
0100
,
0110
0000
0100
1000
0001
0001
1000
1000
,
0001
0000
0000
0001
0100
0000
0010
0000
1000
0000
0000
1000
0100
0000
0010
0000
,
0001
0000
0000
0001
1000
0100
1000
0000
0001
0000
0100
0000
1000
0000
0100
0000
,
0001
0000
0000
0001
0010
0000
0100
0000
1000
0000
0000
1000
0010
0000
0100
0000
,
0001
0000
0000
0001
0100
0000
0010
0000
1000
0000
0000
0000
1001
0000
0000
0000
,
1000
0000
0000
1000
0100
0000
0010
0000
0100
0000
0000
0100
1000
0000
0010
0000
,
0100
0000
0000
0100
0001
0010
0001
0000
0100
0000
0010
0000
1000
0000
0001
0000
,
0010
0000
0000
0010
0100
0000
1000
0000
0001
0000
0000
0001
0100
0000
0010
0000
,
1010
0110
0102
1003
,
0001
0010
1000
0010
0001
0100
0010
0000
,
1000
0100
0001
0100
1000
0010
0100
0000
,
0001
0100
0010
0100
1000
0100
0010
1000
,
0100
0001
0100
0010
0100
1000
0001
0000
,
1000
0100
0001
0100
0010
0001
1000
0000
,
0001
0100
1000
0100
0010
1000
0001
0000
,
1000
0010
0001
0010
0100
0001
1000
0000
,
2002
0000
0000
3003
,
0110
0000
0011
0000
1001
0000
1000
0020
,
0000
0000
0031
0000
0000
0000
0010
1000
0010
0000
1000
0000
0100
0000
0001
0000
,
0101
0000
1100
0000
1001
0000
1000
0200
,
0000
0301
0100
1000
0010
0100
0010
1000
,
0000
0001
0010
0100
1000
0100
0000
0010
,
0001
0100
0010
2000
0010
0000
3001
1000
,
1010
0000
0101
0000
0001
0010
1000
0010
,
0110
0000
0010
0001
1000
1000
0001
0001
,
1000
0000
0000
1000
0010
0000
0100
0000
0001
0000
0000
0001
0010
0000
0100
0000
,
1000
0000
0000
1000
0001
0010
0001
0000
1000
0000
0010
0000
0001
0000
0010
0000
,
1000
0000
0000
1000
0100
0000
0010
0000
0001
0000
0000
0001
0100
0000
0010
0000
,
1000
0000
0000
1000
0010
0000
0100
0000
0001
0000
0000
0000
1001
0000
0000
0000
,
0001
0000
0000
0001
0010
0000
0100
0000
0010
0000
0000
0010
0001
0000
0100
0000
,
0010
0000
0000
0010
1000
0100
1000
0000
0010
0000
0100
0000
0001
0000
1000
0000
,
0100
0000
0000
0100
0010
0000
0001
0000
1000
0000
0000
1000
0010
0000
0100
0000
,
0001
0000
0000
0100
1000
0000
0100
0000
0010
0000
0000
0000
1001
0000
0000
0000
,
1000
0100
0001
0100
1000
0010
0100
0000
,
0001
0010
1000
0010
0001
0100
0010
0000
,
1000
0010
0100
0010
0001
0010
0100
0001
,
0010
1000
0010
0100
0010
0001
1000
0000
,
0001
0010
1000
0010
0100
1000
0001
0000
,
1000
0010
0001
0010
0100
0001
1000
0000
,
0001
0100
1000
0100
0010
1000
0001
0000
,
1000
0100
0001
0000
1000
0010
0001
1000
,
2002
0000
0000
3003
,
1000
0100
0010
0001
0010
0100
1000
0001
,
0110
0000
1100
0000
1001
0000
0001
0200
,
0000
0000
1300
0000
0000
0000
0100
0001
0100
0000
0001
0000
0010
0000
1000
0000
,
1010
0000
0011
0000
1001
0000
0001
0020
,
0000
1030
0010
0001
0100
0010
0100
0001
,
0000
1000
0100
0010
0001
0010
0000
0100
,
1000
0010
0100
0002
0100
0000
1003
0001
,
0101
0000
1010
0000
1000
0100
0001
0100
,
0110
0000
0100
1000
0001
0001
1000
1000
,
0001
0000
0000
0001
0100
0000
0010
0000
1000
0000
0000
1000
0100
0000
0010
0000
,
0001
0000
0000
0001
1000
0100
1000
0000
0001
0000
0100
0000
1000
0000
0100
0000
,
0001
0000
0000
0001
0010
0000
0100
0000
1000
0000
0000
1000
0010
0000
0100
0000
,
0001
0000
0000
0001
0100
0000
0010
0000
1000
0000
0000
0000
1001
0000
0000
0000
,
1000
0000
0000
1000
0100
0000
0010
0000
0100
0000
0000
0100
1000
0000
0010
0000
,
0100
0000
0000
0100
0001
0010
0001
0000
0100
0000
0010
0000
1000
0000
0001
0000
,
0010
0000
0000
0010
0100
0000
1000
0000
0001
0000
0000
0001
0100
0000
0010
0000
,
1010
0000
0000
0010
0100
0000
0001
0000
0020
0000
0100
0000
0130
0000
1000
0001
,
2000
0000
0000
0000
,
3000
0000
0000
0000
;

//---------------dance-single - ----------------
#NOTES:
     dance-single:
     :
     Easy:
     5:
     0.389,0.388,0.090,0.045,0.000: // measure 1
0000
0000
0000
0000
,  // measure 2
0000
0000
0000
0000
,  // measure 3
0000
0000
0000
0000
,  // measure 4
0000
0000
0000
0000
,  // measure 5
1000
0100
0010
0100
,  // measure 6
1000
0010
0100
0010
,  // measure 7
1000
0100
0001
0100
,  // measure 8
0010
0001
1000
0010
,  // measure 9
0100
0001
0010
0001
,  // measure 10
0100
0010
1000
0100
,  // measure 11
1001
0000
0001
1000
,  // measure 12
0002
0000
1000
1003
,  // measure 13
0001
0100
1000
0100
,  // measure 14
0010
0100
0001
0001
,  // measure 15
1000
0100
0001
0100
,  // measure 16
0010
0100
1000
1000
,  // measure 17
0001
0100
0001
0100
,  // measure 18
0010
1000
0010
1000
,  // measure 19
0001
0010
0100
1000
,  // measure 20
0001
0000
0100
0100
,  // measure 21
0001
0001
0010
0010
,  // measure 22
0100
0100
1000
1000
,  // measure 23
0010
0010
0100
0100
,  // measure 24
0001
1000
0001
1001
,  // measure 25
1000
1000
0100
0100
,  // measure 26
0010
0010
0001
0001
,  // measure 27
0100
0100
0010
0010
,  // measure 28
1000
0001
1000
1001
,  // measure 29
0001
0010
1000
1000
,  // measure 30
0010
0001
0100
0100
,  // measure 31
1000
0100
0001
0001
,  // measure 32
0010
0100
1000
1000
,  // measure 33
0001
0010
1000
1000
,  // measure 34
0010
0001
0100
0100
,  // measure 35
0010
1000
0100
0010
,  // measure 36
2002
0000
0000
3003
,  // measure 37
0001
0100
1000
0100
,  // measure 38
0010
0100
0001
0001
,  // measure 39
1000
0100
0001
0100
,  // measure 40
0010
0100
1000
1000
,  // measure 41
0001
0100
0001
0100
,  // measure 42
0010
1000
0010
1000
,  // measure 43
0001
0010
0100
1000
,  // measure 44
0001
0000
0100
0100
,  // measure 45
0001
0001
0010
0010
,  // measure 46
0100
0100
1000
1000
,  // measure 47
0010
0010
0100
0100
,  // measure 48
0001
1000
0001
1001
,  // measure 49
1000
1000
0100
0100
,  // measure 50
0010
0010
0001
0001
,  // measure 51
0100
0100
0010
0010
,  // measure 52
1000
0001
1000
1001
,  // measure 53
0001
0010
1000
1000
,  // measure 54
0010
0001
0100
0100
,  // measure 55
1000
0100
0001
0001
,  // measure 56
0010
0100
1000
1000
,  // measure 57
0001
0010
1000
1000
,  // measure 58
0010
0001
0100
0100
,  // measure 59
0010
1000
0100
0010
,  // measure 60
0001
0100
0010
1000
,  // measure 61
2002
0000
0000
3003
,  // measure 62
1000
0100
0010
0100
,  // measure 63
0001
0100
1000
0100
,  // measure 64
0010
0100
0001
0001
,  // measure 65
1000
0100
0001
0100
,  // measure 66
0010
0100
1000
1000
,  // measure 67
0001
0100
0001
0100
,  // measure 68
0010
1000
0010
1000
,  // measure 69
0001
0010
0100
1000
,  // measure 70
0001
0000
0100
0100
,  // measure 71
0001
0001
0010
0010
,  // measure 72
0100
0100
1000
1000
,  // measure 73
0010
0010
0100
0100
,  // measure 74
0001
1000
0001
1001
,  // measure 75
1000
1000
0100
0100
,  // measure 76
0010
0010
0001
0001
,  // measure 77
0100
0100
0010
0010
,  // measure 78
1000
0001
1000
1001
,  // measure 79
0110
0000
0000
0000
;

//---------------dance-single - ----------------
#NOTES:
     dance-single:
     :
     Medium:
     7:
     0.620,0.635,0.525,0.127,0.000: // measure 1
0000
0000
0000
0000
,  // measure 2
0000
0000
0000
0000
,  // measure 3
0000
0000
0000
0000
,  // measure 4
0000
0000
0000
0000
,  // measure 5
1000
0000
0001
0000
1000
0100
0001
0000
,  // measure 6
1000
0000
0001
0000
1000
0010
0001
0000
,  // measure 7
1000
0000
0001
0000
0100
0010
1000
0000
,  // measure 8
0001
0000
0010
0000
0100
1000
0001
0000
,  // measure 9
1000
0000
0010
0000
0100
1000
0100
0000
,  // measure 10
0010
0000
0100
0000
0001
0100
0001
0000
,  // measure 11
1002
0103
0101
1100
,  // measure 12
1000
0001
1000
0001
0020
0000
0130
0000
,  // measure 13
1000
1100
0001
0101
,  // measure 14
1000
0010
0100
0001
0100
0100
0100
0000
,  // measure 15
0010
0101
0010
1100
,  // measure 16
0001
0010
0100
0010
0001
0001
0001
0000
,  // measure 17
1000
0010
1000
0000
0010
0001
0010
0000
,  // measure 18
0001
0100
0001
0000
0100
1000
0100
0000
,  // measure 19
1100
0011
0101
1010
,  // measure 20
2001
3100
1001
0110
,  // measure 21
1001
0000
0001
0100
0001
0000
0100
0010
,  // measure 22
0100
0000
0010
1000
0010
0010
0010
0000
,  // measure 23
1010
0000
0010
1000
0010
0000
1000
0100
,  // measure 24
1000
0000
0001
1000
0002
0000
0103
0000
,  // measure 25
0101
0000
0001
0010
0001
0000
0010
0100
,  // measure 26
0010
0000
0100
1000
0100
0100
0100
0000
,  // measure 27
1000
0000
0010
0100
0010
0000
1000
0001
,  // measure 28
0101
1100
2001
3010
,  // measure 29
1000
0100
0001
0000
0001
0100
1000
0000
,  // measure 30
1000
0010
0001
0000
0001
0010
1000
0000
,  // measure 31
0001
1000
0001
1000
0001
1000
0001
0000
,  // measure 32
0100
0010
0100
0010
0100
0010
0100
0000
,  // measure 33
0001
0100
1000
0000
1000
0100
0001
0000
,  // measure 34
0001
0010
1000
0000
1000
0010
0001
0000
,  // measure 35
1000
0001
1000
0001
1000
0001
1000
0000
,  // measure 36
2002
0000
0000
3003
,  // measure 37
0001
0011
1000
1010
,  // measure 38
0001
0100
0010
1000
0010
0010
0010
0000
,  // measure 39
0100
1010
0100
0011
,  // measure 40
1000
0100
0010
0100
1000
1000
1000
0000
,  // measure 41
0001
0100
0001
0000
0100
1000
0100
0000
,  // measure 42
1000
0010
1000
0000
0010
0001
0010
0000
,  // measure 43
0011
1100
1010
0101
,  // measure 44
1002
0013
1001
0110
,  // measure 45
1001
0000
1000
0010
1000
0000
0010
0100
,  // measure 46
0010
0000
0100
0001
0100
0100
0100
0000
,  // measure 47
0101
0000
0100
0001
0100
0000
0001
0010
,  // measure 48
0001
0000
1000
0001
2000
0000
3010
0000
,  // measure 49
1010
0000
1000
0100
1000
0000
0100
0010
,  // measure 50
0100
0000
0010
0001
0010
0010
0010
0000
,  // measure 51
0001
0000
0100
0010
0100
0000
0001
1000
,  // measure 52
1010
0011
1002
0103
,  // measure 53
0001
0010
1000
0000
1000
0010
0001
0000
,  // measure 54
0001
0100
1000
0000
1000
0100
0001
0000
,  // measure 55
1000
0001
1000
0001
1000
0001
1000
0000
,  // measure 56
0010
0100
0010
0100
0010
0100
0010
0000
,  // measure 57
1000
0010
0001
0000
0001
0010
1000
0000
,  // measure 58
1000
0100
0001
0000
0001
0100
1000
0000
,  // measure 59
0001
1000
0001
1000
0001
1000
0001
0000
,  // measure 60
0100
0010
0100
0010
0100
0010
0100
0000
,  // measure 61
2002
0000
0000
3003
,  // measure 62
1000
0100
0010
0001
0010
0100
1000
0000
,  // measure 63
0001
0011
1000
1010
,  // measure 64
0001
0100
0010
1000
0010
0010
0010
0000
,  // measure 65
0100
1010
0100
0011
,  // measure 66
1000
0100
0010
0100
1000
1000
1000
0000
,  // measure 67
0001
0100
0001
0000
0100
1000
0100
0000
,  // measure 68
1000
0010
1000
0000
0010
0001
0010
0000
,  // measure 69
0011
1100
1010
0101
,  // measure 70
1002
0013
1001
0110
,  // measure 71
1001
0000
1000
0010
1000
0000
0010
0100
,  // measure 72
0010
0000
0100
0001
0100
0100
0100
0000
,  // measure 73
0101
0000
0100
0001
0100
0000
0001
0010
,  // measure 74
0001
0000
1000
0001
2000
0000
3010
0000
,  // measure 75
1010
0000
1000
0100
1000
0000
0100
0010
,  // measure 76
0100
0000
0010
0001
0010
0010
0010
0000
,  // measure 77
0001
0000
0100
0010
0100
0000
0001
1000
,  // measure 78
1010
0011
1100
0101
,  // measure 79
1001
0000
0000
0000
;
