#VERSION:0.73;
#TITLE:Close My Eyes (DJ A.Q. In The Mix);
#SUBTITLE:;
#ARTIST:DJ Aura Qualic;
#TITLETRANSLIT:;
#SUBTITLETRANSLIT:;
#ARTISTTRANSLIT:;
#GENRE:;
#ORIGIN:;
#CREDIT:;
#BANNER:zivsimshuffle13-bn256.png;
#BACKGROUND:Close My Eyes.bg.png;
#LYRICSPATH:;
#CDTITLE:cdtitle.png;
#MUSIC:[ROUND 3] - Close My Eyes (DJ A.Q. In The Mix).mp3;
#OFFSET:-0.118000;
#SAMPLESTART:69.404999;
#SAMPLELENGTH:13.540000;
#SELECTABLE:YES;
#BPMS:0.000000=142.000000
;
#STOPS:;
#DELAYS:;
#WARPS:;
#TIMESIGNATURES:0.000000=4=4
;
#TICKCOUNTS:0.000000=2
;
#COMBOS:0.000000=1
;
#SPEEDS:0.000000=1.000000=0.000000=0
;
#SCROLLS:0.000000=1.000000
;
#LABELS:0.000000=Song Start
;
#BGCHANGES:;
#KEYSOUNDS:;
#ATTACKS:;

//---------------dance-single - Blank----------------
#NOTEDATA:;
#STEPSTYPE:dance-single;
#DESCRIPTION:Blank;
#CHARTSTYLE:;
#DIFFICULTY:Hard;
#METER:9;
#RADARVALUES:0.577,0.580,0.279,0.030,0.174,375.000,28.000,3.000,0.000,0.000,0.000,0.000,0.000,0.577,0.580,0.279,0.030,0.174,375.000,28.000,3.000,0.000,0.000,0.000,0.000,0.000;
#CREDIT:;
#OFFSET:-0.118000;
#BPMS:0.000000=142.000000
;
#STOPS:;
#DELAYS:;
#WARPS:;
#TIMESIGNATURES:0.000000=4=4
;
#TICKCOUNTS:0.000000=2
;
#COMBOS:0.000000=1
;
#SPEEDS:0.000000=1.000000=0.000000=0
;
#SCROLLS:0.000000=1.000000
;
#FAKES:;
#LABELS:0.000000=Song Start
;
#ATTACKS:;
#NOTES:
// measure 0
0000
0000
0000
0000
,  // measure 1
0000
0000
0000
0000
,  // measure 2
0010
1000
0100
1000
0010
1000
0001
0100
,  // measure 3
0100
0100
0010
0100
0001
0010
0000
0010
,  // measure 4
0010
0010
0100
1000
0001
0100
0010
1000
,  // measure 5
1000
1000
0100
0010
0001
1000
0000
0010
,  // measure 6
0010
0010
1000
0001
0100
0010
0000
0000
,  // measure 7
0010
1000
0100
0000
0110
0000
0110
0000
,  // measure 8
1001
0001
1000
0100
0001
0100
1000
0010
,  // measure 9
0100
0001
0100
0000
0100
0001
0000
1000
,  // measure 10
0001
0010
0100
1000
0100
0010
0100
0010
,  // measure 11
0001
0001
0100
0001
0100
0010
0000
0000
,  // measure 12
1000
0100
0001
1000
0010
0001
1000
0001
,  // measure 13
0010
1000
0001
0000
0100
1000
0000
0010
,  // measure 14
1000
0000
1000
0000
0001
0000
0000
0001
0000
0000
0001
0000
1000
0000
0010
0000
,  // measure 15
0100
0001
0000
0000
1100
0000
0101
0000
,  // measure 16
1001
0000
0000
0000
1000
0000
0000
1000
0000
0000
1000
0000
0001
0000
0100
0000
,  // measure 17
0010
0000
1000
0000
0001
0000
0000
0001
0000
0000
0001
0000
0100
0000
0010
0000
,  // measure 18
1000
0000
0010
0000
0100
0000
0000
0100
0000
0000
0100
0000
0010
0000
0100
0000
,  // measure 19
0001
0000
1000
0000
0010
0000
0000
0010
0000
0000
0010
0000
1000
0000
0010
0000
,  // measure 20
0100
0000
0010
0000
0001
0000
0000
0010
0000
0000
1000
0000
0001
0000
0100
0000
,  // measure 21
0001
0000
0010
0000
1000
0000
0000
0010
0000
0000
0001
0000
1000
0000
0010
0000
,  // measure 22
0100
0000
0001
0000
0110
0000
0000
1010
0000
0000
0011
0000
0010
0000
0001
0000
,  // measure 23
0100
0000
0001
0000
0011
0000
0000
1010
0000
0000
0110
0000
0010
0000
1000
0000
,  // measure 24
0010
0000
0100
0000
0001
0000
0001
0000
0001
1000
0001
1000
0010
0000
0010
0000
,  // measure 25
0010
1000
0001
0100
0001
0100
0000
0100
,  // measure 26
0010
0000
1000
0000
0001
0000
0001
0000
0001
1000
0001
1000
0010
0000
0010
0000
,  // measure 27
0010
1000
0001
0100
0010
1000
0000
0001
,  // measure 28
0100
0000
0010
0000
1000
0000
1000
0000
1000
0010
1000
0010
0100
0000
0100
0000
,  // measure 29
0100
0001
1000
0010
0100
0010
0000
1000
,  // measure 30
0100
0000
0010
0000
0011
0000
0000
0101
0000
0000
1001
0000
1000
0000
0001
0000
,  // measure 31
0100
0000
0010
0000
0110
0000
0000
1100
0000
0000
1010
0000
0010
0000
0100
0000
,  // measure 32
0001
0000
0010
0000
1000
0000
0000
0000
0010
0000
0000
0000
0001
1000
0000
0100
,  // measure 33
0000
0000
0100
0000
1000
0000
0000
0000
0100
0000
0000
0000
1000
0010
0000
0100
,  // measure 34
0000
0000
0100
0000
0001
0000
0000
0001
1000
0000
0000
0001
0100
0000
0000
0001
,  // measure 35
0010
0000
0000
0001
0010
0000
0000
0010
1000
0000
0000
0010
0100
0000
0000
0010
,  // measure 36
0001
0000
0000
0010
1000
0000
0001
0000
1000
0000
0010
0000
0100
0000
0010
0000
,  // measure 37
1000
0010
0001
0010
1000
0100
0001
0100
,  // measure 38
1000
0001
2000
0000
0000
0000
0000
0000
,  // measure 39
0000
0000
0000
0000
3100
0000
0000
0100
0000
0000
0100
0000
0100
0000
0100
0000
,  // measure 40
0010
0000
0000
0000
0100
0000
0000
0100
0000
0000
0100
0000
0100
0000
0100
0000
,  // measure 41
1000
0100
0010
0000
0011
0000
1010
0000
,  // measure 42
1000
0010
0100
0001
0010
0001
0000
0000
,  // measure 43
0010
0001
0100
0000
0100
0000
0001
0010
,  // measure 44
0100
1000
0010
0100
0001
0010
0000
0010
,  // measure 45
0001
0100
1000
0000
1010
0000
0011
0000
,  // measure 46
0100
1000
0010
0100
0001
0010
0000
1000
,  // measure 47
0010
0000
0100
0000
1000
0000
0000
1000
0000
0000
1000
0000
0010
0000
1000
0000
,  // measure 48
0100
0000
1000
0000
0001
0000
0000
0001
0000
0000
0001
0000
0010
0000
0100
0000
,  // measure 49
1000
0010
0001
0000
1001
0000
0110
0000
,  // measure 50
1000
0100
0010
0001
1000
0001
0000
0001
,  // measure 51
1000
0010
0100
0000
0100
0000
0010
1000
,  // measure 52
0100
0001
1000
0010
0001
1000
0000
1000
,  // measure 53
0010
0100
0001
0000
0110
0000
1001
0000
,  // measure 54
0001
0010
0001
0000
1000
0100
0000
1000
,  // measure 55
0010
0000
0001
0000
0010
0000
0000
1001
0000
0000
0010
0000
1000
0000
0010
0000
,  // measure 56
0100
0000
0010
0000
1000
0000
0000
1001
0000
0000
0100
0000
0001
0000
0010
0000
,  // measure 57
1000
0200
0020
0000
0000
0000
0000
0000
,  // measure 58
0000
0330
0000
0000
;

//---------------dance-single - Blank----------------
#NOTEDATA:;
#STEPSTYPE:dance-single;
#DESCRIPTION:Blank;
#CHARTSTYLE:;
#DIFFICULTY:Medium;
#METER:6;
#RADARVALUES:0.458,0.435,0.269,0.060,0.000,289.000,27.000,6.000,0.000,0.000,0.000,0.000,0.000,0.458,0.435,0.269,0.060,0.000,289.000,27.000,6.000,0.000,0.000,0.000,0.000,0.000;
#CREDIT:;
#OFFSET:-0.118000;
#BPMS:0.000000=142.000000
;
#STOPS:;
#DELAYS:;
#WARPS:;
#TIMESIGNATURES:0.000000=4=4
;
#TICKCOUNTS:0.000000=2
;
#COMBOS:0.000000=1
;
#SPEEDS:0.000000=1.000000=0.000000=0
;
#SCROLLS:0.000000=1.000000
;
#FAKES:;
#LABELS:0.000000=Song Start
;
#ATTACKS:
;
#NOTES:
// measure 0
0000
0000
0000
0000
,  // measure 1
0000
0000
0000
0000
,  // measure 2
1000
1000
1000
0000
0010
0000
0100
0000
,  // measure 3
0001
0000
0010
0010
0010
0010
0000
0000
,  // measure 4
0001
0001
0001
0000
0100
0000
0010
0000
,  // measure 5
0100
0000
0010
0010
0010
0010
0000
1000
,  // measure 6
0010
0100
0010
0000
0001
0000
0010
0000
,  // measure 7
1000
0100
1000
0010
,  // measure 8
0110
0000
1000
0000
1000
0000
0010
0010
,  // measure 9
0100
0000
0010
0010
0001
0000
0010
0010
,  // measure 10
0100
0000
0001
0000
0001
0000
0100
0100
,  // measure 11
1000
0000
0100
0100
0010
0000
0100
0100
,  // measure 12
1000
0000
0010
0000
0010
0000
1000
1000
,  // measure 13
0010
0000
1000
1000
0001
0000
1000
1000
,  // measure 14
0010
0000
1000
0000
1000
0000
0001
0010
,  // measure 15
0100
1000
0001
0000
1000
0000
0010
0100
,  // measure 16
0010
0000
0110
0000
0110
0000
0001
0010
,  // measure 17
0100
0000
1100
0000
1100
0000
1000
0010
,  // measure 18
0100
0000
0101
0000
0101
0000
1000
0100
,  // measure 19
0010
0000
1001
0000
1001
0000
0001
0100
,  // measure 20
1000
0100
0001
0000
1010
0000
0010
0100
,  // measure 21
0001
0000
0011
0000
1010
0000
0001
1000
,  // measure 22
0100
0000
1100
0000
0101
0000
0010
0100
,  // measure 23
0010
0000
0110
0000
1001
0000
1000
0001
,  // measure 24
1000
0000
0001
0000
1000
0000
0001
0001
,  // measure 25
0010
0100
1000
0000
0001
0000
1000
1000
,  // measure 26
0010
0100
0001
0000
1000
0000
0001
0001
,  // measure 27
0010
0100
1000
0000
0001
0000
1000
1000
,  // measure 28
0010
0100
0001
0000
1000
0000
1000
0010
,  // measure 29
1000
0100
1000
0000
0001
0000
0001
0010
,  // measure 30
0001
0100
0001
0000
0100
0000
0100
0010
,  // measure 31
0100
0001
0100
0000
0010
0000
0010
1000
,  // measure 32
0010
0001
0110
0000
0001
0000
1000
0000
,  // measure 33
0001
0110
0001
1000
,  // measure 34
0001
0110
0001
0110
,  // measure 35
1000
0110
0001
0110
,  // measure 36
1000
0110
0110
0110
,  // measure 37
0110
0000
0010
0100
0010
0100
0010
0100
,  // measure 38
0010
0200
0020
0000
0000
0000
0000
0000
,  // measure 39
0330
0000
2000
0000
0000
0000
3001
0010
,  // measure 40
0001
0000
0020
0000
0000
0000
0031
0100
,  // measure 41
0001
0000
1000
1000
,  // measure 42
1000
0100
0010
0000
0100
0010
0001
0000
,  // measure 43
0000
0100
0100
0100
,  // measure 44
0010
0100
0001
0000
0100
0001
1000
0000
,  // measure 45
0001
0000
0010
0000
1000
0000
0010
0001
,  // measure 46
0010
0000
0001
0100
0001
1000
0010
0100
,  // measure 47
0001
1000
0001
0000
0001
0000
1000
0000
,  // measure 48
0010
0100
0100
1001
,  // measure 49
0010
0001
0010
0000
0010
1000
0010
0000
,  // measure 50
0010
0100
0010
0000
0010
0010
0010
0000
,  // measure 51
0001
1000
0001
0000
0001
0100
0001
0000
,  // measure 52
0001
0010
0001
0000
0001
0001
0001
0000
,  // measure 53
0001
0010
0100
0000
1000
0010
0100
0000
,  // measure 54
0001
0010
0001
0000
0100
0010
1000
0000
,  // measure 55
0001
0100
0010
1000
,  // measure 56
0001
0000
0010
1000
0100
0001
0010
1000
,  // measure 57
0010
0002
2000
0000
0000
0000
0000
0000
,  // measure 58
0000
3003
0000
0000
;

//---------------dance-single - Blank----------------
#NOTEDATA:;
#STEPSTYPE:dance-single;
#DESCRIPTION:Blank;
#CHARTSTYLE:;
#DIFFICULTY:Easy;
#METER:4;
#RADARVALUES:0.304,0.348,0.209,0.050,0.000,188.000,21.000,5.000,0.000,0.000,0.000,0.000,0.000,0.304,0.348,0.209,0.050,0.000,188.000,21.000,5.000,0.000,0.000,0.000,0.000,0.000;
#CREDIT:;
#OFFSET:-0.118000;
#BPMS:0.000000=142.000000
;
#STOPS:;
#DELAYS:;
#WARPS:;
#TIMESIGNATURES:0.000000=4=4
;
#TICKCOUNTS:0.000000=2
;
#COMBOS:0.000000=1
;
#SPEEDS:0.000000=1.000000=0.000000=0
;
#SCROLLS:0.000000=1.000000
;
#FAKES:;
#LABELS:0.000000=Song Start
;
#ATTACKS:
;
#NOTES:
// measure 0
0000
0000
0000
0000
,  // measure 1
0000
0000
0000
0000
,  // measure 2
1000
0010
1000
0010
,  // measure 3
1000
0010
1000
0010
,  // measure 4
1000
0001
0010
0001
,  // measure 5
0010
0001
0010
0001
,  // measure 6
0010
0001
0000
0001
,  // measure 7
0000
0100
0000
0001
,  // measure 8
0000
1000
0000
1000
,  // measure 9
0100
0001
0000
0001
,  // measure 10
0100
1000
0000
1000
,  // measure 11
0010
0100
0000
0100
,  // measure 12
0001
0010
0000
0010
,  // measure 13
0001
1000
0000
1000
,  // measure 14
0001
0100
0000
0001
,  // measure 15
0010
0100
1000
0100
,  // measure 16
0010
0001
0000
0001
,  // measure 17
0000
0010
0000
0010
,  // measure 18
0000
0100
0000
0100
,  // measure 19
0000
1000
0000
1000
,  // measure 20
0000
0100
0100
0100
,  // measure 21
0100
0010
0010
0010
,  // measure 22
0010
0001
0010
0100
,  // measure 23
1000
0001
0100
0010
,  // measure 24
1000
1001
0001
1000
,  // measure 25
0001
1001
1000
0001
,  // measure 26
1000
1100
0100
1000
,  // measure 27
0100
1100
1000
0100
,  // measure 28
1000
0011
0010
0001
,  // measure 29
0010
0011
0001
0010
,  // measure 30
0001
0101
0010
0100
,  // measure 31
1000
0101
0010
0100
,  // measure 32
1000
0100
0000
0100
,  // measure 33
0000
0100
0000
0100
,  // measure 34
0000
0100
0000
0100
,  // measure 35
0000
0100
0000
0100
,  // measure 36
0000
0010
0010
0010
,  // measure 37
0010
0010
0010
0010
,  // measure 38
0010
2000
0000
0000
,  // measure 39
3000
0002
0000
1003
,  // measure 40
0000
2000
0000
3001
,  // measure 41
0000
0001
0010
0100
,  // measure 42
1000
0001
0010
0100
,  // measure 43
1000
1000
0010
0100
,  // measure 44
0001
1000
0010
0100
,  // measure 45
0001
0001
0100
0010
,  // measure 46
1000
0001
0100
0010
,  // measure 47
1000
0001
0001
1000
,  // measure 48
0100
1000
1000
0001
,  // measure 49
0100
1001
1001
0110
,  // measure 50
0110
0001
0010
0100
,  // measure 51
1000
1010
1010
0011
,  // measure 52
0011
1000
0010
0100
,  // measure 53
0001
0101
1100
0101
,  // measure 54
1100
1000
0100
0010
,  // measure 55
0001
0010
1000
0010
,  // measure 56
0001
0010
1000
0010
,  // measure 57
0001
2002
0000
0000
,  // measure 58
0000
3003
0000
0000
;

//---------------dance-single - Blank----------------
#NOTEDATA:;
#STEPSTYPE:dance-single;
#DESCRIPTION:Blank;
#CHARTSTYLE:;
#DIFFICULTY:Challenge;
#METER:4;
#RADARVALUES:0.257,0.261,0.070,0.050,0.000,169.000,7.000,5.000,124.000,0.000,0.000,0.000,0.000,0.257,0.261,0.070,0.050,0.000,169.000,7.000,5.000,124.000,0.000,0.000,0.000,0.000;
#CREDIT:;
#OFFSET:-0.118000;
#BPMS:0.000000=142.000000
;
#STOPS:;
#DELAYS:;
#WARPS:;
#TIMESIGNATURES:0.000000=4=4
;
#TICKCOUNTS:0.000000=2
;
#COMBOS:0.000000=1
;
#SPEEDS:0.000000=1.000000=0.000000=0
;
#SCROLLS:0.000000=1.000000
;
#FAKES:;
#LABELS:0.000000=Song Start
;
#ATTACKS:
;
#NOTES:
// measure 0
0000
0000
0000
0000
,  // measure 1
0000
0000
0000
0000
,  // measure 2
1000
0010
1000
0010
,  // measure 3
1000
0010
1000
0010
,  // measure 4
1000
MMMM
0010
0001
,  // measure 5
0010
0001
0010
0001
,  // measure 6
0010
MMMM
0000
0001
,  // measure 7
0000
0100
0000
0001
,  // measure 8
0000
1000
MMMM
1000
,  // measure 9
0100
0001
MMMM
0001
,  // measure 10
0100
1000
MMMM
1000
,  // measure 11
0010
0100
MMMM
0100
,  // measure 12
0001
0010
MMMM
0010
,  // measure 13
0001
1000
MMMM
1000
,  // measure 14
0001
0100
0000
0001
,  // measure 15
0010
0100
1000
0100
,  // measure 16
0010
0001
MMMM
0001
,  // measure 17
0000
0010
0000
0010
,  // measure 18
MMMM
0100
0000
0100
,  // measure 19
0000
1000
0000
1000
,  // measure 20
MMMM
0100
0100
0100
,  // measure 21
0100
0010
0010
0010
,  // measure 22
MMMM
0001
0010
0100
,  // measure 23
1000
0001
0100
0010
,  // measure 24
0001
MMMM
0001
1000
,  // measure 25
0001
MMMM
1000
0001
,  // measure 26
1000
MMMM
0100
1000
,  // measure 27
0100
MMMM
1000
0100
,  // measure 28
1000
MMMM
0010
0001
,  // measure 29
0010
MMMM
0001
0010
,  // measure 30
0001
MMMM
0010
0100
,  // measure 31
1000
MMMM
0010
0100
,  // measure 32
1000
0100
0000
0100
,  // measure 33
MMMM
0100
0000
0100
,  // measure 34
MMMM
0100
0000
0100
,  // measure 35
MMMM
0100
0000
0100
,  // measure 36
0000
0010
0010
0010
,  // measure 37
0010
0010
0010
0010
,  // measure 38
0010
2000
0000
0000
,  // measure 39
3000
0002
0000
1003
,  // measure 40
0000
2000
0000
3001
,  // measure 41
0000
0001
0010
0100
,  // measure 42
1000
0001
0010
0100
,  // measure 43
MMMM
1000
0010
0100
,  // measure 44
0001
1000
0010
0100
,  // measure 45
MMMM
0001
0100
0010
,  // measure 46
1000
0001
0100
0010
,  // measure 47
1000
0001
0001
1000
,  // measure 48
0100
1000
1000
0001
,  // measure 49
0100
1001
MMMM
0110
,  // measure 50
MMMM
0001
0010
0100
,  // measure 51
1000
1010
MMMM
0011
,  // measure 52
MMMM
1000
0010
0100
,  // measure 53
0001
0101
MMMM
0101
,  // measure 54
MMMM
1000
0100
0010
,  // measure 55
0001
0010
1000
0010
,  // measure 56
0001
0010
1000
0010
,  // measure 57
0001
2002
0000
0000
,  // measure 58
0000
3003
0000
0000
;
