#VERSION:0.81;
#TITLE:Butterfly;
#SUBTITLE:;
#ARTIST:Super Junior;
#TITLETRANSLIT:;
#SUBTITLETRANSLIT:;
#ARTISTTRANSLIT:;
#GENRE:;
#ORIGIN:;
#CREDIT:;
#BANNER:[ROUND 3] - Butterfly.png;
#BACKGROUND:[ROUND 3] - Butterfly-bg.png;
#PREVIEWVID:;
#JACKET:[ROUND 3] - Butterfly-jacket.png;
#CDIMAGE:;
#DISCIMAGE:;
#LYRICSPATH:;
#CDTITLE:cdtitle.png;
#MUSIC:[ROUND 3] - Butterfly.mp3;
#OFFSET:-0.087;
#SAMPLESTART:37.560;
#SAMPLELENGTH:14.980;
#SELECTABLE:YES;
#BPMS:0.000=128.000;
#STOPS:;
#DELAYS:;
#WARPS:;
#TIMESIGNATURES:0.000=4=4;
#TICKCOUNTS:0.000=4;
#COMBOS:0.000=1;
#SPEEDS:0.000=1.000=0.000=0;
#SCROLLS:0.000=1.000;
#FAKES:;
#LABELS:0.000=Song Start;
#BGCHANGES:;
#KEYSOUNDS:;
#ATTACKS:
;

//---------------dance-single - ----------------
#NOTEDATA:;
#CHARTNAME:;
#STEPSTYPE:dance-single;
#DESCRIPTION:;
#CHARTSTYLE:;
#DIFFICULTY:Hard;
#METER:8;
#RADARVALUES:0.507,0.466,0.337,0.217,0.217,276.000,31.000,20.000,0.000,0.000,0.000,0.000,0.000,0.507,0.466,0.337,0.217,0.217,276.000,31.000,20.000,0.000,0.000,0.000,0.000,0.000;
#CREDIT:;
#NOTES:
// measure 0
0000
0000
0000
0000
,  // measure 1
0000
0000
0000
0000
,  // measure 2
0000
0000
0000
0000
,  // measure 3
0000
0000
0000
0000
,  // measure 4
1000
0000
0000
1000
0000
0000
1000
0000
0000
0000
0010
0000
0000
0010
0000
0000
,  // measure 5
0100
0000
0000
0100
0000
0000
0100
0000
0000
0000
0001
0000
0000
0001
0000
0000
,  // measure 6
0010
0000
0000
0010
0000
0000
0010
0000
0000
0000
0100
0000
0000
0100
0000
0000
,  // measure 7
1000
0000
0000
1000
0000
0000
1000
0000
0000
0000
0001
0000
0000
0001
0000
0000
,  // measure 8
0110
0000
0000
0000
1000
0000
0000
0000
0010
0000
0000
1010
0000
0000
1000
0000
,  // measure 9
0100
0000
0000
0010
0000
0000
0001
0000
0100
0000
0000
0110
0000
0000
0010
0000
,  // measure 10
1010
0000
0000
0000
0001
0000
0000
0000
1000
0000
0000
1001
0000
0000
0001
0000
,  // measure 11
0020
0000
0000
0230
0000
0000
0300
0000
,  // measure 12
1000
0100
0010
0010
0001
0100
0010
0010
,  // measure 13
1000
0001
1000
0001
0100
0100
0100
0000
,  // measure 14
0010
1000
0100
0100
0010
0001
1000
1000
,  // measure 15
0010
0100
0010
0100
0001
1000
1001
0000
,  // measure 16
0210
0000
0000
0000
0302
0000
0000
0000
1003
0000
0000
1010
0000
0000
0010
0000
,  // measure 17
0100
0000
0000
0100
0000
0000
0100
0000
0001
0000
0000
1000
0000
0000
0001
0000
,  // measure 18
2100
0000
3010
0100
0010
1000
0100
0010
,  // measure 19
0002
0023
0230
2300
,  // measure 20
3010
0010
1000
0100
0010
0010
0010
0001
,  // measure 21
0100
0010
1000
0100
0001
0100
1000
0010
,  // measure 22
0100
0100
0001
1000
0001
0001
0001
0010
,  // measure 23
0100
1000
0001
1000
0001
0010
0100
1000
,  // measure 24
0020
0000
0000
0000
0130
0010
0000
0000
1010
0000
0000
0000
0010
0100
0000
0000
,  // measure 25
0101
0000
0000
0000
0001
1000
0000
0000
1010
0000
0000
0000
1000
0001
0000
0000
,  // measure 26
0101
0000
0000
0000
0001
0010
0000
0000
1100
0000
0000
0000
1000
0100
0000
0000
,  // measure 27
0011
0000
0000
0000
0001
0100
0000
0000
1010
0000
0000
0000
1000
0010
0000
0000
,  // measure 28
0102
0100
1003
0001
0010
0010
0010
0001
,  // measure 29
0100
0010
1000
0010
0001
0010
1000
0100
,  // measure 30
0020
0001
0031
0100
0010
0010
0010
1000
,  // measure 31
0010
0100
0001
1000
0001
1000
0010
0100
,  // measure 32
0001
0000
0000
0000
0001
0010
0000
0000
0110
0000
0000
0000
0100
1000
0000
0000
,  // measure 33
1100
0000
0000
0000
1000
0010
0000
0000
0110
0000
0000
0000
0100
0001
0000
0000
,  // measure 34
0011
0000
0000
0000
0100
1000
0000
0000
0011
0000
0000
0000
0001
0010
0000
0000
,  // measure 35
1100
0000
0000
0000
0100
0010
0000
0000
1001
0000
0000
0000
1000
0001
0000
0000
,  // measure 36
0100
0000
0010
0000
0100
0000
0010
0000
1000
0000
0000
0001
0000
0000
1000
0000
,  // measure 37
0010
0000
0100
0000
0010
0000
0100
0000
0001
0000
0000
1000
0000
0000
0001
0000
,  // measure 38
1000
0000
0100
0000
1000
0000
0010
0000
0100
0000
0000
0001
0000
0000
1000
0000
,  // measure 39
0010
0000
0100
0000
0010
0000
1000
0000
0001
0000
0000
1000
0000
0000
0010
0000
,  // measure 40
0100
0100
0101
0000
0010
1000
1010
0000
,  // measure 41
1000
0100
0001
0100
1000
0010
0100
0001
,  // measure 42
0202
0000
0303
0000
2020
0000
3030
1000
,  // measure 43
1100
0000
0000
0110
0000
0000
0022
0000
0000
0000
0000
0000
0033
0000
0000
0000
,  // measure 44
0100
0000
0000
0100
0000
0000
0100
0000
0001
0000
0001
0000
0001
0000
0001
0000
,  // measure 45
0010
1000
1000
1000
0010
0001
0010
0100
,  // measure 46
2000
0000
3002
0000
0103
0100
0100
0100
,  // measure 47
0001
0000
0000
0000
0010
0000
0000
0000
0000
0100
0000
0000
0000
0000
0000
1000
0000
0000
0000
0000
0000
0000
0000
0001
0000
0000
0000
0000
0000
0000
0000
0000
;

//---------------dance-single - ----------------
#NOTEDATA:;
#CHARTNAME:;
#STEPSTYPE:dance-single;
#DESCRIPTION:;
#CHARTSTYLE:;
#DIFFICULTY:Challenge;
#METER:9;
#RADARVALUES:0.659,0.674,0.619,0.282,0.309,342.000,57.000,26.000,0.000,0.000,0.000,0.000,0.000,0.659,0.674,0.619,0.282,0.309,342.000,57.000,26.000,0.000,0.000,0.000,0.000,0.000;
#CREDIT:;
#NOTES:
// measure 0
0000
0000
0000
0000
,  // measure 1
0000
0000
0000
0000
,  // measure 2
0000
0000
0000
0000
,  // measure 3
0000
0000
0000
0000
,  // measure 4
1000
0010
0100
0100
0000
0001
0100
0010
,  // measure 5
1000
0100
1000
0000
0001
0100
0001
0000
0100
0000
0010
1000
0010
0000
0100
0000
,  // measure 6
0001
0010
0001
0100
0010
0010
1000
1000
,  // measure 7
0001
0010
0001
0000
1000
0010
1000
0000
0010
0100
0010
0100
0010
0000
0100
0000
,  // measure 8
1002
0000
0103
0010
0001
0010
1000
0100
,  // measure 9
0020
0000
0031
0100
0000
0100
0000
0000
,  // measure 10
0210
0000
0301
1000
0010
0001
0010
1000
,  // measure 11
0200
0000
0000
0320
0000
0000
0030
0000
,  // measure 12
1001
0001
0010
0010
0100
1000
0010
1000
,  // measure 13
0001
0010
0001
0000
1000
0100
1000
0100
1000
0010
0100
0010
0100
0000
1010
0000
,  // measure 14
0001
0010
1000
0001
0100
1000
0010
0100
,  // measure 15
0001
0000
0001
0010
0100
0000
0100
1000
0001
0010
0001
0010
0100
0000
0110
0000
,  // measure 16
2001
0000
3001
0010
0100
0001
0100
1000
,  // measure 17
0010
0000
0000
0010
0000
0000
0010
0000
0100
0000
0000
0100
0000
0000
0100
0000
,  // measure 18
0120
0000
1030
0001
0010
0001
0100
0010
,  // measure 19
1000
1000
0100
0100
0010
0010
0001
0000
,  // measure 20
0101
0100
0001
0001
1100
1010
0110
0101
,  // measure 21
0011
0001
0010
1000
0001
0100
0010
0001
,  // measure 22
0100
0100
0010
0010
0110
0101
0011
0110
,  // measure 23
1100
0100
1000
0100
0001
0010
1000
0100
,  // measure 24
0020
0000
0000
0000
0031
1000
0000
0000
0101
0000
0000
0000
1000
0010
0000
0000
,  // measure 25
0101
0000
0000
0000
0001
0100
0000
0000
1010
0000
0000
0000
0100
0001
0000
0000
,  // measure 26
1010
0000
0000
0000
0100
0010
0000
0000
1001
0000
0000
0000
0010
0100
0000
0000
,  // measure 27
0001
0100
0010
0000
1000
0010
0100
0000
0001
0100
0010
0000
1000
0010
0100
0000
,  // measure 28
0110
0010
1000
1000
0101
0110
1010
1100
,  // measure 29
1001
0001
0010
1000
0001
0100
1000
0100
,  // measure 30
0011
0001
0100
0010
0110
0101
0011
1100
,  // measure 31
0101
0100
0010
1000
0100
0010
1000
0100
,  // measure 32
0020
0000
0000
0000
0130
0001
0000
0000
0102
0000
0000
0000
1003
0010
0000
0000
,  // measure 33
0120
0000
0000
0000
0130
0001
0000
0000
1002
0000
0000
0000
1003
0010
0000
0000
,  // measure 34
0210
0000
0000
0000
0301
1000
0000
0000
2010
0000
0000
0000
3010
0100
0000
0000
,  // measure 35
0001
0010
0100
0000
1000
0100
0010
0000
0001
0010
0100
0000
1000
0100
0010
0000
,  // measure 36
0001
0000
0001
0000
0100
0000
0100
0010
1000
0000
0010
0100
0001
0000
0110
0000
,  // measure 37
1000
0000
0001
0100
0001
0000
1000
0010
0100
0000
0100
0001
0010
0000
1100
0000
,  // measure 38
0001
0000
0100
0000
0001
0000
0100
0000
0110
0000
0000
1010
0000
0000
1000
0000
,  // measure 39
0001
0000
0010
0000
0001
0000
0100
0000
0110
0000
0000
0101
0000
0000
0001
0000
,  // measure 40
0100
0001
1010
0000
1000
0010
0101
0000
,  // measure 41
0001
0100
1000
0100
0010
1000
0100
0010
,  // measure 42
0022
0000
0033
0000
2200
0000
3300
1000
,  // measure 43
1010
0000
0000
0110
0000
0000
0202
0000
0000
0000
0000
0000
0303
0000
0000
0000
,  // measure 44
0100
0000
0000
0100
0000
0000
0001
0000
0000
0001
0000
0000
1100
0000
0000
1100
0000
0000
0010
0100
0010
0100
0010
0100
,  // measure 45
0001
0100
0100
0100
0002
0023
0230
2300
,  // measure 46
3020
0000
0000
0130
0000
0000
0002
0000
0000
1003
0000
0000
0011
0000
0000
0011
0000
0000
1000
0100
1000
0100
1000
0100
,  // measure 47
1000
0000
0000
0000
0100
0000
0000
0000
0000
0010
0000
0000
0000
0000
0000
0001
0000
0000
0000
0000
0000
0000
0000
1000
0000
0000
0000
0000
0000
0000
0000
0000
;

//---------------dance-single - ----------------
#NOTEDATA:;
#CHARTNAME:;
#STEPSTYPE:dance-single;
#DESCRIPTION:;
#CHARTSTYLE:;
#DIFFICULTY:Medium;
#METER:6;
#RADARVALUES:0.478,0.414,0.391,0.380,0.087,237.000,36.000,35.000,0.000,0.000,0.000,0.000,0.000,0.478,0.414,0.391,0.380,0.087,237.000,36.000,35.000,0.000,0.000,0.000,0.000,0.000;
#CREDIT:;
#NOTES:
// measure 0
0000
0000
0000
0000
,  // measure 1
0000
0000
0000
0000
,  // measure 2
0000
0000
0000
0000
,  // measure 3
0000
0000
0000
0000
,  // measure 4
1000
0000
0001
0000
0010
0010
0010
0000
,  // measure 5
0100
0000
0100
0000
1000
0100
1000
0000
,  // measure 6
0001
0000
0001
0000
0100
0100
0100
0000
,  // measure 7
0010
0000
1000
0000
0001
0100
0001
0000
,  // measure 8
2002
0000
0000
0000
3003
0000
0000
0000
0100
0000
0000
0100
0000
0000
0100
0000
,  // measure 9
0001
0000
0000
0001
0000
0000
0001
0000
1000
0000
0000
1000
0000
0000
1000
0000
,  // measure 10
2002
0000
0000
0000
3003
0000
0000
0000
0010
0000
0000
0010
0000
0000
0010
0000
,  // measure 11
1000
0000
0000
1000
0000
0000
1000
0000
0001
0000
0000
0001
0000
0000
0001
0000
,  // measure 12
0100
0000
0100
0000
0010
1000
0010
0000
,  // measure 13
1000
0001
1000
0001
0100
0000
0100
0000
,  // measure 14
0010
0000
0010
0000
0100
0001
0100
0000
,  // measure 15
0001
1000
0001
1000
0010
1000
0010
1000
,  // measure 16
0200
0000
0000
0000
0320
0000
0000
0000
0031
0000
0000
0001
0000
0000
0001
0000
,  // measure 17
1000
0000
0000
1000
0000
0000
1000
0000
0010
0000
0000
0010
0000
0000
0010
0000
,  // measure 18
0200
0000
0302
0000
1003
0010
1000
0010
,  // measure 19
0200
0302
2003
3020
,  // measure 20
0130
0100
0001
0001
1000
1000
1000
1000
,  // measure 21
0010
0000
1001
0000
0100
0010
1001
0000
,  // measure 22
0010
0010
1000
1000
0001
0001
0001
0001
,  // measure 23
0100
0000
0110
0000
0010
1000
0110
0000
,  // measure 24
2000
3010
0102
1003
,  // measure 25
2010
3001
0102
1003
,  // measure 26
2100
3001
0012
1003
,  // measure 27
1100
0011
1010
0101
,  // measure 28
0001
0001
0010
0010
0100
0100
0100
0100
,  // measure 29
1000
0000
0110
0000
0001
1000
0110
0000
,  // measure 30
1000
1000
0100
0100
0010
0010
0010
0010
,  // measure 31
0001
0000
1001
0000
1000
0010
1001
0000
,  // measure 32
0020
1030
0201
0310
,  // measure 33
0120
1030
1200
0310
,  // measure 34
0012
1003
2100
3001
,  // measure 35
0101
1010
0011
1100
,  // measure 36
1000
0000
0100
0000
1000
0000
0100
0000
0010
0000
0000
0010
0000
0000
0010
0000
,  // measure 37
0001
0000
0100
0000
0001
0000
0100
0000
0010
0000
0000
0010
0000
0000
0010
0000
,  // measure 38
1000
0000
0001
0000
1000
0000
0001
0000
0100
0000
0000
0100
0000
0000
0100
0000
,  // measure 39
0001
0000
1000
0000
0001
0000
1000
0000
0100
0000
0000
0100
0000
0000
0100
0000
,  // measure 40
1000
0001
1001
0000
0001
1000
1001
0000
,  // measure 41
1000
0001
1000
0001
1000
0100
1000
0100
,  // measure 42
2200
3300
0022
0033
,  // measure 43
0101
0000
0000
0110
0000
0000
2020
0000
0000
0000
0000
0000
3030
0000
0000
0000
,  // measure 44
0210
0000
0010
0000
0001
0001
0301
0001
,  // measure 45
1000
0010
0010
0010
0001
0010
1000
0100
,  // measure 46
0020
0030
0020
0030
0002
0003
2000
3000
,  // measure 47
0100
0000
0000
0000
0000
0000
0000
0000
0000
0100
0000
0000
0000
0000
0000
0000
0000
0000
0000
0000
0000
0000
0000
0100
0000
0000
0000
0000
0000
0000
0000
0000
;

//---------------dance-single - ----------------
#NOTEDATA:;
#CHARTNAME:;
#STEPSTYPE:dance-single;
#DESCRIPTION:;
#CHARTSTYLE:;
#DIFFICULTY:Easy;
#METER:4;
#RADARVALUES:0.355,0.363,0.347,0.347,0.011,165.000,32.000,32.000,0.000,0.000,0.000,0.000,0.000,0.355,0.363,0.347,0.347,0.011,165.000,32.000,32.000,0.000,0.000,0.000,0.000,0.000;
#CREDIT:;
#NOTES:
// measure 0
0000
0000
0000
0000
,  // measure 1
0000
0000
0000
0000
,  // measure 2
0000
0000
0000
0000
,  // measure 3
0000
0000
0000
0000
,  // measure 4
0000
1000
0000
1000
,  // measure 5
0000
0001
0000
0001
,  // measure 6
0000
0100
0000
0100
,  // measure 7
0000
0010
0000
0010
,  // measure 8
2002
3003
0100
0100
,  // measure 9
0001
1000
0001
1000
,  // measure 10
0220
0330
0010
0010
,  // measure 11
1000
0001
1000
0001
,  // measure 12
0002
0100
0103
1000
,  // measure 13
2000
0010
3010
0001
,  // measure 14
0110
0010
1010
1000
,  // measure 15
0001
1000
0010
0010
,  // measure 16
0202
0303
0001
0010
,  // measure 17
0100
0100
1000
1000
,  // measure 18
2020
3030
0010
0010
,  // measure 19
0020
0100
0100
0130
,  // measure 20
1010
0000
0101
0000
0001
0001
0001
0000
,  // measure 21
0100
0010
1000
0001
,  // measure 22
0011
0000
1010
0000
1000
1000
1000
0000
,  // measure 23
0001
0010
0100
1000
,  // measure 24
0002
0103
0200
0310
,  // measure 25
0020
1030
2000
3100
,  // measure 26
0200
0310
0020
0031
,  // measure 27
0011
0011
1100
1100
,  // measure 28
1010
0000
0101
0000
0100
0100
0100
0000
,  // measure 29
0001
1000
0010
0100
,  // measure 30
0101
0000
1010
0000
0010
0010
0010
0000
,  // measure 31
1000
0100
0010
0001
,  // measure 32
2000
3010
0020
0130
,  // measure 33
0200
0301
0002
0013
,  // measure 34
0020
0130
0200
1300
,  // measure 35
1010
1010
0101
0101
,  // measure 36
1000
1000
0001
1001
,  // measure 37
0100
0010
0100
0110
,  // measure 38
0010
1000
0100
1100
,  // measure 39
1000
0001
0010
0011
,  // measure 40
0001
0010
0100
1000
,  // measure 41
0001
0100
0010
1000
,  // measure 42
2020
3030
0202
0303
,  // measure 43
0011
0110
1100
0000
,  // measure 44
0120
0100
0100
0130
,  // measure 45
0001
0000
1000
0000
0001
0001
0001
0000
,  // measure 46
0200
0300
0200
0300
0200
0300
0200
0300
,  // measure 47
0010
0000
0000
0000
0000
0000
0000
0000
0000
0010
0000
0000
0000
0000
0000
0000
0000
0000
0000
0000
0000
0000
0000
0010
0000
0000
0000
0000
0000
0000
0000
0000
;

//---------------dance-single - ----------------
#NOTEDATA:;
#CHARTNAME:;
#STEPSTYPE:dance-single;
#DESCRIPTION:;
#CHARTSTYLE:;
#DIFFICULTY:Beginner;
#METER:2;
#RADARVALUES:0.152,0.155,0.022,0.109,0.000,86.000,2.000,10.000,0.000,0.000,0.000,0.000,0.000,0.152,0.155,0.022,0.109,0.000,86.000,2.000,10.000,0.000,0.000,0.000,0.000,0.000;
#CREDIT:;
#NOTES:
0000
0000
0000
0000
,
0000
0000
0000
0000
,
0000
0000
0000
0000
,
0000
0000
0000
0000
,
1000
0000
0000
0000
,
0001
0000
0001
0000
,
0100
0000
0000
0000
,
0010
0000
0010
0000
,
0200
0000
0300
0000
,
0001
0000
0001
0000
,
0020
0000
0030
0000
,
1000
0000
1000
0000
,
0010
0000
0000
0000
,
0100
0000
0100
0000
,
0001
0000
0000
0000
,
1000
0000
1000
0000
,
0002
0000
0003
0000
,
0100
0000
0100
0000
,
2000
0000
3000
0000
,
0020
0000
0030
0000
,
0100
0100
0100
0100
,
0100
0000
0000
0000
,
0010
0010
0010
0010
,
0010
0000
0000
0000
,
1000
0000
0001
0000
,
1000
0000
0001
0000
,
0100
0000
0010
0000
,
0100
0000
0010
0000
,
1000
1000
0001
0001
,
1000
0000
0000
0000
,
0100
0100
0010
0010
,
0100
0000
0000
0000
,
0001
0000
1000
0000
,
0001
0000
1000
0000
,
0010
0000
0100
0000
,
0010
0000
0100
0000
,
0001
0001
0001
0000
,
0100
0000
0100
0000
,
0010
0010
0010
0000
,
1000
0000
1000
0000
,
0001
1000
1000
0000
,
1000
0010
0010
0000
,
0010
0100
0100
0000
,
0100
0001
0100
0000
,
2002
0000
3003
0000
,
0100
0000
0010
0000
,
0220
0000
0330
0000
,
0200
0000
0000
0000
0000
0000
0000
0000
0000
0000
0000
0000
0000
0000
0000
0000
0000
0000
0000
0000
0000
0000
0000
0300
0000
0000
0000
0000
0000
0000
0000
0000
;
