#TITLE:AM-3P (Sanxion7 'House Party' Dub);
#SUBTITLE:;
#ARTIST:KTz;
#CREDIT:;
#MUSIC:[ROUND 3] - AM-3P (Sanxion7 'House Party' Dub).ogg;
#SELECTABLE:NO;
#BACKGROUND:;
#BANNER:;
#CDTITLE:;
#DISPLAYBPM:129.000:129.000;
#OFFSET:-0.404;
#SAMPLESTART:0.000;
#SAMPLELENGTH:0.000;
#BPMS:0=129.6;
#STOPS:;

//---------------dance-single - ----------------
#NOTES:
     dance-single:
     :
     Beginner:
     1:
     0.000,0.000,0.000,0.000,0.000:
0000
0000
0000
0000
,
0000
0000
0000
0000
,
0000
0000
0000
0000
,
0000
0000
0000
0010
,
0000
0000
0000
0000
,
0000
0000
0000
0100
,
0000
0000
0000
0001
,
0000
0000
1000
0000
,
0010
0000
0010
0000
,
0100
0000
0100
0000
,
0001
0000
1000
0000
,
0010
0000
0001
0000
,
0100
0000
0100
0000
,
0010
0000
0010
0000
,
1000
0000
0001
2000
,
0000
0000
3000
0010
,
0000
0000
1000
0000
,
0001
0000
0100
0100
,
0000
0000
0001
0000
,
1000
0000
0010
0010
,
0000
0000
0100
0000
,
0010
0000
1000
1000
,
0000
0001
0000
0100
,
0000
0010
0000
2000
,
0000
3000
0000
0002
,
0000
0003
0000
0200
,
0000
0300
0000
0020
,
0000
0030
0000
2000
,
0000
0000
0000
0002
,
0000
3003
0000
0002
,
0000
0000
0000
2000
,
0000
3003
0000
0100
,
0000
0000
0100
0100
,
0000
0010
0000
1000
,
0000
0001
0000
0010
,
0000
0100
0000
1000
,
0000
0001
0000
1000
,
0000
0100
0000
0010
,
0000
0001
0000
1000
,
0000
0001
0000
0100
,
0100
0100
0000
0010
,
0000
0000
1000
0001
,
0000
0000
0001
1000
,
0000
0000
0001
0100
,
0000
0000
0010
1000
,
0000
0000
0010
0100
,
0000
0000
0100
0010
,
0000
0000
0001
2000
,
0000
0000
3000
0100
,
0000
0000
0010
0010
,
0000
0000
0001
0001
,
0000
1000
0001
2002
,
0000
3003
0000
0000
,
0000
0000
0000
0000
,
0000
0000
0000
0000
;

//---------------dance-single - ----------------
#NOTES:
     dance-single:
     :
     Easy:
     2:
     0.000,0.000,0.000,0.000,0.000:
0000
0000
0000
0000
,
0000
0000
0000
0000
,
0000
0000
0000
0000
,
0000
0000
0000
1000
,
0000
0001
0000
0100
,
0000
0000
0000
0001
,
0000
1000
0000
0010
,
0010
0010
1000
0001
,
0100
0000
0100
0000
,
0010
0000
1000
0001
,
0010
0000
0010
0000
,
0100
0000
1000
0001
,
1000
0000
0010
0000
,
0001
0000
0100
0010
,
0100
0000
1000
0200
,
0000
0000
0310
0010
,
0001
0000
0100
0000
,
1000
0000
0001
0010
,
0000
0000
0100
0000
,
1000
0001
1000
0010
,
0000
0000
0100
0000
,
0001
0000
1000
0010
,
0000
1000
0000
0001
,
0010
0100
1000
0002
,
0000
0000
0000
0000
0000
0000
0000
0000
0000
0000
0000
0000
0000
0000
0000
0000
0000
0000
0000
0000
0000
0000
0000
0000
0000
0000
0000
0000
0000
0000
0000
0000
0000
0000
0000
0000
0000
0000
0000
0000
0000
0000
0000
0000
0000
0000
0000
0000
0000
0000
0000
0000
0000
0000
0000
0000
0000
0000
0000
0000
0000
0000
0000
0000
0000
0000
0000
0000
0000
0000
0000
0000
0000
0000
0000
0000
0000
0000
0000
0000
0000
0000
0000
0000
0000
0000
0000
0000
0000
0000
0000
0003
0000
0000
0000
0000
0000
0000
0000
0000
0000
0000
0000
0000
0000
0000
0000
0000
0000
0000
0000
0000
0000
0000
0000
0000
0000
0000
0000
0000
0000
0000
0000
0000
0000
0000
0000
0000
0000
0000
0000
0000
0000
0000
0000
0000
0000
0000
0000
0000
0000
0000
0000
0000
2000
0000
0000
0000
0000
0000
0000
0000
0000
0000
0000
0000
0000
0000
0000
0000
0000
0000
0000
0000
0000
0000
0000
0000
0000
0000
0000
0000
0000
0000
0000
0000
0000
0000
0000
0000
0000
0000
0000
0000
0000
0000
0000
0000
0000
0000
0000
0000
,
0000
0020
0000
0000
3030
0000
0002
0000
,
0000
0000
0003
2000
,
0000
0200
0000
0000
3300
0000
0020
0000
,
0100
0000
1030
0200
,
0000
0001
0000
0000
0300
0000
0020
0000
,
0001
0000
0130
2000
,
0000
0010
0000
0000
3000
0000
1001
0000
,
0000
0000
0100
1001
,
0000
0001
0010
0100
,
0000
1000
0000
0001
,
0000
1000
0100
0010
,
0000
0001
0000
0100
,
0000
0001
0010
1000
,
0000
0010
0000
0100
,
0000
1000
0100
0001
,
0000
0100
0000
0001
,
1000
0001
0000
0010
,
0010
0100
0000
1000
,
0001
1000
0000
0100
,
0100
0010
0000
1000
,
0100
1000
0000
0001
,
0010
0001
0000
1000
,
0100
0001
0100
1000
,
0010
0010
0001
1001
,
0000
0000
0110
1001
,
0000
0000
0011
1100
,
0000
0001
0000
0000
1000
0000
2002
0000
,
0000
3003
0000
0000
,
0000
0000
0000
0000
,
0000
0000
0000
0000
;

//---------------dance-single - ----------------
#NOTES:
     dance-single:
     :
     Medium:
     4:
     0.000,0.000,0.000,0.000,0.000:
0000
0000
0000
0000
,
0000
0000
0000
0000
,
0000
0000
0000
0000
,
0000
0000
0000
1001
,
1000
0001
0001
0100
,
0010
0100
0010
1000
,
1000
0000
0001
0000
0001
0000
1000
1000
,
0001
0000
1000
0000
0001
0001
0010
0000
,
0100
0010
0100
1000
,
0001
0100
0001
0100
,
0010
0100
0010
2000
,
0100
0010
3001
1001
,
0001
0100
0100
0001
,
0100
1000
0100
0001
,
0001
0010
0010
0200
,
0000
0000
0300
0000
1000
0001
1000
0010
,
0010
1000
0110
0001
,
1001
0000
0010
0000
0200
0000
0310
0010
,
0001
0000
0100
0000
1001
0000
0010
0100
,
0010
0000
1000
0000
0001
1000
0001
0100
,
0100
0001
0110
1000
,
1001
0000
0100
0000
0020
0000
0130
0100
,
1000
0010
1001
0100
,
0110
0000
0001
0000
1000
1000
0002
0000
,
0010
0100
2003
0020
,
3000
0200
0000
0000
0330
0000
2001
0000
,
0100
0010
3002
0200
,
0003
0020
0000
0000
0330
0000
1002
0000
,
0100
1000
0200
0013
,
0310
1000
0001
0000
0100
0000
2001
0000
,
0010
0001
0020
3100
,
0130
0001
1000
0000
0010
0100
0010
1000
,
0000
0001
0100
0000
1000
0000
0110
0000
,
0001
0001
0010
0100
,
1000
0010
0001
1000
,
1000
0100
0010
0001
,
0100
0000
1000
0000
0001
1000
0001
0000
,
0100
0010
1000
0001
,
0010
0001
0001
0100
,
0010
0001
1000
0100
,
1000
0000
1000
0000
0010
0100
0010
1000
,
0000
0001
0100
0000
0001
0010
0000
0100
,
0000
1000
0000
0001
0000
0100
0010
1000
,
0000
0001
0100
0000
0010
1000
0000
0100
,
0000
0010
0000
0001
1000
1000
0010
0000
,
0100
0000
0001
0000
1000
0100
1000
0000
,
0001
0000
0010
0000
0100
1000
0010
0000
,
0100
0000
0001
0000
1000
0100
2000
0000
,
0010
0100
3001
1001
,
0000
0110
0000
0000
1001
0000
1001
0000
,
0000
0011
0000
0000
1100
0000
0001
1000
,
1000
0001
0100
0100
0010
1000
0002
0000
,
0003
0000
0000
0000
,
0000
0000
0000
0000
,
0000
0000
0000
0000
;

//---------------dance-single - ----------------
#NOTES:
     dance-single:
     :
     Hard:
     6:
     0.000,0.000,0.000,0.000,0.000:
0000
0000
0000
0000
,
0000
0000
0000
0000
,
0000
0000
0000
0000
,
0000
0000
0000
1001
,
0100
1000
0100
0001
,
0010
1000
0010
0001
,
0100
0000
0010
0000
1000
0000
0001
0001
,
1000
0000
0010
0000
1000
1000
1001
0000
,
0100
0001
0100
0010
,
0001
1000
0100
1000
,
0010
0001
0010
0100
,
0001
0000
1000
0000
0010
0010
0100
0000
,
1000
0001
0010
0001
,
1000
0100
0001
0010
,
0100
0000
1000
0000
0001
0000
0200
0010
,
0000
0010
0300
0010
1000
0001
1000
1000
,
1000
0001
0100
0001
,
0100
0000
0010
0000
2000
0000
3001
0001
,
0001
0000
0000
0000
1000
0000
0000
0000
0100
0000
0000
0000
0010
0000
0001
1000
,
0001
1000
0000
0010
0000
1000
0000
0001
0010
0000
0100
0000
1000
0000
1000
0000
,
1000
0010
0001
1000
,
0100
0000
0001
0000
2000
0000
3001
0001
,
0001
0100
1000
0001
,
0010
0000
1000
0000
0010
0100
0020
0000
,
1000
0000
0001
0000
0230
0000
0301
0010
,
0100
2000
0001
0000
0100
0000
3020
0000
,
1000
0000
0001
0000
0230
0000
0301
0010
,
0100
2000
0010
0000
0001
0001
3002
0000
,
0100
1000
0023
1000
,
0031
0100
2000
0000
0001
0000
3002
0000
,
0100
0000
1000
0000
0023
0000
0130
1000
,
0000
0000
1000
0000
0000
0000
1000
0001
0100
0000
0010
0000
0110
0000
0000
0000
,
0000
1001
0000
0000
0011
0000
1100
1000
,
0000
1000
0001
0000
1000
0010
0000
0101
,
0000
0110
0000
1010
0000
0001
0010
0001
,
0000
0001
1000
0000
0001
0100
0000
1010
,
0000
0110
0000
0101
0000
1000
0100
1000
,
0000
0001
0010
0000
1000
0010
0000
0101
,
0000
1001
0000
1010
0000
0100
0010
0001
,
0000
1000
0100
0000
0001
0100
0000
1010
,
0000
0000
1001
0000
0000
0000
0101
0000
0000
0000
0010
0000
0110
0000
0000
0001
,
0000
0000
1000
0000
0000
0001
0000
0000
0100
0000
0100
0000
0010
0000
0000
1000
,
0000
0000
0001
0000
0000
1000
0000
0000
0010
0000
0100
0000
0001
0000
0000
0010
,
0000
0000
0001
0000
0000
1000
0100
0000
1000
0000
0010
0000
1000
0000
0000
0010
,
0000
0000
0100
0000
0000
0001
0010
0000
0001
0000
1000
0000
1001
0000
0000
0100
,
0000
0000
1000
0000
0000
0001
0010
0000
0001
0000
0100
0000
0001
0000
0000
0100
,
0000
0000
0010
0000
0000
1000
0100
0000
1000
0000
0001
0000
1001
0000
0000
0100
,
0000
0000
0010
0000
0100
0010
0100
0000
0001
0000
1000
0000
0200
0000
0010
0000
,
0000
0000
0010
0000
0300
0000
0010
0001
1000
0000
0001
0000
1001
0000
0000
0000
,
0000
0110
0000
0000
1100
0000
0011
0001
,
0000
1100
1000
0000
0110
0010
1001
0001
,
1000
1001
0010
0100
1001
0100
2002
0000
,
0000
3003
0000
0000
,
0000
0000
0000
0000
,
0000
0000
0000
0000
;

//---------------dance-single - ----------------
#NOTES:
     dance-single:
     :
     Edit:
     573:
     0.000,0.000,0.000,0.000,0.000:
1000
0001
1000
0001
,
1000
0001
1000
0001
,
0100
0010
0100
0010
,
0100
0010
0100
0001
,
0100
1000
0010
0001
,
0100
1000
0010
1000
,
0010
0000
0000
0000
0100
0000
0000
0000
0001
0000
0000
0000
1000
0100
1000
0000
,
0010
0000
0100
0001
0100
0000
0001
0000
0010
0100
1000
0001
1000
0001
0100
0001
,
1000
0001
0100
0001
0010
0001
0100
0001
0010
0001
0100
0010
1000
0010
0100
0010
,
1000
0010
0100
0001
1000
0001
0010
0001
1000
0001
0010
0001
0010
0100
1000
0100
,
0010
0100
1000
0100
1000
0010
0001
0010
1000
0010
0001
0010
1000
0100
0001
0100
,
1000
0100
0001
0100
1000
0001
0010
0001
1000
0010
1000
0100
1000
0001
0010
0100
,
1000
0010
0100
0001
0100
0010
1000
0001
0010
0100
1000
0001
1000
0010
0100
0001
,
0100
0010
1000
0001
0010
0100
1000
0001
1000
0010
0100
0001
0100
0010
1000
0001
,
0010
0100
1000
0001
1000
0010
0100
0001
0100
0010
1000
0001
0010
0001
1000
0010
,
1000
0001
0010
0001
1000
0100
0010
0100
1000
0001
1000
0010
1000
0001
0100
0001
,
0100
0001
0010
0001
1000
0010
0100
0001
0010
0001
0100
0001
1000
0010
0100
0001
,
0010
0001
0100
0010
1000
0001
0100
0010
0001
0010
0100
0010
1000
0001
0100
0001
,
0100
0001
0010
0001
1000
0010
0100
0001
0010
0001
0100
0001
1000
0010
0100
0001
,
0100
0001
1000
0100
1000
0010
0100
0010
1000
0010
0001
0010
1000
0001
0100
0001
,
0100
0001
0010
0001
1000
0010
0100
0001
0010
0001
0100
0001
1000
0010
0100
0001
,
0010
0001
0100
0010
1000
0001
0100
0010
0001
0010
0100
0010
1000
0001
0100
0001
,
0100
0001
0010
0001
1000
0010
0100
0001
0010
0001
0100
0001
1000
0010
0100
0001
,
0010
0001
0100
0010
1000
0001
0100
0010
1000
0001
1000
0001
2000
0010
3100
0000
,
0020
0001
0130
0000
2000
0010
3100
0000
0020
0001
0130
0000
0001
0100
1000
0100
,
0001
0010
1000
0010
0001
0010
0100
1000
0001
0000
1000
0000
0002
0100
0013
0000
,
0200
1000
0310
0000
0002
0100
0013
0000
0200
1000
0310
0000
1000
0010
0001
0010
,
1000
0100
0001
0100
1000
0100
0010
0001
1000
0000
0001
0000
1000
0001
1000
0010
,
0100
0001
0100
0010
1000
0001
0010
0001
0100
0010
1000
0010
1000
0001
1000
0010
,
0100
0001
0100
0010
1000
0001
0010
0001
0100
0010
1000
0010
1000
0001
1000
0010
,
0100
0001
0100
0010
1000
0001
0010
0001
0100
0010
1000
0010
1000
0001
1000
0000
,
0001
0100
0001
0000
1000
0010
1000
0001
1001
0000
1001
0000
0110
1000
0001
0000
,
0110
0000
1001
0010
0100
0000
0110
0000
1001
0100
0010
0000
2001
3001
2000
3010
,
0001
1000
0200
0301
0020
0130
1000
0100
0002
1003
0020
0031
0100
1000
0200
0310
,
1000
0001
2000
3010
0100
0010
0002
1003
0100
0001
0200
0301
2000
3001
2000
3010
,
0001
1000
0200
0301
0020
0130
1000
0100
0002
1003
0020
0031
0100
1000
0200
0310
,
1000
0001
2000
3010
0100
0010
0002
1003
0100
0001
0200
0301
2001
3001
2000
3010
,
0001
1000
0200
0301
0020
0130
1000
0100
0002
1003
0020
0031
0100
1000
0200
0310
,
1000
0001
2000
3010
0100
0010
0002
1003
0100
0001
0200
0301
2000
3001
2000
3010
,
0001
1000
0200
0301
0020
0130
1000
0100
0002
1003
0020
0031
0100
1000
0200
0310
,
1000
0001
2000
3010
0100
0010
0002
1003
1100
0001
1010
0001
1001
0010
0100
0001
,
0100
0010
1000
0010
0001
1000
0001
0100
1000
0010
0001
0100
1000
0010
0100
0001
,
0100
0010
1000
0010
0001
1000
0001
0100
1000
0010
0001
0100
1000
0010
0100
0001
,
0100
0010
1000
0010
0001
1000
0001
0100
1000
0010
0001
0100
1000
0010
0100
0001
,
0100
0010
1000
0010
0001
1000
0001
0100
1000
0010
0001
0100
1100
0000
1100
0010
,
0001
0100
0011
0000
1100
0001
0010
0000
1010
0000
0101
1000
0100
0000
0110
0001
,
0100
0000
1010
0001
0100
0000
1100
0001
1000
0000
0011
1000
1100
0000
1100
0010
,
0001
0100
0011
0000
1100
0001
0010
0000
1010
0000
0101
1000
0100
0000
0110
0001
,
0100
0000
1010
0001
0100
0000
1100
0001
1000
0000
0011
1000
1001
0100
0001
0000
,
1001
0000
1001
0100
1000
0000
1001
0000
0011
0100
1000
0000
1001
0000
1100
0010
,
0001
0000
1001
0100
1000
0000
0011
0100
1000
0001
0100
1000
0011
1100
0011
0000
,
1001
0000
1010
0101
1010
0000
1001
0000
0011
1100
0101
1010
0220
0000
0000
0000
,
0000
0330
0000
0000
,
0000
0000
0000
0000
,
0000
0000
0000
0000
;
