#TITLE:ユメのなかノわたしのユメ;
#SUBTITLE:;
#ARTIST:伊藤真澄;
#TITLETRANSLIT:Yume no Naka no Watashi no Yume;
#SUBTITLETRANSLIT:;
#ARTISTTRANSLIT:Masumi Itou;
#GENRE:;
#CREDIT:;
#BANNER:Yume no Naka no Watashi no Yume.bn.png;
#BACKGROUND:Yume no Naka no Watashi no Yume.bg.png;
#LYRICSPATH:;
#CDTITLE:cdtitle.png;
#MUSIC:[ROUND 2] - Yume no Naka no Watashi no Yume.mp3;
#OFFSET:-0.660;
#SAMPLESTART:38.515;
#SAMPLELENGTH:12.000;
#SELECTABLE:YES;
#BPMS:0.000=158.000
;
#STOPS:;
#BGCHANGES:;
#KEYSOUNDS:;
#ATTACKS:;

//---------------dance-single - Blank----------------
#NOTES:
     dance-single:
     Blank:
     Hard:
     8:
     0.494,0.497,0.257,0.118,0.000,288.000,24.000,11.000,0.000,0.000,0.000,0.494,0.497,0.257,0.118,0.000,288.000,24.000,11.000,0.000,0.000,0.000: // measure 0
0000
0000
0000
0000
,  // measure 1
0000
0000
0000
0000
,  // measure 2
1000
1000
0000
0010
0010
0100
0000
0010
,  // measure 3
1000
0010
0100
0001
0100
0010
1000
0000
,  // measure 4
0010
0010
0000
0100
0100
0001
0000
0010
,  // measure 5
1000
0010
0100
0010
0001
0100
0010
0000
,  // measure 6
0100
0100
0000
0001
0100
0100
0000
0001
,  // measure 7
1000
0001
0100
0001
0100
0010
1000
0000
,  // measure 8
0010
0010
0000
1000
0100
0100
0000
1000
,  // measure 9
0001
0010
0100
0010
0001
0100
0010
0000
,  // measure 10
0100
0100
0000
0010
0010
0100
0000
0001
,  // measure 11
1000
0001
0100
0010
1000
0100
0010
0001
,  // measure 12
1000
0000
0010
1000
0010
0000
1000
0001
,  // measure 13
1000
0000
0001
0010
0001
0000
0010
1000
,  // measure 14
0010
0100
1000
0010
0100
0000
0001
0100
,  // measure 15
0010
0000
0100
0010
1000
0000
0210
0000
,  // measure 16
0320
0001
0100
1000
,  // measure 17
0100
0001
1000
0130
,  // measure 18
1001
0000
0000
1000
0100
0000
0000
0001
,  // measure 19
0100
0000
0000
1000
0001
0000
0000
1000
,  // measure 20
0001
0100
0010
1000
0001
0100
0010
1000
,  // measure 21
0010
0100
0001
0100
0010
1000
0100
0000
,  // measure 22
1000
1000
0001
0100
0010
0000
0110
0000
,  // measure 23
1000
0001
0100
0010
1000
0010
0100
0001
,  // measure 24
1000
1000
0010
0100
0001
0000
0110
0000
,  // measure 25
0001
0100
0001
1000
0010
0100
0001
0100
,  // measure 26
0010
1000
1000
0010
0100
0001
0001
0100
,  // measure 27
0010
1000
0100
0001
0100
1000
0010
1000
,  // measure 28
0010
0100
0100
0001
0010
1000
1000
0010
,  // measure 29
0001
0100
0010
1000
0001
0100
0010
1000
,  // measure 30
0001
0100
0100
0001
1000
0100
0100
1000
,  // measure 31
0001
0010
0001
0100
0010
1000
0001
0001
,  // measure 32
2000
0000
0000
0000
,  // measure 33
0000
0000
0000
0000
,  // measure 34
3000
0001
1000
0010
,  // measure 35
0001
1000
0001
0000
1000
0000
0110
0000
,  // measure 36
0100
0000
0001
0000
0100
0010
0100
0000
,  // measure 37
0200
0010
0010
0310
,  // measure 38
0000
1000
0001
0100
,  // measure 39
0001
0000
0100
0010
0100
0000
0001
0000
,  // measure 40
0110
0000
1000
0010
0100
0000
1001
0000
,  // measure 41
1100
0101
0110
1001
,  // measure 42
0000
1000
0100
0010
,  // measure 43
0001
0000
0100
0010
0100
0000
0001
0000
,  // measure 44
0100
0000
0010
0000
1000
0000
0001
1000
,  // measure 45
0001
0000
1000
0001
1000
0000
0000
0000
,  // measure 46
0000
0100
1100
0100
,  // measure 47
0101
0000
0001
1000
0100
0000
0010
0000
,  // measure 48
1010
0000
1000
0000
1001
0000
0010
0100
,  // measure 49
0010
0220
0000
0330
,  // measure 50
0000
0011
0101
0110
,  // measure 51
1010
0000
1000
0100
0010
0000
1100
0000
,  // measure 52
1010
0000
0110
0000
0101
0000
0001
1000
,  // measure 53
0010
0000
1000
0001
0010
0000
0002
0000
,  // measure 54
1000
0000
2003
0001
,  // measure 55
3020
0000
0032
0000
,  // measure 56
2000
0000
0000
0000
,  // measure 57
0000
0000
0000
0000
,  // measure 58
3003
0000
0000
0000
;

//---------------dance-single - Blank----------------
#NOTES:
     dance-single:
     Blank:
     Medium:
     5:
     0.363,0.373,0.150,0.246,0.000,200.000,14.000,23.000,0.000,0.000,0.000,0.363,0.373,0.150,0.246,0.000,200.000,14.000,23.000,0.000,0.000,0.000: // measure 0
0000
0000
0000
0000
,  // measure 1
0000
0000
0000
0000
,  // measure 2
1000
0000
0000
0010
0010
0000
0000
0000
,  // measure 3
1000
0010
1000
0000
0010
0001
0010
0000
,  // measure 4
0100
0000
0000
0001
0001
0000
0000
0000
,  // measure 5
1000
0010
1000
0000
0010
0100
0010
0000
,  // measure 6
0100
0000
0000
0010
0010
0000
0000
0000
,  // measure 7
1000
0001
1000
0000
0001
0010
0001
0000
,  // measure 8
1000
0000
0000
0100
0100
0000
0000
0000
,  // measure 9
1000
0010
1000
0000
0010
0100
0010
0000
,  // measure 10
1000
0000
0000
0010
0010
0000
0000
0000
,  // measure 11
1000
0010
0100
0000
0100
0010
1000
0000
,  // measure 12
0100
0010
0010
0001
,  // measure 13
0001
0100
0100
0010
,  // measure 14
0010
0000
1000
0010
0100
0000
0001
0100
,  // measure 15
0010
0000
0100
0010
1000
0000
0001
0000
,  // measure 16
0002
0000
0100
0000
,  // measure 17
0100
0000
0100
0003
,  // measure 18
1001
0000
0000
0000
0100
0000
0000
0001
,  // measure 19
0100
0000
0000
0000
0100
0000
0000
0010
,  // measure 20
0001
0010
0001
0010
,  // measure 21
0001
0100
0010
1000
,  // measure 22
1000
0001
1000
0010
1000
0000
0010
0000
,  // measure 23
1000
0010
1000
0001
,  // measure 24
0001
0100
0001
1000
0001
0000
1000
0000
,  // measure 25
0010
0100
0001
0100
,  // measure 26
2000
3100
0002
0103
,  // measure 27
0010
0010
1000
0001
,  // measure 28
0200
0301
2000
3010
,  // measure 29
0100
0001
0100
0010
,  // measure 30
0200
0000
0300
0001
0200
0000
0300
0010
,  // measure 31
1000
0000
0000
0100
0010
1000
0001
1000
,  // measure 32
0020
0000
0000
0000
,  // measure 33
0000
0000
0000
0000
,  // measure 34
0030
0001
0100
0010
,  // measure 35
1000
1000
0001
0100
,  // measure 36
0001
0001
1000
0010
,  // measure 37
0100
0001
1000
1000
,  // measure 38
0010
0100
0010
1000
,  // measure 39
0010
0001
0010
1000
,  // measure 40
0100
0010
0001
0100
,  // measure 41
1001
0110
2002
3003
,  // measure 42
1001
0001
0010
0001
,  // measure 43
0010
0002
0003
0001
,  // measure 44
0100
0010
1000
1002
,  // measure 45
0003
2001
3000
0000
,  // measure 46
0000
0100
0001
0100
,  // measure 47
1000
0200
0300
1000
,  // measure 48
0001
0100
0010
2000
,  // measure 49
3000
0220
0000
0330
,  // measure 50
0000
0010
0101
0100
,  // measure 51
1010
0200
0300
1000
,  // measure 52
1010
0010
0011
1002
,  // measure 53
0003
2001
3000
0001
,  // measure 54
2000
0000
3001
1000
,  // measure 55
2000
0000
0100
0000
,  // measure 56
0002
0000
0000
0000
,  // measure 57
0000
0000
0000
0000
,  // measure 58
3003
0000
0000
0000
;

//---------------dance-single - Blank----------------
#NOTES:
     dance-single:
     Blank:
     Easy:
     3:
     0.272,0.279,0.032,0.107,0.000,165.000,3.000,10.000,0.000,0.000,0.000,0.272,0.279,0.032,0.107,0.000,165.000,3.000,10.000,0.000,0.000,0.000: // measure 0
0000
0000
0000
0000
,  // measure 1
0000
0000
0000
0000
,  // measure 2
0001
0000
1000
0000
,  // measure 3
0001
0001
1000
1000
,  // measure 4
0001
0000
1000
0000
,  // measure 5
0001
0100
0010
1000
,  // measure 6
0001
0000
1000
0000
,  // measure 7
0001
0010
0100
1000
,  // measure 8
0001
0000
1000
0000
,  // measure 9
0001
0100
0010
1000
,  // measure 10
0001
0000
1000
0000
,  // measure 11
0001
0010
0100
1000
,  // measure 12
0001
0000
1000
0000
,  // measure 13
0001
0001
1000
0100
,  // measure 14
0010
0000
0001
0000
,  // measure 15
1000
1000
0001
0100
,  // measure 16
0020
0000
0000
0000
,  // measure 17
0000
0000
0000
0030
,  // measure 18
0010
0000
0010
0000
,  // measure 19
0010
0000
0010
0000
,  // measure 20
1000
0100
0010
0001
,  // measure 21
1000
0100
0010
0001
,  // measure 22
0100
0010
1000
0000
,  // measure 23
0000
0001
0010
0100
,  // measure 24
1000
0010
0010
0000
,  // measure 25
0000
1000
0100
0010
,  // measure 26
0001
1000
0001
1000
,  // measure 27
0001
0010
0100
1000
,  // measure 28
0001
1000
0001
1000
,  // measure 29
0100
0010
0001
0001
,  // measure 30
1000
0001
0100
0001
,  // measure 31
0010
0001
1000
0010
,  // measure 32
0200
0000
0000
0000
,  // measure 33
0000
0000
0000
0000
,  // measure 34
0300
0001
1000
0001
,  // measure 35
0000
1000
0001
0100
,  // measure 36
0000
0010
1000
0100
,  // measure 37
2002
0000
0000
0000
,  // measure 38
3003
0001
0100
0010
,  // measure 39
0000
0100
0001
1000
,  // measure 40
0001
0100
0010
1000
,  // measure 41
0010
0100
0020
0000
,  // measure 42
0130
0001
0100
0010
,  // measure 43
1000
0100
0010
1000
,  // measure 44
0001
0100
1000
0100
,  // measure 45
1000
0001
0100
1000
,  // measure 46
0100
0001
0100
0010
,  // measure 47
0100
1000
0100
0010
,  // measure 48
0001
0100
0010
1000
,  // measure 49
0001
0220
0000
0330
,  // measure 50
0000
1000
1000
0100
,  // measure 51
0010
0002
0003
0100
,  // measure 52
0010
1000
0100
0010
,  // measure 53
0001
1000
1000
0010
,  // measure 54
0010
0000
0010
0100
,  // measure 55
0010
0000
1000
0000
,  // measure 56
0220
0000
0000
0000
,  // measure 57
0000
0000
0000
0000
,  // measure 58
0330
0000
0000
0000
;

//---------------dance-single - Blank----------------
#NOTES:
     dance-single:
     Blank:
     Challenge:
     5:
     0.255,0.279,0.032,0.107,0.000,154.000,3.000,10.000,84.000,0.000,0.000,0.255,0.279,0.032,0.107,0.000,154.000,3.000,10.000,84.000,0.000,0.000: // measure 0
0000
0000
0000
0000
,  // measure 1
0000
0000
0000
0000
,  // measure 2
0001
0000
1000
0000
,  // measure 3
0001
0001
1000
1000
,  // measure 4
MMMM
0000
1000
0000
,  // measure 5
0001
0100
0010
1000
,  // measure 6
MMMM
0000
1000
0000
,  // measure 7
0001
0010
0100
1000
,  // measure 8
MMMM
0000
1000
0000
,  // measure 9
0001
0100
0010
1000
,  // measure 10
MMMM
0000
1000
0000
,  // measure 11
0001
0010
0100
1000
,  // measure 12
MMMM
0000
1000
0000
,  // measure 13
0001
0001
1000
0100
,  // measure 14
MMMM
0000
0001
0000
,  // measure 15
1000
1000
0001
0100
,  // measure 16
0020
0000
0000
0000
,  // measure 17
0000
0000
0000
0030
,  // measure 18
0010
MMMM
0010
MMMM
,  // measure 19
0010
MMMM
0010
MMMM
,  // measure 20
1000
0100
0010
0001
,  // measure 21
1000
0100
0010
0001
,  // measure 22
0100
0010
MMMM
0000
,  // measure 23
0000
0001
0010
0100
,  // measure 24
1000
0010
MMMM
0000
,  // measure 25
0000
1000
0100
0010
,  // measure 26
0001
1000
MMMM
1000
,  // measure 27
0001
0010
0100
1000
,  // measure 28
0001
MMMM
0001
1000
,  // measure 29
0100
0010
0001
0001
,  // measure 30
1000
0001
0100
0001
,  // measure 31
0010
0001
1000
0010
,  // measure 32
0200
0000
0000
0000
,  // measure 33
0000
0000
0000
0000
,  // measure 34
0300
0001
1000
0001
,  // measure 35
0000
1000
0001
0100
,  // measure 36
0000
0010
1000
0100
,  // measure 37
2002
0000
0000
3003
,  // measure 38
MMMM
0001
0100
0010
,  // measure 39
0000
0100
0001
1000
,  // measure 40
0001
0100
0010
1000
,  // measure 41
0010
0100
0020
0000
,  // measure 42
0130
0001
0100
0010
,  // measure 43
1000
0100
0010
1000
,  // measure 44
0001
0100
1000
0100
,  // measure 45
1000
0001
0100
1000
,  // measure 46
MMMM
0001
0100
0010
,  // measure 47
0100
1000
0100
0010
,  // measure 48
0001
0100
0010
1000
,  // measure 49
0001
0220
0000
0330
,  // measure 50
MMMM
1000
1000
0100
,  // measure 51
0010
0002
0003
0100
,  // measure 52
0010
1000
0100
0010
,  // measure 53
0001
1000
1000
0010
,  // measure 54
0010
MMMM
0010
0100
,  // measure 55
0010
MMMM
1000
MMMM
,  // measure 56
0220
0000
0000
0000
,  // measure 57
0000
0000
0000
0330
,  // measure 58
MMMM
0000
0000
0000
;
