#TITLE:The Boys' Speed Highway (Cash Cash Remix);
#SUBTITLE:;
#ARTIST:Triple-Q;
#TITLETRANSLIT:;
#SUBTITLETRANSLIT:;
#ARTISTTRANSLIT:;
#GENRE:;
#CREDIT:;
#BANNER:The Boys Speed Highway-bn.png;
#BACKGROUND:The Boys Speed Highway-bg.png;
#LYRICSPATH:;
#CDTITLE:cdtitle.png;
#MUSIC:[ROUND 2] - The Boys' Speed Highway (Cash Cash Remix).ogg;
#OFFSET:-0.431;
#SAMPLESTART:68.255;
#SAMPLELENGTH:13.043;
#SELECTABLE:YES;
#DISPLAYBPM:138.000;
#BPMS:0.000=138.000
;
#STOPS:
;
#BGCHANGES:;
#KEYSOUNDS:;
#ATTACKS:;

//---------------dance-single - ----------------
#NOTES:
     dance-single:
     :
     Hard:
     8:
     0.488,0.477,0.179,0.358,0.074,370.000,23.000,46.000,0.000,0.000,0.000,0.488,0.477,0.179,0.358,0.074,370.000,23.000,46.000,0.000,0.000,0.000:
0000
0000
0000
0000
,
0000
0000
0000
0000
,
0000
0000
0000
0000
,
0000
0000
0000
0000
,
0000
0000
0000
0000
,
2002
0000
0000
0000
0000
0000
0000
0003
,
0020
0000
0000
0000
0000
0000
0000
3000
,
0200
0000
0000
0000
0000
0000
0000
0330
,
0001
1000
0100
1000
0010
0100
0001
0000
,
1000
0000
1100
0000
1000
0010
0100
0000
,
0001
0000
0011
0000
0010
0001
1000
0001
,
0100
0000
0110
0000
0010
1000
0001
0000
,
0010
0001
0100
1000
0100
0001
0010
0000
,
0100
0000
0110
0000
0010
0001
1000
0000
,
0010
0000
1010
0000
1000
0100
0010
0100
,
1000
0000
1001
0000
0001
0100
0010
0000
,
1000
0100
0001
0100
1000
0010
0100
0000
,
0020
0000
1000
0030
0001
0010
1000
0010
,
0002
0000
0100
0003
0010
1000
0001
1000
,
0200
0000
0010
0300
0001
0100
1000
0100
,
0002
0000
1000
0003
0010
1000
0001
1000
,
0010
0000
0100
0000
0010
0000
0000
1000
0000
0000
0100
0000
0010
0000
0001
0000
,
1000
0000
0010
0000
1000
0000
0000
0001
0000
0000
0010
0000
0100
0000
1000
0000
,
0001
0000
0100
0000
0001
0000
0000
1000
0000
0000
0100
0000
0001
0000
0100
0000
,
0010
0001
1000
0001
0100
0010
1000
0100
,
0020
0000
0000
0000
0031
0000
1000
0000
0001
0000
0100
0010
0100
0000
0010
0000
,
1000
0000
0000
0001
0000
0000
1000
0000
0100
0000
0010
0000
0100
0000
0000
0000
,
2000
0000
0000
0000
3010
0000
0100
0000
0001
0000
1000
0100
1000
0000
0010
0000
,
0100
0000
0000
0001
0000
0000
1000
0000
0010
0000
0000
0000
0100
0000
0010
0000
,
2000
0000
0000
0000
3001
0000
0100
0000
0010
0000
1000
0001
1000
0000
0100
0000
,
0010
0000
0000
0001
0000
0000
0100
0000
1000
0000
0100
0000
0010
0000
0000
0000
,
0200
0000
0000
0000
0310
0000
1000
0000
0001
0000
1000
0100
1000
0000
0010
0000
,
0100
0000
0000
0001
0000
0000
0010
0000
1000
0000
0000
0000
0010
0000
0001
0000
,
2000
3000
0020
0030
0002
0003
0200
0300
,
2000
0000
0000
0000
0002
3003
1001
0000
,
0002
0010
1000
0010
,
2003
0010
0001
0010
,
3002
0100
1000
0100
,
2003
0100
0001
0100
,
3010
0000
0000
0110
0000
0000
1000
0000
0001
0000
0010
0000
0001
0000
0000
0000
,
0100
0010
1000
0100
0001
0100
0010
0001
,
1000
0000
0000
1010
0000
0000
0100
0000
0001
0000
1000
0000
0100
0000
0000
0000
,
0010
0001
0100
1000
0100
0010
1000
0100
,
0010
0000
0000
0011
0000
0000
0001
0000
1000
0000
0010
0000
1000
0000
0000
0000
,
0100
0010
0001
0100
0010
1000
0001
1000
,
0100
0000
0000
0110
0000
0000
0010
0000
0001
0000
1000
0000
0001
0000
0000
0000
,
1000
0010
0100
0001
0010
0100
0010
0000
,
0020
0000
0001
0000
0100
0000
0001
1030
,
0020
0000
1000
0000
0100
0000
1000
0031
,
0200
0000
0010
0000
0001
0000
0010
1300
,
0200
0000
0010
0000
1000
0000
0010
0301
,
1000
0000
1010
0000
1000
0001
0100
0001
,
0010
0000
0110
0000
0100
1000
0010
1000
,
0001
0000
0101
0000
0100
0010
1000
0001
,
0010
0000
0110
0000
0100
1000
0001
1000
,
0020
0000
0000
0000
1030
0000
0001
0000
0010
0000
0100
0010
0100
0000
1000
0000
,
0010
0000
0000
1000
0000
0000
0001
0000
0010
0000
1000
0000
0010
0000
0000
0000
,
0002
0000
0000
0000
0103
0000
0010
0000
1000
0000
0001
0010
0001
0000
0100
0000
,
0010
0000
0000
1000
0000
0000
0100
0000
0010
0000
0100
0000
1000
0000
0001
0000
,
2000
3000
0200
0300
0002
0003
0020
0030
,
2000
0000
0000
0000
0002
3003
1001
0000
,
0020
1000
0100
1000
,
0230
0001
0010
0001
,
0320
1000
0001
1000
,
0230
0001
1000
0001
,
0310
0000
1010
0000
1000
0100
0001
0100
,
1000
0000
1010
0000
0010
1000
0001
1000
,
0100
0000
0110
0000
0010
0001
1000
0001
,
0100
0000
0110
0000
0010
1000
0001
0000
,
2000
3000
0020
0030
0002
0003
0200
0300
,
2000
0000
0000
0000
0002
3003
1001
0000
,
0220
0000
0000
0000
,
0330
0000
0000
0000
;

//---------------dance-single - ----------------
#NOTES:
     dance-single:
     :
     Medium:
     6:
     0.345,0.359,0.062,0.413,0.000,249.000,8.000,53.000,0.000,0.000,0.000,0.345,0.359,0.062,0.413,0.000,249.000,8.000,53.000,0.000,0.000,0.000:
0000
0000
0000
0000
,
0000
0000
0000
0000
,
0000
0000
0000
0000
,
0000
0000
0000
0000
,
0000
0000
0000
0000
,
2002
0000
0000
0000
0000
0000
0000
3000
,
0020
0000
0000
0000
0000
0000
0000
0003
,
0200
0000
0000
0000
0000
0000
0000
0330
,
1000
0001
0100
0110
,
0010
0000
1000
0000
0001
0010
0001
0000
,
0100
0000
0010
0000
1000
0100
0010
0100
,
1000
0000
0001
0000
0100
0010
0100
0000
,
0010
1000
0100
1100
,
1000
0000
0010
0000
0100
0001
0100
0000
,
0010
1000
0001
0010
,
0001
0000
0100
0000
0010
1000
0010
0000
,
0100
0001
0010
0011
,
0002
0000
0000
0003
0200
0000
0000
0300
,
2000
0000
0000
3000
0020
0000
0000
0030
,
0002
0000
0000
0003
2000
0000
0000
3000
,
0020
0000
0000
0030
0100
0000
0001
0000
,
1000
0000
0100
0000
1000
0000
0100
0010
,
0100
0000
0010
0000
0100
0000
0010
0001
,
0010
0000
0001
0000
0010
0000
0001
1000
,
0001
1000
0001
1000
,
0010
0100
0010
1000
,
0002
0000
0000
0003
2000
0000
0000
3000
,
0100
0010
0001
1000
,
0020
0000
0000
0030
0200
0000
0000
0300
,
0010
1000
0001
1000
,
0200
0000
0000
0300
0020
0000
0000
0030
,
0001
1000
0010
1000
,
0002
0000
0000
0003
0020
0000
0000
0030
,
0200
2300
3020
0230
,
0302
0000
0000
0000
2000
0000
0000
3003
,
0200
1000
1000
1000
,
0320
0001
0001
0001
,
0230
1000
1000
1000
,
0320
0001
0001
0001
,
0130
0000
1100
0000
1000
0010
0100
0000
,
0010
0000
0110
0000
0100
0001
0010
0000
,
0001
0000
0101
0000
0100
0010
1000
0000
,
0100
0000
1100
0000
1000
0001
0100
0000
,
0010
0000
1000
0000
0001
0010
0100
0000
,
0010
0000
0001
0000
1000
0010
0100
0000
,
0010
0000
1000
0000
0001
1000
0100
0000
,
0010
0000
0001
0000
1000
0001
0100
0000
,
0020
0000
0000
0000
,
2030
0000
0000
0000
,
3002
0000
0000
0000
,
0203
0000
0000
0000
,
0310
1000
0100
0000
1000
0010
0100
0000
,
0001
0010
1000
0000
0010
0001
1000
0000
,
0010
0100
0001
0000
1000
0100
0010
0000
,
0100
1000
0001
0000
0100
0010
1000
0000
,
0001
0010
0100
1000
,
0020
0000
0000
0030
0200
0000
0000
0300
,
0001
1000
0100
0010
,
0002
0000
0000
0003
2000
0000
0000
3000
,
0020
0230
0302
2003
,
3200
0000
0000
0000
0020
0000
0000
0330
,
0002
0100
0100
0100
,
2003
0010
0010
0010
,
3002
0100
0100
0100
,
2003
0010
0010
0010
,
3001
0000
0010
0000
1000
0010
0001
1000
,
0001
0000
0100
0000
0010
1000
0100
0000
,
0010
0000
0001
0000
0100
1000
0100
0001
,
0010
0000
0100
0000
1000
0010
0100
0000
,
0002
0023
0230
2300
,
3020
0000
0200
0000
,
0330
0000
0000
0000
;

//---------------dance-single - ----------------
#NOTES:
     dance-single:
     :
     Easy:
     4:
     0.251,0.276,0.148,0.226,0.000,178.000,19.000,29.000,0.000,0.000,0.000,0.251,0.276,0.148,0.226,0.000,178.000,19.000,29.000,0.000,0.000,0.000:
0000
0000
0000
0000
,
0000
0000
0000
0000
,
0000
0000
0000
0000
,
0000
0000
0000
0000
,
0000
0000
0000
0000
,
2000
0000
0000
0000
0000
0000
0000
3000
,
0020
0000
0000
0000
0000
0000
0000
0030
,
0200
0000
0000
0000
0000
0000
0000
0300
,
0001
0000
1000
0000
,
0001
0011
0010
0100
,
1000
1100
0100
0010
,
0001
0101
0100
0010
,
1000
1010
0010
0100
,
0001
0010
0110
0000
,
1000
0010
0100
0001
,
1000
0100
0110
0000
,
0001
0100
0010
1000
,
0002
0003
0020
0030
,
2000
3000
0200
0300
,
0002
0003
2000
3000
,
0200
0300
0020
0030
,
0001
0100
0101
0000
,
1000
0010
1010
0000
,
0001
0010
0011
0000
,
0100
1000
1100
0000
,
0010
1000
0001
1000
,
0200
0000
0000
0000
0000
0000
0000
0300
,
0010
0001
1000
0001
,
0200
0000
0000
0000
0000
0000
0000
0300
,
0010
1000
0001
1000
,
0200
0000
0000
0000
0000
0000
0000
0300
,
0010
0001
1000
0001
,
0200
0000
0000
0000
0000
0000
0000
0300
,
0001
0010
1000
0010
,
0001
0000
1001
0000
,
2000
0000
0000
0000
0010
0000
0000
3000
,
0002
0000
0000
0000
0100
0000
0000
0003
,
2000
0000
0000
0000
0100
0000
0000
3000
,
0002
0000
0000
0000
0010
0000
0000
0003
,
1000
0010
1010
0000
,
1000
0100
0010
0001
,
0010
0100
0110
0000
,
0010
0001
1000
0010
,
1000
0100
1100
0000
,
1000
0010
0100
0001
,
0010
0001
0011
0000
,
0010
0100
1000
0001
,
0200
0000
0000
0000
0000
0000
0000
0300
,
0020
0000
0000
0000
0000
0000
0000
0030
,
2000
0000
0000
0000
0000
0000
0000
3000
,
0002
0000
0000
0000
0000
0000
0000
0003
,
0010
0100
0010
0000
,
0001
0100
0001
0000
,
1000
0010
1000
0000
,
0100
0010
0100
0000
,
0010
0001
0010
0001
,
2000
0000
0000
0000
0000
0000
0000
3000
,
0010
1000
0010
1000
,
0002
0000
0000
0000
0000
0000
0000
0003
,
0010
0100
1000
0001
,
0100
0000
0110
0000
,
2000
0000
0000
0000
0100
0000
0000
3000
,
0002
0000
0000
0000
0100
0000
0000
0003
,
2000
0000
0000
0000
0010
0000
0000
3000
,
0002
0000
0000
0000
0010
0000
0000
0003
,
1000
0100
1100
0000
,
1000
0010
0100
0001
,
0010
0100
0110
0000
,
0010
0001
1000
0010
,
0100
0001
1000
0100
,
0010
0000
0001
0000
,
1001
0000
0000
0000
;

//---------------dance-single - ----------------
#NOTES:
     dance-single:
     :
     Beginner:
     2:
     0.162,0.166,0.039,0.249,0.000,109.000,5.000,32.000,0.000,0.000,0.000,0.162,0.166,0.039,0.249,0.000,109.000,5.000,32.000,0.000,0.000,0.000: // measure 0
0000
0000
0000
0000
,  // measure 1
0000
0000
0000
0000
,  // measure 2
0000
0000
0000
0000
,  // measure 3
0000
0000
0000
0000
,  // measure 4
0000
0000
0000
0000
,  // measure 5
1000
0000
0000
0000
,  // measure 6
1000
0000
0000
0000
,  // measure 7
0001
0000
0000
0000
,  // measure 8
0001
0000
1001
0000
,  // measure 9
1000
0000
1000
0000
,  // measure 10
0010
0000
0010
0000
,  // measure 11
0100
0000
0100
0000
,  // measure 12
0001
0000
0001
0000
,  // measure 13
1000
0000
0000
0000
,  // measure 14
0100
0000
0000
0000
,  // measure 15
0010
0000
0000
0000
,  // measure 16
0001
0000
0000
0000
,  // measure 17
2000
0000
0000
0000
0000
0000
0000
3000
,  // measure 18
0002
0000
0000
0000
0000
0000
0000
0003
,  // measure 19
0200
0000
0000
0000
0000
0000
0000
0300
,  // measure 20
0020
0000
0000
0000
0000
0000
0000
0030
,  // measure 21
1000
0000
0100
0000
,  // measure 22
1000
0000
0100
0000
,  // measure 23
0010
0000
0001
0000
,  // measure 24
0010
0000
0001
0000
,  // measure 25
1000
0000
0010
0000
,  // measure 26
0220
0000
0000
0000
0000
0000
0000
0330
,  // measure 27
0001
0000
0010
0000
,  // measure 28
0220
0000
0000
0000
0000
0000
0000
0330
,  // measure 29
1000
0000
0010
0000
,  // measure 30
0220
0000
0000
0000
0000
0000
0000
0330
,  // measure 31
0001
0000
0010
0000
,  // measure 32
0220
0000
0000
0000
0000
0000
0000
0330
,  // measure 33
2000
0000
0000
0000
,  // measure 34
0002
0000
0000
3003
,  // measure 35
0200
0000
0000
0000
0010
0000
0000
0300
,  // measure 36
0020
0000
0000
0000
1000
0000
0000
0030
,  // measure 37
2000
0000
0000
0000
0001
0000
0000
3000
,  // measure 38
0002
0000
0000
0000
0010
0000
0000
0003
,  // measure 39
0010
0000
0010
0000
,  // measure 40
0001
0000
0001
0000
,  // measure 41
1000
0000
1000
0000
,  // measure 42
0010
0000
0010
0000
,  // measure 43
1000
1000
1000
0000
,  // measure 44
0001
0001
0001
0000
,  // measure 45
0100
0100
0100
0000
,  // measure 46
0010
0010
0010
0000
,  // measure 47
2000
0000
0000
0000
0000
0000
0000
3000
,  // measure 48
0200
0000
0000
0000
0000
0000
0000
0300
,  // measure 49
0020
0000
0000
0000
0000
0000
0000
0030
,  // measure 50
0002
0000
0000
0000
0000
0000
0000
0003
,  // measure 51
1000
0000
0010
0000
,  // measure 52
1000
0000
0010
0000
,  // measure 53
0100
0000
0001
0000
,  // measure 54
0100
0000
0001
0000
,  // measure 55
1000
0000
0001
0000
,  // measure 56
2000
0000
0000
0000
0000
0000
0000
3000
,  // measure 57
0001
0000
1000
0000
,  // measure 58
0002
0000
0000
0000
0000
0000
0000
0003
,  // measure 59
0200
0000
0000
0000
,  // measure 60
0020
0000
0000
0330
,  // measure 61
2000
0000
0000
0000
0100
0000
0000
3000
,  // measure 62
0200
0000
0000
0000
0010
0000
0000
0300
,  // measure 63
0020
0000
0000
0000
0001
0000
0000
0030
,  // measure 64
0002
0000
0000
0000
1000
0000
0000
0003
,  // measure 65
1000
0000
1000
0000
,  // measure 66
0010
0000
0010
0000
,  // measure 67
0100
0000
0100
0000
,  // measure 68
0001
0000
0001
0000
,  // measure 69
2000
0000
0000
0000
,  // measure 70
0200
0000
0000
0000
0000
0000
0000
3300
;
