#TITLE:TIN-DON-DANCE;
#SUBTITLE:;
#ARTIST:ノーボトム!;
#TITLETRANSLIT:TIN-DON-DANCE;
#SUBTITLETRANSLIT:;
#ARTISTTRANSLIT:Nobotomu!;
#CREDIT:;
#BANNER:;
#BACKGROUND:;
#LYRICSPATH:;
#CDTITLE:;
#MUSIC:[ROUND 2] - TIN-DON-DANCE.mp3;
#OFFSET:-0.590;
#SAMPLESTART:41.913;
#SAMPLELENGTH:12.000;
#SELECTABLE:YES;
#BPMS:0.000=144.996;
#STOPS:;
#BGCHANGES:;

//---------------dance-single - Copied from----------------
#NOTES:
     dance-single:
     Copied from:
     Medium:
     8:
     0.481,0.944,0.094,0.068,0.171:
0000
0000
0000
0000
,
0000
0000
0000
0000
,
1000
0000
0000
0001
0000
0000
0100
0000
,
0010
0000
1000
0000
0001
1000
0001
0000
,
1000
1000
1000
0000
0000
0000
0001
0001
,
0001
0000
0000
0000
0100
0100
0100
0000
,
0010
1000
0001
0100
,
0010
0000
0000
1000
0000
0000
0001
0000
0000
0000
0000
0000
0000
0000
0000
0000
,
1001
0000
0000
0000
,
1000
0000
0001
0100
,
0010
1000
0010
0000
0100
0000
0001
0000
,
0010
0100
0010
0100
0010
0100
0010
0100
,
2000
0001
0000
0010
0000
0100
3100
0000
,
0000
0010
0001
0100
0020
0000
2030
0000
,
3001
0100
0010
0000
1000
0001
1000
0000
,
0010
0100
0010
0000
1000
0001
1000
0000
,
1000
0100
0001
0000
0001
0100
1000
0000
,
0001
0100
0010
0000
1000
0010
0100
0000
,
0001
0001
0010
0000
0100
0100
1000
0000
,
0001
0100
0010
1000
0002
0000
1003
0100
,
0010
0001
0010
0100
1000
0000
0100
0000
,
0010
0001
0010
0001
1000
0100
1000
0100
,
0010
0000
0001
0000
0100
0000
0000
0000
0010
0000
0000
0010
0000
0000
1000
0000
,
0001
0000
0000
0000
2000
0000
0000
3001
0000
0000
0000
0000
0010
0000
0000
0000
,
1000
0000
0001
0000
0100
0010
1000
0010
,
1000
0000
0000
0001
0000
0000
2000
0000
0000
0000
3000
0000
0000
0000
0001
0000
,
0001
0000
0100
0000
0010
0000
0000
0000
1000
0000
0000
0100
0000
0000
0010
0000
,
0002
0000
0000
1000
0000
0000
1000
0000
0000
0000
0103
0000
0000
0000
0000
0000
,
0000
0010
1000
0010
0100
0010
1000
1000
,
0020
0000
0000
0100
0000
0000
0100
0000
0000
0000
1030
0000
0000
0000
0000
0000
,
1001
0001
0100
0000
,
1010
0001
1001
0000
,
1010
0001
0101
0000
,
1001
0010
1001
0000
,
1000
0001
1000
0000
1010
0000
0100
0000
,
0001
0100
0001
0000
1001
0000
1000
0000
,
0010
0100
0010
0000
1000
0000
0001
0000
,
0100
0010
0100
0010
0100
0010
1000
0000
,
0001
0100
0001
0000
0010
0000
0100
0000
,
1000
0001
1000
0000
0010
0000
0100
0000
,
0001
0010
0001
0000
1000
0000
0001
0000
,
0100
0001
0100
0000
0010
0000
1000
0000
,
0001
0000
0000
0100
0000
0000
0010
0000
1000
0000
0000
0001
0000
0000
0100
0000
,
0001
0000
0000
1000
0000
0000
0001
0000
0100
0000
0000
0100
0000
0000
0010
0000
,
1000
0000
0000
1000
0000
0000
0001
0000
0010
0000
0000
0010
0000
0000
0100
0000
,
1000
0000
0000
0001
0000
0000
0100
0000
0010
0000
0000
1000
0000
0000
0010
0000
,
1000
0100
1000
0100
1000
0100
1000
0100
,
0010
0001
0010
0001
0010
0001
0010
0001
,
1000
0001
1000
0001
1000
0001
1000
0001
1000
0001
1000
0001
1000
0001
1000
0001
,
1000
0001
1000
0001
1000
0001
1000
0001
1000
0001
1000
0001
1000
0001
1000
0001
,
1000
0001
0100
0010
,
1000
0000
0000
0001
0000
0000
1000
0000
0000
0000
0000
0000
0000
0000
0000
0000
,
1000
0000
0010
1000
,
1001
0001
0100
0010
,
1000
0001
1000
0000
0010
0100
0010
0000
,
1000
0100
1000
0000
0001
0100
0001
0000
,
0010
0010
0100
1000
,
0001
0100
0001
0000
1000
0010
1000
0001
,
0100
0010
1000
0000
0010
0100
0010
0000
,
1000
1000
0100
0000
0010
0000
0001
0000
,
0100
0010
1000
0000
0001
0010
0100
0000
,
1000
1000
0001
0100
0010
1000
0001
0001
,
1000
0100
0001
0100
1000
0000
0000
0000
,
0001
0010
1000
0010
0001
0000
0100
0000
,
0010
1000
0010
1000
0010
1000
0010
1000
,
0001
0100
0001
0100
0001
0100
0001
1000
,
0100
1000
0100
1000
0100
1000
0100
1000
0100
1000
0100
1000
0100
1000
0100
1000
,
0001
0000
0000
0000
;

//---------------dance-single - Copied from ----------------
#NOTES:
     dance-single:
     Copied from:
     Easy:
     5:
     0.303,0.343,0.068,0.094,0.013: // measure 1
0000
0000
0000
0000
,  // measure 2
0000
0000
0000
0000
,  // measure 3
1000
1000
0001
0001
,  // measure 4
0100
0000
0100
0000
0010
1000
0010
0000
,  // measure 5
1000
1000
0001
0001
,  // measure 6
0100
0100
0010
0010
,  // measure 7
1000
0001
0100
0010
,  // measure 8
2000
0000
0000
0002
0000
0000
3003
0000
,  // measure 9
1001
0000
0000
0000
,  // measure 10
1000
0000
0001
0000
,  // measure 11
1001
0001
1000
0010
,  // measure 12
0010
0100
0001
0001
,  // measure 13
1000
0010
1000
0010
,  // measure 14
0100
0001
0100
0001
,  // measure 15
1000
0010
1000
0010
,  // measure 16
0100
0001
0010
0100
,  // measure 17
1000
0001
0100
0010
,  // measure 18
1000
0100
0010
0001
,  // measure 19
0100
0100
0010
1000
,  // measure 20
0001
1000
0010
0000
,  // measure 21
0010
1000
0001
0000
,  // measure 22
1000
0010
1000
0000
0001
0000
0100
0000
,  // measure 23
1001
0001
2000
0000
,  // measure 24
3001
0200
0000
0310
,  // measure 25
1000
0001
0001
1000
,  // measure 26
0001
0000
0000
0001
0000
0000
0001
0000
0000
0000
1000
0000
0000
0000
0000
0000
,  // measure 27
0010
0100
0001
0010
,  // measure 28
0100
0000
0000
1000
0000
0000
0100
0000
0000
0000
1000
0000
0000
0000
0000
0000
,  // measure 29
0001
1000
0010
0010
,  // measure 30
0100
0000
0000
0001
0000
0000
0000
0000
,  // measure 31
1000
0000
0001
0000
,  // measure 32
1000
0000
0010
0000
,  // measure 33
0100
0000
0001
0000
,  // measure 34
1000
0000
0010
0000
,  // measure 35
1000
1000
0001
0000
,  // measure 36
0100
0100
0010
0010
,  // measure 37
1000
0000
0001
0000
,  // measure 38
1000
0010
1000
0000
,  // measure 39
1001
0010
1000
0001
,  // measure 40
0100
0010
1000
0001
,  // measure 41
0010
0001
0010
0000
0001
0000
1000
0000
,  // measure 42
0010
0100
0010
0000
1000
0000
0001
0000
,  // measure 43
1001
0000
0000
1000
0100
0000
0000
0010
,  // measure 44
0001
0000
0000
0001
0100
0000
0000
1000
,  // measure 45
0010
0000
0000
0010
1000
0000
0000
1000
,  // measure 46
0001
0000
0000
0001
0100
0000
0000
0100
,  // measure 47
0010
1000
0010
0000
0000
0000
0000
0000
,  // measure 48
0100
0001
0100
0000
0000
0000
0000
0000
,  // measure 49
0010
1000
0010
1000
0010
1000
0010
1000
,  // measure 50
0020
0000
0000
0030
,  // measure 51
1010
0000
0000
0000
,  // measure 52
1000
0000
0000
0001
0000
0000
2000
0000
0000
0000
0000
0000
3000
0000
0000
0000
,  // measure 53
0001
0000
1000
0000
,  // measure 54
1001
0001
1000
0010
,  // measure 55
0100
0100
0001
0001
,  // measure 56
1000
0010
1000
0010
,  // measure 57
0100
0100
0001
1000
,  // measure 58
0001
1000
0010
1000
,  // measure 59
0010
0100
0001
1000
,  // measure 60
0001
1000
0010
1000
,  // measure 61
0001
0100
0001
1000
,  // measure 62
0001
1000
0010
0010
,  // measure 63
1000
1000
0002
0000
,  // measure 64
1003
1000
0020
0000
,  // measure 65
1030
0001
1000
0001
,  // measure 66
0100
0000
0010
0000
1000
0001
1000
0000
,  // measure 67
0002
0000
0003
0000
,  // measure 68
2002
3003
0000
0000
0000
0000
0000
0000
0000
0000
0000
0000
0000
0000
0000
0000
0000
0000
0000
0000
0000
0000
0000
0000
0000
0000
0000
0000
0000
0000
0000
0000
0000
0000
0000
0000
0000
0000
0000
0000
0000
0000
0000
0000
0000
0000
0000
0000
0000
0000
0000
0000
0000
0000
0000
0000
0000
0000
0000
0000
0000
0000
0000
0000
0000
0000
0000
0000
0000
0000
0000
0000
0000
0000
0000
0000
0000
0000
0000
0000
0000
0000
0000
0000
0000
0000
0000
0000
0000
0000
0000
0000
0000
0000
0000
0000
0000
0000
0000
0000
0000
0000
0000
0000
0000
0000
0000
0000
0000
0000
0000
0000
0000
0000
0000
0000
0000
0000
0000
0000
0000
0000
0000
0000
0000
0000
0000
0000
0000
0000
0000
0000
0000
0000
0000
0000
0000
0000
0000
0000
0000
0000
0000
0000
0000
0000
0000
0000
0000
0000
0000
0000
0000
0000
0000
0000
0000
0000
0000
0000
0000
0000
0000
0000
0000
0000
0000
0000
0000
0000
0000
0000
0000
0000
0000
0000
0000
0000
0000
0000
0000
0000
0000
0000
0000
0000
0000
0000
0000
0000
0000
0000
;

//---------------dance-single - Copied from Copied from Copied f----------------
#NOTES:
     dance-single:
     Copied from Copied from Copied f:
     Hard:
     8:
     0.565,0.635,0.094,0.128,0.213: // measure 1
0000
0000
0000
0000
,  // measure 2
0000
0000
0000
0000
,  // measure 3
1000
0010
0010
0100
0001
0001
1000
0100
,  // measure 4
0100
0010
0001
1000
0010
0100
0001
0000
,  // measure 5
1000
1000
0100
0010
0010
0001
1000
1000
,  // measure 6
0100
0010
0010
0001
1000
0100
0010
0000
,  // measure 7
0000
0001
0100
0010
1000
0100
0010
0001
,  // measure 8
0010
0000
0000
0100
0000
0000
2000
0000
0000
0000
0000
0000
0000
0000
0000
0000
,  // measure 9
3001
0000
0000
0000
,  // measure 10
1000
0000
0100
0000
0000
0000
0100
0000
0010
0000
0001
1000
0001
0000
0000
0000
,  // measure 11
1000
0001
0100
0010
1000
0000
0010
0000
,  // measure 12
0100
0001
0010
0001
0100
0010
1000
0010
,  // measure 13
2000
0001
0000
0010
0000
0100
3100
0000
,  // measure 14
0000
0010
0001
0100
0020
0000
2030
0000
,  // measure 15
3001
0000
0100
0000
0010
0000
0000
0000
1000
0000
0001
0100
0001
0000
1000
0000
,  // measure 16
0001
0000
1000
0100
1000
0000
0001
1000
0001
0000
0100
0001
0100
0000
0001
0000
,  // measure 17
1000
0100
0001
0000
0001
0100
1000
0010
,  // measure 18
0100
0001
1000
0010
1000
0001
0100
0000
,  // measure 19
0010
1000
0100
0010
0100
1000
0001
0001
,  // measure 20
1000
0100
0010
0001
2000
0000
3001
1000
,  // measure 21
0100
0001
0100
1000
0010
0000
0100
0000
,  // measure 22
0001
0001
1000
1000
0010
0010
0100
0100
,  // measure 23
0101
0000
0001
0000
0100
0000
0000
0000
0010
0000
0000
0010
0000
0000
1000
0000
,  // measure 24
0001
0000
0000
0000
2000
0000
0000
3001
0000
0000
0100
0000
0000
0000
0010
0000
,  // measure 25
1000
0000
0010
0000
0100
0000
0010
0000
1000
0000
0001
1000
0010
0000
0100
0000
,  // measure 26
0001
0000
0000
1000
0000
0000
0001
0000
0000
0000
1000
0000
1000
0000
1000
0000
,  // measure 27
0001
0000
1000
0000
0010
0000
0100
0000
0001
0000
1000
0010
0000
0000
1000
0000
,  // measure 28
0002
0000
0000
1000
0000
0000
1000
0000
0000
0000
0103
0000
0000
0000
0000
0000
,  // measure 29
0000
0010
1000
0010
0100
0010
1000
1000
,  // measure 30
0020
0000
0000
0100
0000
0000
0100
0000
0000
0000
1030
0000
0000
0000
0000
0000
,  // measure 31
1001
0000
0001
0000
,  // measure 32
1000
0000
0010
0000
,  // measure 33
0100
0000
0001
0000
,  // measure 34
0010
0000
0100
0000
,  // measure 35
1000
0000
0001
0000
1000
0000
0001
0010
0000
0100
0000
0010
0001
0000
1000
0000
,  // measure 36
0001
0100
0010
0000
1000
0010
1000
0000
,  // measure 37
0001
0000
1000
0000
0010
0000
0100
0001
0000
1000
0000
0001
1000
0000
0010
0000
,  // measure 38
0100
0000
0001
1000
0001
0000
1000
0000
0001
0000
1000
0010
1000
0000
0001
0000
,  // measure 39
1000
0000
0100
0000
0010
0000
0001
1000
0000
0010
0000
1000
0001
0000
1000
0000
,  // measure 40
0001
0100
0001
0000
1000
0000
0000
0000
0001
0000
1000
0000
0001
0000
0100
0000
,  // measure 41
0010
0000
1000
0000
0100
0000
1000
0001
0000
1000
0000
0001
1000
0000
0010
0000
,  // measure 42
0100
0000
0001
0000
0100
0000
0000
0000
0010
1000
0000
0010
1000
0000
0001
0000
,  // measure 43
1001
0000
0000
0000
1000
0000
0010
0000
0100
0000
0000
0100
0000
0000
0100
0000
,  // measure 44
0001
0000
0000
1000
0000
0000
0001
0000
0100
0000
0000
0100
0000
0000
0010
0000
,  // measure 45
1000
0000
0000
1000
0000
0000
0001
0000
0010
0000
0000
0010
0000
0000
0100
0000
,  // measure 46
1000
0000
0000
0001
0000
0000
0100
0000
0010
0000
0000
1000
0000
0000
0010
0000
,  // measure 47
1010
1000
0001
1000
0010
0100
0010
0100
,  // measure 48
0101
0001
0100
0010
1000
0100
0010
0001
,  // measure 49
1000
0100
1000
0000
0001
0010
0001
0000
1000
0010
1000
0000
0001
0100
0001
0000
,  // measure 50
1001
1010
0101
1001
,  // measure 51
1001
0001
0100
0010
1000
0010
0100
0010
,  // measure 52
1000
0000
0000
0001
0000
0000
1000
0000
0000
0000
0000
0000
0000
0000
0000
0000
,  // measure 53
0001
0000
0200
0000
0000
0000
0310
0000
1000
0000
0001
1000
0001
0000
0000
0000
,  // measure 54
1000
0010
0100
0001
2000
0000
3020
0000
,  // measure 55
0130
0000
1000
0100
1000
0000
0000
0000
0010
0000
1000
0001
0100
0000
0010
0000
,  // measure 56
1000
0001
0000
0001
0000
0001
0100
0000
,  // measure 57
0010
1000
0100
0010
0002
0000
1003
1000
,  // measure 58
0001
0000
1000
0100
1000
0000
0000
0000
0001
0000
0100
0010
0100
0000
0000
0000
,  // measure 59
0001
0000
1000
0100
1000
0000
0001
1000
0001
0000
0100
0001
0100
0000
0001
0000
,  // measure 60
1000
0100
0001
0000
0001
0100
1000
1000
,  // measure 61
0001
0100
0010
1000
0100
0010
0001
0000
,  // measure 62
0100
0100
0010
1000
0010
0100
0010
1000
,  // measure 63
0001
0100
0010
1000
0002
0000
0003
0000
,  // measure 64
0010
0100
0000
0001
0100
0000
0010
1000
,  // measure 65
0001
0100
0010
1000
0001
0100
0010
1000
,  // measure 66
0001
0010
0100
1000
0001
0100
0010
1000
,  // measure 67
0100
0010
0100
1000
0001
0100
0010
1000
,  // measure 68
2002
0000
0000
0000
0000
3003
0000
0000
;
