#TITLE:Move For Me;
#SUBTITLE:(Beat Juggle);
#ARTIST:Deadmau5 ft.& Kaskade;
#TITLETRANSLIT:;
#SUBTITLETRANSLIT:;
#ARTISTTRANSLIT:;
#GENRE:;
#CREDIT:;
#BANNER:move-banner.png;
#BACKGROUND:move-bg.png;
#LYRICSPATH:;
#CDTITLE:;
#MUSIC:[ROUND 2] - Move For Me (Beat Juggle).mp3;
#OFFSET:-7.578;
#SAMPLESTART:89.967;
#SAMPLELENGTH:15.200;
#SELECTABLE:YES;
#BPMS:0.000=128.000
;
#STOPS:28.000=0.234,
28.250=0.234,
28.500=0.234,
28.750=0.234
;
#BGCHANGES:;
#KEYSOUNDS:;
#ATTACKS:;

//---------------dance-single - ----------------
#NOTES:
     dance-single:
     :
     Hard:
     8:
     0.557,0.617,0.086,0.406,0.273,436.000,11.000,52.000,0.000,0.000,0.000,0.557,0.617,0.086,0.406,0.273,436.000,11.000,52.000,0.000,0.000,0.000:
0000
0000
0000
0000
,
0000
0000
0000
0000
,
0000
0000
0000
0000
,
0000
0000
0000
0000
,
1000
0000
0000
1000
0010
0000
0000
0010
0100
0000
0000
0000
0100
0000
0001
0000
,
0100
0000
0000
0100
0010
0000
0000
0010
1000
0000
0100
0000
1000
0000
0010
0000
,
0100
0000
0000
0100
0001
0000
0000
0001
0010
0000
0000
0000
0001
0000
1000
0010
,
0100
0001
0010
0100
1000
0100
1000
0100
1000
0000
0000
0000
0010
0000
0100
0000
,
0001
0000
0000
0000
1000
0001
2000
0000
0000
0000
3001
0000
0001
0010
0001
0100
,
0001
0010
0001
0000
1000
0000
0010
0000
2000
0000
0000
0000
3020
0000
0000
0000
,
0230
0000
0000
0000
0010
0000
0000
0000
0301
0000
0000
0100
0001
0000
1000
0000
,
0001
1000
0200
0000
1300
0010
0100
0000
,
0010
1000
0100
0001
0100
0000
1000
0010
,
0100
0010
1000
0010
1000
0000
0001
0000
,
0100
0000
0010
0000
1000
0200
0000
0000
1000
0000
1000
0000
1300
0000
0000
0000
,
1000
0100
0010
0001
1000
0010
0200
0000
,
0301
0010
0100
1000
0010
0100
0020
0000
,
1030
0100
0010
0100
2000
0000
3001
0100
,
0000
0001
0010
0100
0010
0001
0100
0010
,
1000
0000
0100
0000
0010
0001
0100
0001
0010
0000
0100
0000
0001
0000
0100
0000
,
0010
0000
0001
1000
0010
1000
0010
0100
,
0020
0000
0000
0000
2030
0000
0000
0000
3010
0000
0000
0010
1000
0000
0000
1000
,
0100
0000
0000
0100
0010
0000
0000
0010
0001
0000
0100
0000
0010
0000
1000
0000
,
1010
1100
0110
0011
0001
0100
0001
0010
,
0001
1000
0001
0100
0001
0010
0001
0100
,
0001
0010
0001
0010
0100
0001
0100
1000
,
0100
0010
0100
0001
0100
1000
0010
0100
,
0010
1000
0001
1000
0020
0000
0230
0000
,
0302
0000
2003
0000
3000
0001
1000
0000
,
1000
0100
0010
0001
0200
0000
0302
0000
,
2003
0000
0000
0000
3200
0000
0000
0000
1300
0100
1000
0100
1000
0001
1000
0001
,
0200
0000
0010
0000
0310
0000
0000
0000
2000
0000
0000
3020
0000
0000
1030
0000
,
0002
0000
1000
0000
1000
0000
1000
0000
1003
0000
0001
0010
0001
0000
1000
0010
,
1000
0000
0010
0100
0010
0000
0100
0010
0100
0000
0001
0010
0100
0000
1000
0100
,
0010
0000
0000
0000
0000
0000
0001
0000
0000
1000
0000
0000
0100
0000
0000
0000
0000
0000
1000
0000
0000
0001
0000
0000
0100
0000
0000
0000
0000
0000
0001
0000
1000
0000
0001
0000
1000
0000
0000
0000
0000
0000
0010
0000
0100
0000
0010
0000
,
0100
0000
0001
1000
0010
0100
0001
1000
0001
0000
0100
0000
0001
0000
0010
0000
,
0100
1000
0010
0100
0010
1000
0001
0010
,
0001
0001
0001
1000
0010
0000
0100
0000
,
0010
0000
0000
0000
0100
0000
0010
1000
0100
0000
0000
0100
0010
0000
0000
0010
,
0001
0000
0000
0010
0000
0000
0001
0000
0000
0010
0000
0000
0001
0000
0000
1000
0000
0000
0001
0000
0000
1000
0000
0000
0001
0000
0000
0000
0000
0000
0100
0000
0001
0000
0100
0000
0001
0000
0000
0000
0000
0000
1000
0000
0000
0000
0000
0000
,
0100
0000
0010
0000
0001
0000
0100
0010
0100
0000
0010
0100
0010
0000
1000
0000
,
1001
0001
0011
0001
0102
0000
1000
0000
,
0100
0000
0000
0000
0013
0000
0000
0000
0001
0000
0000
0000
0100
0000
0010
1000
,
0000
1001
0000
0101
0000
1010
0000
1000
0010
0000
0100
0000
0001
0000
0010
0000
,
0100
0000
1000
0000
0010
0000
0100
0000
0010
0000
1000
0001
1000
0001
0100
0000
,
0001
0000
0010
0000
0100
0000
1000
0000
0010
0000
0100
0010
0000
0000
1000
0010
,
0000
0000
0100
0000
0000
0000
0001
0100
0001
0000
0010
0000
0001
0000
0100
0000
,
0010
0000
1000
0000
0010
0000
0100
0001
0200
0000
0000
0000
0320
0000
0000
0000
,
2030
3200
0320
0032
,
0103
0010
0100
0010
2000
0000
3020
0000
,
0230
0302
0023
0230
,
2300
0000
3010
0100
0010
1000
0100
0010
,
0002
0000
0000
0000
0103
0000
0010
0100
0010
0000
1000
0000
0100
0000
0001
0100
,
1000
0001
0100
0010
0200
0000
0302
0000
,
0203
0320
2030
3002
,
0203
0000
0320
0000
0130
0010
1000
0001
,
0020
0000
0230
0000
1300
0010
1010
0100
,
0010
0000
0100
0001
0100
0000
0010
0000
0100
0000
0001
1000
0010
0000
0100
0000
,
0010
0000
1000
0001
0100
0000
0010
0000
1000
0000
0010
0000
0100
0000
0001
0000
,
0010
0100
1000
0001
0000
0100
0010
1000
,
0200
0020
0000
0000
,
0330
0100
1000
0010
2000
0000
0002
0000
,
0000
0000
0000
0000
,
0000
3003
0000
0000
;

//---------------dance-single - ----------------
#NOTES:
     dance-single:
     :
     Medium:
     6:
     0.352,0.370,0.055,0.148,0.020,290.000,7.000,19.000,0.000,0.000,0.000,0.352,0.370,0.055,0.148,0.020,290.000,7.000,19.000,0.000,0.000,0.000:
0000
0000
0000
0000
,
0000
0000
0000
0000
,
0000
0000
0000
0000
,
0000
0000
0000
0000
,
1000
0000
0010
0000
0100
0000
0001
0100
,
0001
0000
0100
0000
0010
1000
0010
0000
,
1000
0000
0100
0000
0001
0000
0100
1000
,
0010
0100
0001
0010
0100
0000
1000
0000
0100
0000
0000
0000
0010
0000
0000
0000
,
0001
0000
0100
0001
0000
0100
0001
0000
,
0100
0000
0010
1000
0010
0000
1000
0000
,
0001
1000
0010
0100
,
0001
1000
0001
0000
1000
0000
0010
0000
,
0100
0000
0010
0100
0010
0000
0100
0000
,
0001
0000
0010
0001
0010
0000
0100
0000
,
1000
0000
0010
0000
0100
0010
0100
0000
,
0010
1000
0010
0000
1000
0000
0010
0000
,
0100
0000
0001
0000
0010
0001
0010
0000
,
0100
1000
0010
0100
,
0001
0000
0010
0001
0100
0000
0010
0100
,
0010
0000
1000
0010
1000
0000
0010
0000
,
0100
0000
0001
0000
0100
0001
0100
0001
,
0100
0001
0010
0110
,
0100
0000
0110
0000
0100
0010
0001
0010
,
0100
1000
0100
1000
0100
0000
1000
0000
,
0010
0000
0100
0010
0100
0000
0001
0000
,
0010
0001
0010
0000
0001
0000
0100
0000
,
0010
1000
1010
0110
,
0101
0011
0001
0100
,
0010
0000
1000
0000
0010
1000
0010
0000
,
1000
0100
1000
0000
0100
0000
0010
0000
,
0100
0000
1000
0000
0010
1000
0010
1000
,
0010
1010
1000
0010
,
0100
0000
0001
0000
0100
0001
0100
0000
,
0001
1000
0001
0000
0010
0001
0010
0000
,
0100
0000
0010
0000
0100
0000
0000
0100
0010
0000
0000
0010
0001
0000
0000
0001
,
0100
0001
0010
0001
1000
0010
1000
0000
,
0001
0000
0100
0010
0100
0010
0100
0000
,
0001
1000
0001
0000
0010
0000
0100
0000
,
1000
0010
0100
0001
,
0100
0010
0100
0010
0100
0000
0010
0000
,
1000
0000
0100
0010
0100
0000
1000
0000
,
0010
0100
0010
0000
1000
0000
0001
0000
,
0010
0001
0100
0010
,
1000
0010
1000
0010
1000
0000
0010
0000
,
0100
0000
0001
0100
0001
0000
0010
0000
,
0100
0000
1000
0100
2000
0000
3020
0000
,
0230
0320
1030
0001
,
0100
0000
0010
0100
0020
0000
1000
0000
,
0100
0001
0100
0100
,
1030
0010
1000
0010
0100
0000
0010
0000
,
1000
0100
0020
0032
,
2003
3200
1300
0010
,
0100
0000
0010
0100
0010
0000
0100
0000
,
0001
0010
0001
0000
0020
0000
0230
0000
,
2300
3020
0230
0320
,
2030
3002
1003
0010
,
0100
0000
0001
0000
0100
0001
0010
0000
,
0001
0010
0100
0000
1000
0000
0001
1000
,
0001
0000
1000
0001
1000
0000
0010
0000
,
1000
0100
0010
0001
0000
0000
1000
0000
,
0010
0200
0000
0000
,
0000
0301
0010
0200
,
0000
0000
0000
0000
,
0000
0300
0000
0000
;

//---------------dance-single - ----------------
#NOTES:
     dance-single:
     :
     Easy:
     3:
     0.204,0.247,0.016,0.047,0.000,175.000,2.000,6.000,0.000,0.000,0.000,0.204,0.247,0.016,0.047,0.000,175.000,2.000,6.000,0.000,0.000,0.000:
0000
0000
0000
0000
,
0000
0000
0000
0000
,
0000
0000
0000
0000
,
0000
0000
0000
0000
,
1000
1000
1000
0010
,
0100
0100
0100
0001
,
0100
0100
0100
0100
,
0010
0100
0001
0100
,
0010
0100
0010
1000
,
0010
1000
0001
0000
,
0001
0000
1000
0000
,
1000
0000
1000
0010
,
0100
0010
0100
0001
,
0010
0001
0010
0100
,
1000
0010
0100
0010
,
1000
0001
1000
0010
,
0200
0000
0301
0010
,
0200
0000
1300
0000
,
1000
0000
0010
0100
,
0010
0100
0001
0010
,
0002
0000
0103
0010
,
2000
0000
3010
0010
,
0100
0100
0001
1000
,
1001
1001
1000
0010
,
0100
0001
0000
1000
,
0001
0010
0100
0000
,
1000
0000
0010
1000
,
0001
0100
0001
0000
,
1000
0000
0010
0000
,
0100
0010
0100
0000
,
0001
0000
1000
1000
,
0001
0001
1000
0010
,
0100
0000
0010
1000
,
0100
0000
0010
0000
,
0001
0000
0100
0000
,
0010
0100
0010
1000
,
0010
0000
0100
0010
,
1000
0000
0001
0000
,
0001
0000
1000
1000
,
1000
1000
0010
0010
,
0010
0000
0100
0000
,
0001
0010
0001
0000
,
0100
0000
0010
0010
,
0100
0100
0010
0000
,
0010
0000
1000
0000
,
1000
0000
0001
0000
,
0001
0000
1000
0000
,
1000
0000
1000
0000
,
0010
0000
0100
0000
,
0010
1000
0010
0000
,
0100
0000
0010
0000
,
1000
0000
0010
0010
,
0010
0010
0100
0100
,
0100
0100
0001
0001
,
0001
0001
1000
1000
,
1000
1000
0010
0000
,
0100
0000
0001
0000
,
0001
0001
1000
0000
,
1000
1000
0010
0000
,
0100
0000
0000
0000
,
0010
0020
0000
0000
,
0000
0100
0100
0200
,
0000
0000
0000
0000
,
0000
0330
0000
0000
;

//---------------dance-single - ----------------
#NOTES:
     dance-single:
     :
     Beginner:
     1:
     0.108,0.145,0.000,0.000,0.000,97.000,0.000,0.000,0.000,0.000,0.000,0.108,0.145,0.000,0.000,0.000,97.000,0.000,0.000,0.000,0.000,0.000:
0000
0000
0000
0000
,
0000
0000
0000
0000
,
0000
0000
0000
0000
,
0000
0000
0000
0000
,
1000
0000
0000
0000
,
1000
0000
0000
0000
,
0010
0000
0000
0000
,
0010
0000
0010
0000
,
0000
0000
0100
0000
,
0100
0000
0100
0000
,
0000
0000
0001
0000
,
0000
0000
1000
0000
,
1000
0000
1000
0000
,
0000
0000
0010
0000
,
0010
0000
0010
0000
,
0000
0000
0100
0000
,
0010
0000
0001
0000
,
0100
0000
1000
0000
,
1000
0000
0001
0001
,
0001
0000
0100
0000
,
0100
0000
0010
0000
,
0010
0000
1000
0000
,
1000
0000
0001
0000
,
0001
0000
0100
0000
,
0000
0000
0010
0000
,
0000
0000
1000
0000
,
0000
0000
0001
0000
,
0001
0000
0001
0000
,
0000
0000
0100
0000
,
0000
0000
0010
0000
,
0000
0000
1000
0000
,
1000
0000
1000
0000
,
1000
0000
0010
0000
,
0100
0000
0001
0000
,
0010
0000
0100
0000
,
1000
1000
1000
0000
,
0010
0000
0010
0000
,
1000
0000
1000
0000
,
0000
0000
0001
0000
,
0001
0000
0001
0000
,
0001
0000
0000
0000
,
0100
0000
0100
0000
,
0000
0000
0010
0000
,
0010
0000
0010
0000
,
0000
0000
1000
0000
,
1000
0000
1000
0000
,
0000
0000
0001
0000
,
0001
0000
0001
0000
,
0000
0000
0100
0000
,
0100
0000
0100
0000
,
0000
0000
0010
0000
,
0010
0000
0010
0000
,
0010
0000
0100
0000
,
0010
0000
1000
0000
,
0001
0000
1000
0000
,
0001
0000
0010
0000
,
0100
0000
1000
0000
,
1000
0000
0001
0000
,
0001
0000
0100
0100
,
0100
0100
0000
0010
,
0000
0010
0000
0000
,
0000
0000
0000
0100
;
