#TITLE:蛇神;
#SUBTITLE:;
#ARTIST:Zektbach;
#TITLETRANSLIT:Kagachi;
#SUBTITLETRANSLIT:;
#ARTISTTRANSLIT:;
#GENRE:;
#CREDIT:;
#BANNER:kagachi-bn.png;
#BACKGROUND:kagachi-bq.png;
#LYRICSPATH:;
#CDTITLE:;
#MUSIC:[ROUND 2] - Kagachi.mp3;
#OFFSET:-0.430;
#SAMPLESTART:30.030;
#SAMPLELENGTH:16.420;
#SELECTABLE:YES;
#BPMS:0.000=170.000
;
#STOPS:
;
#BGCHANGES:;
#KEYSOUNDS:;
#ATTACKS:;

//---------------dance-single - ----------------
#NOTES:
     dance-single:
     :
     Hard:
     9:
     0.553,0.619,0.503,0.454,0.045,359.000,62.000,56.000,0.000,0.000,0.000,0.553,0.619,0.503,0.454,0.045,359.000,62.000,56.000,0.000,0.000,0.000:
0000
0000
0000
0000
,
0000
0000
0000
0000
,
0000
0000
0000
0000
,
0000
0000
0000
0000
,
2001
0000
3000
1000
0020
0000
0030
0010
,
0200
0000
0300
0100
0001
0010
0100
1000
,
0002
0000
0003
0001
0200
0000
0300
0100
,
0020
0000
0030
0010
1000
0001
0010
0100
,
2000
0000
3001
1000
0020
0000
1030
0010
,
0200
0000
0301
0100
1000
0100
0010
1000
,
0002
0000
1003
0001
0020
0000
0031
0010
,
0200
0000
1300
0100
0001
0100
0010
0100
,
1100
0000
0001
0101
0000
1000
0001
1000
,
1100
0000
0100
0110
0000
0010
0001
0000
,
0101
0000
1000
1100
0000
0001
0010
0001
,
0101
0000
0100
0110
0000
0010
1000
0000
,
1001
0000
0000
0001
0010
0000
0100
0000
0010
0000
0000
0000
0110
0000
0000
0000
,
1100
0000
0000
1000
0001
0000
1000
0000
0010
0000
0000
0000
0101
0000
0000
0000
,
0110
0000
0000
0001
1000
0000
0001
0000
0010
0000
0000
0000
0110
0000
0000
0000
,
1100
0000
0000
1000
0001
0000
1000
0000
0010
0000
0000
0000
0220
0000
0000
0000
,
0330
0000
0000
0000
,
0002
0000
0000
1000
,
0020
0000
0000
0000
,
0033
0000
1020
0000
,
0230
0000
0302
0003
,
2001
0000
0000
0100
,
0020
0000
0000
0000
,
3030
0000
0021
0000
,
0230
0000
2300
3000
,
1010
0000
0001
1010
0000
0000
0010
0000
,
0110
0000
0001
0110
0000
0000
1000
0000
,
0011
0000
1000
0011
0000
0000
0010
0000
,
0110
0000
1000
0110
0000
0000
1000
0000
,
1001
0000
0000
1000
0000
0000
1010
0000
0000
0000
0010
0000
0100
0000
0000
0000
,
0101
0000
0000
0001
0000
0000
1001
0000
0000
0000
1000
0000
0100
0000
0000
0000
,
0110
0000
0000
0010
0000
0000
0011
0000
0000
0000
0001
0000
1000
0000
0000
0000
,
1010
0000
0000
1000
0001
0000
0010
0000
0100
0000
0010
0000
0001
0000
1000
0000
,
0020
0100
2030
0001
,
3200
0010
0000
0010
,
0000
0310
0002
0013
,
0200
1300
0002
1003
,
0020
0000
1000
0000
0130
0001
0010
0000
,
0200
0010
1000
0010
,
0000
0000
0310
0000
0001
1000
0010
0000
,
0100
0001
1000
0000
0001
0010
0100
1000
,
0010
0000
1000
0010
0100
0000
0110
0000
,
1010
0000
1000
0010
0100
0000
0101
0000
,
0011
0000
0001
0010
0100
0000
0110
0000
,
0011
0000
1000
0001
0100
0000
0110
0000
,
1010
0000
0000
1000
0010
0000
0100
0000
0010
0000
1000
0000
0010
0000
0100
0000
,
0001
0000
0000
0001
1000
0000
0001
0000
0100
0000
0001
0000
1000
0000
0100
0000
,
0010
0000
0000
0001
0010
0000
0100
0000
0010
0000
0001
0000
0010
0000
0100
0000
,
1000
0001
0010
1000
0001
0100
1000
0001
,
0200
0000
0320
0000
,
2030
0000
3001
0000
,
0021
0000
0230
0000
,
2300
0001
3001
0000
,
1200
0000
0320
0000
,
0032
0000
1003
0000
,
1020
0001
0230
0000
,
0302
1000
1003
0000
,
1001
0100
0001
0000
1000
0000
0100
0000
,
0110
1000
0001
0000
0100
0000
0010
0100
,
0101
0001
1000
0000
0100
0000
0010
0000
,
0011
0001
1000
0000
0010
0000
0100
0001
,
1001
0100
1000
0000
0010
0000
0100
0001
,
0011
0000
0100
0000
1000
0000
0010
1000
,
1100
0000
1000
0000
0010
0000
0100
0010
,
1000
0001
0100
0010
1000
0001
0100
0001
,
1001
0000
1000
0010
0000
0001
0100
0010
,
1000
0000
0001
0010
0000
1000
0100
0010
,
0001
0000
0000
0011
0000
0000
0110
0000
,
1000
0000
0000
0101
0000
0000
1001
0010
,
0100
0000
0001
0100
0000
1000
0010
0100
,
0001
0000
1000
0100
0000
0001
0010
0100
,
1000
0000
0001
1001
0000
0100
0110
0000
,
0001
0000
1000
1010
0000
0001
0011
0000
,
2000
0010
3002
0000
,
0100
1000
0020
0033
,
2000
0100
3002
0000
,
0010
1000
0200
0303
,
0002
0010
2003
0000
,
0010
0100
0002
3003
,
0200
0010
2300
0000
,
0100
0001
0020
3030
;

//---------------dance-single - ----------------
#NOTES:
     dance-single:
     :
     Medium:
     7:
     0.430,0.413,0.146,0.495,0.016,292.000,18.000,61.000,0.000,0.000,0.000,0.430,0.413,0.146,0.495,0.016,292.000,18.000,61.000,0.000,0.000,0.000:
0000
0000
0000
0000
,
0000
0000
0000
0000
,
0000
0000
0000
0000
,
0000
0000
0000
0000
,
2002
3000
2000
0003
,
0002
0000
3000
0000
0013
0100
0010
0100
,
2000
0000
0002
3000
,
2000
0000
0003
0000
3010
0100
0010
1000
,
0002
0000
2000
0003
,
0002
0000
3000
0000
0013
1000
0010
0100
,
2000
0000
0002
3000
,
2000
0000
0003
0000
3010
0001
0010
1000
,
0001
0000
0001
0010
0000
0010
0100
0000
,
1000
0000
0001
0100
0000
0100
0010
0000
,
1000
0000
1000
0010
0000
0010
0100
0000
,
0001
0000
0001
0010
0000
0010
1000
0000
,
0010
0000
0000
0001
0010
0000
0000
0000
0100
0000
0000
0000
1000
0000
0000
0000
,
0001
0000
0000
1000
0001
0000
0000
0000
0100
0000
0000
0000
0010
0000
0000
0000
,
1000
0000
0000
0010
1000
0000
0000
0000
0001
0000
0000
0000
0100
0000
0000
0000
,
0001
0000
0000
1000
0100
0000
1000
0000
0001
0000
0000
0000
0010
0000
0000
0000
,
0000
0000
0000
0000
,
0002
0000
0000
0000
,
0200
0000
0000
0000
,
0303
0000
0020
0000
,
0230
0000
0302
0000
,
2003
0000
0000
0000
,
0200
0000
0000
0000
,
3300
0000
0020
0000
,
0230
0000
2300
0000
,
3010
0000
0100
0010
0000
0000
0100
0000
,
0001
0000
1000
0001
0000
0000
1000
0000
,
0100
0000
0010
0100
0000
0000
0010
0000
,
0001
0000
1000
0001
0000
0000
1000
0000
,
0010
0000
0100
0010
0100
0000
0001
0000
,
0010
0000
0100
0010
0100
0000
1000
0000
,
0001
0000
0100
0010
0100
0000
0001
0000
,
0010
0000
0100
1000
0100
1000
0100
1000
,
0002
0000
0203
0000
,
0320
0000
1000
0000
,
0130
0000
0021
0000
,
0230
0000
2300
0000
,
3002
0000
0203
0000
,
0320
0000
1000
0000
,
0130
0000
0102
0000
,
2003
0000
3200
0000
,
0310
0000
0010
0100
0010
0000
0001
0000
,
0100
0000
0010
0100
0010
0000
1000
0000
,
0100
0000
0100
0010
0100
0000
1000
0000
,
0001
0000
0001
0100
0001
0000
1000
0000
,
0001
0010
0001
0010
0100
0000
0100
0000
,
1000
0010
1000
0010
0100
0000
0100
0000
,
0001
1000
0001
0010
0100
0000
0100
0000
,
1000
0001
1000
0001
0100
0001
0100
0001
,
0200
0000
0320
0000
,
2030
0000
3002
0003
,
0102
0000
2003
0000
,
3200
1000
0310
0000
,
0120
0000
0032
0000
,
2003
0000
3010
0000
,
2000
0000
3200
0000
,
0320
0100
0031
0000
,
1000
0000
0100
0000
0010
0000
0001
1000
,
0100
0000
0010
0000
0001
0000
1000
0001
,
0100
0000
0010
0000
1000
0000
0001
0100
,
0010
0000
1000
0000
0001
0000
0100
0001
,
1000
0000
0100
0000
0001
0000
0100
0010
,
0100
1000
0001
0100
,
1000
0000
0100
0000
0001
0000
1000
0001
,
2000
0000
0100
0000
3001
1000
0100
0000
,
1001
0000
0001
0100
0000
0000
0010
0000
,
1010
0000
1000
0001
0000
0000
0010
0000
,
0110
0000
0100
1000
0000
0000
0001
0000
,
0101
0000
0100
0010
0000
0000
1000
0000
,
1001
0000
0001
0010
0000
0000
0110
0000
,
1100
0000
1000
0001
0000
0000
0101
0000
,
0110
0000
0100
0001
0000
0000
0011
0000
,
0110
0000
1000
0010
0000
0000
0100
0000
,
0102
0010
2003
0000
,
0010
0100
0002
3003
,
2000
0100
3002
0000
,
0010
0100
2000
3003
,
2100
0010
3002
0000
,
0010
0100
2000
3003
,
0002
0100
2003
0000
,
0010
0100
0002
3003
;

//---------------dance-single - ----------------
#NOTES:
     dance-single:
     :
     Easy:
     4:
     0.210,0.274,0.211,0.000,0.000,155.000,26.000,0.000,0.000,0.000,0.000,0.210,0.274,0.211,0.000,0.000,155.000,26.000,0.000,0.000,0.000,0.000:
0000
0000
0000
0000
,
0000
0000
0000
0000
,
0000
0000
0000
0000
,
0000
0000
0000
0000
,
1000
0000
1000
0000
,
1000
0000
0010
1000
,
0001
0000
0001
0000
,
0001
0000
0010
0100
,
1000
0000
1000
0000
,
1000
0000
0010
0100
,
0001
0000
0001
0000
,
0001
0000
0010
0100
,
1001
0000
0000
0000
,
1100
0000
0000
0000
,
1001
0000
0000
0000
,
0101
0000
0000
0000
,
1001
0000
0000
0000
,
1100
0000
0000
0000
,
1001
0000
0000
0000
,
0011
0000
0000
0000
,
0000
0000
0000
0000
,
0100
0000
0000
0100
,
0010
0000
0000
0010
,
1000
0000
0001
0000
,
0010
0000
0100
0000
,
1000
0000
0000
0100
,
0010
0000
0000
0010
,
0001
0000
1000
0000
,
0010
0000
0100
0000
,
0101
0000
0000
0000
,
1001
0000
0000
0000
,
0011
0000
0000
0000
,
1001
0000
0000
0000
,
1100
0000
0000
0000
,
1001
0000
0000
0000
,
1010
0000
0000
0000
,
1001
0000
0000
0000
,
0100
0001
0000
0001
,
0000
0001
0000
0001
,
0000
1000
0000
0010
,
0000
0100
0000
0001
,
0000
1000
0000
1000
,
0000
1000
0000
1000
,
0000
1000
0000
0001
,
0000
0010
0000
0100
,
1100
1000
1000
0000
,
0001
0001
0001
0000
,
1000
1000
1000
0000
,
0001
0001
0001
0000
,
1000
1000
0001
0001
,
1000
1000
0001
0001
,
0100
0100
0010
0010
,
0100
0001
0100
0010
,
1000
0000
0000
0000
,
0010
0000
0000
0000
,
0100
0000
0000
0000
,
0001
0100
0100
0000
,
1001
0000
0000
0000
,
0010
0000
0000
0000
,
0100
0000
0000
0000
,
1000
0100
0100
0000
,
0010
0100
0000
0100
,
1000
0001
0000
1000
,
0001
0100
0000
0100
,
0010
1000
0000
0001
,
1000
0100
0010
0000
,
0001
0010
0100
1000
,
0001
0000
0100
0000
,
0010
0000
0000
0000
,
0110
0000
0000
0000
,
0101
0000
0000
0000
,
0110
0000
0000
0000
,
1010
0000
0000
0000
,
0110
0000
0000
0000
,
1100
0000
0000
0000
,
0110
0000
0000
0000
,
0011
0000
0000
0000
,
1000
0000
0010
0000
,
0100
0000
0001
0000
,
1000
0000
0100
0000
,
0010
0000
0001
0000
,
0001
0000
0010
0000
,
0100
0000
1000
0000
,
0001
0000
0100
0000
,
0010
0000
1000
0000
;

//---------------dance-single - ----------------
#NOTES:
     dance-single:
     :
     Beginner:
     1:
     0.080,0.102,0.105,0.000,0.000,56.000,13.000,0.000,0.000,0.000,0.000,0.080,0.102,0.105,0.000,0.000,56.000,13.000,0.000,0.000,0.000,0.000: // measure 0
0000
0000
0000
0000
,  // measure 1
0000
0000
0000
0000
,  // measure 2
0000
0000
0000
0000
,  // measure 3
0000
0000
0000
0000
,  // measure 4
1000
0000
0000
0000
,  // measure 5
0000
0000
0000
0000
,  // measure 6
1000
0000
0000
0000
,  // measure 7
0000
0000
0000
0000
,  // measure 8
1000
0000
0000
0000
,  // measure 9
0000
0000
0000
0000
,  // measure 10
1000
0000
0000
0000
,  // measure 11
0001
0000
0000
0000
,  // measure 12
1001
0000
0000
0000
,  // measure 13
0000
0000
0000
0000
,  // measure 14
1001
0000
0000
0000
,  // measure 15
0000
0000
0000
0000
,  // measure 16
1001
0000
0000
0000
,  // measure 17
0001
0000
0000
0000
,  // measure 18
1001
0000
0000
0000
,  // measure 19
1000
0000
0000
0000
,  // measure 20
0000
0000
0000
0000
,  // measure 21
0010
0000
0000
0000
,  // measure 22
0000
0000
0000
0000
,  // measure 23
0000
0000
0000
0000
,  // measure 24
0100
0000
0000
0000
,  // measure 25
0010
0000
0000
0000
,  // measure 26
0000
0000
0000
0000
,  // measure 27
0000
0000
0000
0000
,  // measure 28
0100
0000
0000
0000
,  // measure 29
0001
0000
0000
0000
,  // measure 30
1000
0000
0000
0000
,  // measure 31
0001
0000
0000
0000
,  // measure 32
1000
0000
0000
0000
,  // measure 33
0001
0000
0000
0000
,  // measure 34
0001
0000
0000
0000
,  // measure 35
1000
0000
0000
0000
,  // measure 36
1000
0000
0000
0000
,  // measure 37
0100
0000
0000
0000
,  // measure 38
0000
0000
0000
0000
,  // measure 39
0000
0000
0000
0000
,  // measure 40
0010
0000
0000
0000
,  // measure 41
0100
0000
0000
0000
,  // measure 42
0000
0000
0000
0000
,  // measure 43
0000
0000
0000
0000
,  // measure 44
0010
0000
0000
0000
,  // measure 45
1001
0000
0000
0000
,  // measure 46
1000
0000
0000
0000
,  // measure 47
1001
0000
0000
0000
,  // measure 48
0001
0000
0000
0000
,  // measure 49
1001
0000
0000
0000
,  // measure 50
1000
0000
0000
0000
,  // measure 51
1001
0000
0000
0000
,  // measure 52
0001
0000
0000
0000
,  // measure 53
0100
0000
0000
0000
,  // measure 54
0000
0000
0000
0000
,  // measure 55
0100
0000
0000
0000
,  // measure 56
0000
0000
0000
0000
,  // measure 57
0010
0000
0000
0000
,  // measure 58
0000
0000
0000
0000
,  // measure 59
0010
0000
0000
0000
,  // measure 60
0000
0000
0000
0000
,  // measure 61
1000
0000
0000
0000
,  // measure 62
1000
0000
0000
0000
,  // measure 63
0001
0000
0000
0000
,  // measure 64
0001
0000
0000
0000
,  // measure 65
1000
0000
0000
0000
,  // measure 66
0001
0000
0000
0000
,  // measure 67
0010
0000
0000
0000
,  // measure 68
0100
0000
0000
0000
,  // measure 69
0110
0000
0000
0000
,  // measure 70
0000
0000
0000
0000
,  // measure 71
0110
0000
0000
0000
,  // measure 72
0000
0000
0000
0000
,  // measure 73
0110
0000
0000
0000
,  // measure 74
0000
0000
0000
0000
,  // measure 75
0110
0000
0000
0000
,  // measure 76
0100
0000
0000
0000
,  // measure 77
1001
0000
0000
0000
,  // measure 78
0000
0000
0000
0000
,  // measure 79
0000
0000
0000
0000
,  // measure 80
0000
0000
0000
0000
,  // measure 81
1000
0000
0000
0000
,  // measure 82
0000
0000
0000
0000
,  // measure 83
0001
0000
0000
0000
,  // measure 84
0001
0000
0000
0000
;

//---------------dance-single - ----------------
#NOTES:
     dance-single:
     :
     Challenge:
     11:
     0.865,0.963,0.219,0.414,0.779,668.000,27.000,51.000,0.000,0.000,0.000,0.865,0.963,0.219,0.414,0.779,668.000,27.000,51.000,0.000,0.000,0.000:
0000
0000
0000
0000
,
0000
0000
0000
0000
,
0000
0000
0000
0000
,
0000
0000
0000
0000
,
1000
0100
1000
0100
0010
0001
0000
0000
1000
0100
1000
0100
0010
0001
0000
0000
,
1000
0100
1000
0100
0010
0001
0000
1000
0010
0100
0010
1000
0001
0010
0100
1000
,
0001
0100
0001
0100
0010
1000
0000
0000
0001
0100
0001
0100
0010
1000
0000
0000
,
0001
0100
0001
0100
0010
1000
0000
0001
0010
0100
1000
0001
0100
0010
0100
0001
,
1000
0100
1000
0100
0010
0001
0000
0000
1000
0100
0010
0100
0010
0001
0000
0000
,
1000
0100
0010
0001
0010
0001
0000
1000
0010
0100
0010
0001
0010
0100
0010
1000
,
0001
0100
0001
0100
0010
1000
0000
0000
0001
0100
0010
0100
0010
1000
0000
0000
,
0001
0100
0010
1000
0010
1000
0000
0001
0010
1000
0010
0100
0010
0001
0010
0100
,
1000
0000
0000
0001
1000
0000
0010
0000
0000
0100
0001
0000
0100
0000
0010
0100
,
0001
0000
0000
1000
0001
0000
0010
0000
0000
0100
1000
0000
0010
0000
1000
0001
,
1000
0000
0000
0001
1000
0000
0010
0000
0000
0100
0001
0000
0100
0000
0010
1000
,
0001
0000
0000
0010
0100
0000
1000
0000
0000
0100
0010
0000
0001
0000
1000
0001
,
1000
0000
0000
0010
0100
0000
0001
0000
0100
0001
0100
0000
0010
0000
1000
0001
,
0010
0000
0000
0001
1000
0000
0100
0000
1000
0001
1000
0000
0010
0000
0100
0001
,
1000
0000
0000
0010
0100
0000
0001
0000
0100
0010
0100
0000
0001
0000
1000
0001
,
0010
0000
0000
0100
1000
0000
2002
0000
3003
0000
0100
0000
0220
0000
0000
0000
,
0330
0000
0000
0000
,
0002
0000
0000
0000
0000
0000
1003
0000
0100
0000
1000
0000
0001
0000
0000
0000
0000
0000
0200
0000
0000
0000
0000
0300
,
0120
0000
0000
1030
0001
1000
0010
0000
0000
0100
0000
0000
,
0101
0000
0000
1000
0100
0010
0002
0000
0000
0013
0000
0000
,
2100
0000
0000
3001
1000
0001
0200
0000
0000
0310
0000
0000
,
2010
0000
0000
0000
0000
0000
3001
0000
0100
0000
0001
0000
1000
0000
0000
0000
0000
0000
1200
0000
0000
0000
0000
0300
,
0120
0000
0000
0031
1000
0001
0010
0000
0000
0100
0000
0000
,
1100
0000
0000
0001
0100
0010
0002
0000
0000
0013
0000
0000
,
2010
0000
0000
3001
0010
0100
0002
0000
0000
0103
0000
0000
,
1010
0000
0000
0001
1000
0000
1010
0000
0000
0000
0010
0000
0100
0000
0000
0000
,
0101
0000
0000
1000
0001
0000
0101
0000
0000
0000
0100
0000
0010
0000
0000
0000
,
1001
0000
0000
1000
0001
0000
0011
0000
0000
0000
0010
0000
0100
0000
0000
0000
,
1100
0000
0000
0001
1000
0000
1100
0000
0000
0000
0100
0000
0010
0000
0000
0000
,
0001
0000
1000
0001
1000
0000
0010
0000
0100
0010
0100
0010
0100
0001
0100
0001
,
1000
0000
0001
1000
0001
0000
0010
0000
0100
0010
0100
0010
0001
1000
0100
0010
,
0001
0000
1000
0001
1000
0000
0010
0000
0100
0010
0100
0001
1000
0010
0100
0001
,
1000
0000
0100
0010
0001
0000
1000
0000
0100
1000
0100
0010
0001
0000
0010
0000
,
0200
1300
1002
1003
,
1020
0100
0000
0100
,
0030
0100
0102
1003
,
2001
3100
1200
0310
,
0001
0010
0001
0000
1000
0001
1000
0000
,
0010
0100
0010
0000
1000
0010
0100
0000
,
0001
0010
0100
0000
1000
0100
0010
0000
,
0001
1000
0010
0000
0100
0010
1000
0001
,
0010
0000
0100
0010
0100
0000
1000
0000
0001
0000
1000
0000
0010
1000
0010
0100
,
0001
0000
0100
0010
0100
0000
0001
0000
1000
0000
0100
0000
0010
0001
0010
0100
,
1000
0000
0100
0010
0100
0000
1000
0000
0001
0000
0100
0000
0001
1000
0001
0100
,
0010
0000
0100
0001
0100
0000
0010
0000
1000
0000
0001
0010
0001
1000
0001
0010
,
0100
0000
0010
0100
0010
0000
0001
0000
1000
0000
0010
0000
1000
0001
0100
0010
,
0100
0000
0010
0100
0010
0000
1000
0000
0001
0000
0010
0001
1000
0001
0010
0100
,
1000
0000
0100
0010
0100
0000
1000
0000
0001
1000
0010
1000
0001
1000
0010
0100
,
0001
0000
0010
0000
0100
0000
1000
0000
0010
0000
0100
0000
0001
0000
0010
0100
,
2000
0000
0100
0000
3002
0000
0000
0013
,
0002
0000
0000
0000
0100
0003
0001
0100
0020
0000
0000
0000
0000
0000
1030
0010
,
0200
0000
0010
0000
0302
0000
0000
1003
,
1002
0000
0000
0000
0010
0000
0000
0000
0100
0000
0000
0000
0003
0000
0001
1000
,
0002
0000
0100
0000
2003
0000
0000
3010
,
2000
0000
0000
0000
0100
3000
1000
0100
0020
0000
0000
0000
0000
0030
0001
1000
,
0002
0000
0000
0000
0010
0000
0000
0000
2003
0000
0000
0000
0000
0000
3010
1000
,
0010
0110
1010
0000
,
0001
1000
0001
0010
0001
1000
0100
0010
,
0001
0100
0001
1000
0001
0100
0001
0000
,
1000
0001
1000
0010
1000
0001
0010
0100
,
0001
0100
1000
0100
0001
0100
1000
0000
,
0001
0100
0010
0100
1000
0100
0010
0001
,
0010
1000
0001
1000
0100
0000
0010
0001
,
1000
0100
1000
0100
0010
0100
0010
0100
,
0010
0001
0010
0001
0010
0001
1000
0010
,
0100
0001
0100
0001
0100
0000
0010
0100
0010
0100
0010
0000
1000
0010
1000
0010
,
1000
0000
0001
1000
0001
0000
0010
0100
0010
0100
0010
0000
0100
1000
0100
1000
,
0001
1000
0001
1000
0001
0000
0100
0001
0100
0001
0100
0000
0010
0100
0010
0100
,
0001
1000
0001
1000
0001
0000
0010
0001
0010
0001
0010
0000
0100
0010
0001
0010
,
0100
1000
0100
1000
0100
0000
0010
0100
0010
0100
0010
0000
0001
0010
0001
0010
,
0001
0000
1000
0001
1000
0000
0010
0100
0010
0100
0010
0000
0100
0001
0100
0001
,
1000
0001
1000
0001
1000
0000
0100
1000
0100
1000
0100
0000
0010
0100
0010
0100
,
1000
0001
1000
0001
1000
0000
0010
1000
0010
1000
0010
0000
0100
0000
0001
0000
,
2000
0000
0010
0000
3002
0000
0003
0001
,
0020
0100
0032
0003
,
0200
0000
0001
0000
0320
0000
0030
0010
,
2000
0100
3002
0003
,
1002
0000
0010
0000
2003
0000
3000
1000
,
0020
0100
2030
3000
,
0200
0000
1000
0000
0320
0000
0030
0010
,
0002
0100
2003
3001
;
