#TITLE:Imagine;
#SUBTITLE:;
#ARTIST:Brunch;
#CREDIT:;
#MUSIC:[ROUND 2] - Imagine.ogg;
#SELECTABLE:YES;
#BACKGROUND:[ROUND 2] - Imagine-bg.png;
#BANNER:[ROUND 2] - Imagine.png;
#CDTITLE:[ROUND 2] - Imagine-cdtitle.png;
#DISPLAYBPM:92.000:184.000;
#OFFSET:-1.03767;
#SAMPLESTART:0.000;
#SAMPLELENGTH:0.000;
#BPMS:0=181.726,4=182.152,7=182.129,8=184.568,11=184.544,12=186.952,15=186.928,16=179.753,19=179.742,20=186.179,23=186.155,24=183.932,31=183.92,32=182.614,35=182.579,36=183.638,39=183.627,40=183.814,43=183.791,44=183.814,47=183.791,48=183.873,51=183.861,52=185.352,55=185.316,56=184.403,59=184.379,60=183.72,63=183.685,64=184.261,67=184.249,68=184.002,71=183.979,72=184.026,75=183.99,76=184.002,79=183.967,80=182.614,83=182.602,84=182.799,87=182.788,88=184.758,91=184.746,92=185.615,95=185.591,96=184.002,99=183.99,100=184.379,103=184.367,104=183.955,107=183.943,108=183.955,111=183.932,112=181.543,115=181.532,116=186.48,119=186.444,120=183.65,123=183.638,124=182.88,127=182.857,128=185.042,131=185.019,132=182.29,136=185.771,140=184.876,143=184.841,144=184.273,147=184.249,148=184.32,151=184.296,152=184.32,155=184.285,156=183.241,159=183.229,160=184.924,163=184.912,164=182.741,167=182.706,168=184.544,171=184.521,172=182.695,175=182.66,176=185.233,180=185.735,183=185.711,184=179.495,187=179.473,188=183.206,191=183.194,192=184.214,195=184.19,196=184.841,199=184.829,200=185.459,204=186.613,207=186.577,208=183.183,211=183.171,212=183.299,215=183.264,216=189.163,220=184.073,223=184.061,224=184.261,227=184.226,228=185.316,231=185.292,232=182.129,235=182.117,236=184.026,240=183.697,248=183.545,252=186.71,255=186.674,256=183.885,259=183.861,260=183.428,263=183.404,264=182.544,267=182.533,268=185.448,271=185.412,272=183.136,275=183.113,276=183.008,280=91.6993,283=91.6905,284=184.841,287=184.805,288=181.566,292=185.412,295=185.376,296=183.814,299=183.779,300=185.292,303=185.28,304=184.769,307=184.746,308=184.769,311=184.734,312=183.02,315=183.008,316=182.799,319=182.776,320=183.732,323=183.697,324=182.614,328=185.483,331=185.459,332=185.126,336=187.439,340=178.406,343=178.394,344=188.617,348=179.529,351=179.518,352=185.735,355=185.723,356=184.332,359=184.296,360=186.167,363=186.155,364=181.876,367=181.853,368=188.063,371=188.051,372=185.735,375=185.723;
#STOPS:;

//---------------dance-single - ----------------
#NOTES:
     dance-single:
     :
     Beginner:
     1:
     0.000,0.000,0.000,0.000,0.000:
1000
0000
0000
0000
,
0001
0000
0000
0000
,
0100
0000
0000
0000
,
0001
0000
0000
0000
,
0010
0000
0000
0000
,
1000
0000
0000
0000
,
0100
0000
0000
0000
,
1000
0000
0000
0000
,
1001
0000
0000
0000
,
0000
0000
0010
0000
,
1001
0000
0000
0000
,
0000
0000
0000
0000
,
0100
0000
0000
0000
,
0100
0000
0000
0000
,
0010
0000
0000
0000
,
0010
0000
0000
0000
,
1000
0000
0000
0000
,
0001
0000
0000
0000
,
0001
0000
0000
0000
,
0010
0000
1000
0000
,
0100
0000
0000
0000
,
0010
0000
0000
0000
,
1000
0000
0000
0000
,
0001
0000
0000
0000
,
0010
0000
0000
0000
,
1000
0000
0000
0000
,
0100
0000
0000
0001
,
0000
0000
1000
0000
,
0100
0000
0000
0000
,
0001
0000
0000
0000
,
0010
0000
0000
0000
,
0100
0000
0000
0000
,
0010
0000
0000
0000
,
1000
0000
0000
0000
,
0001
0000
0000
0000
,
0100
0000
0000
0000
,
0010
0000
0000
0000
,
1000
0000
0001
0000
,
0000
0100
0000
0000
,
0010
0000
0000
0000
,
1000
0000
0000
0000
,
0010
0000
0000
0000
,
0100
0000
0000
0000
,
0001
0000
0000
0000
,
1000
0000
0000
0000
,
0100
0000
0000
0000
,
0010
0000
0000
0000
,
0100
0000
0000
0000
,
0010
0000
0000
0000
,
0100
0000
0000
0000
,
0001
0000
0000
0000
,
1000
0000
0000
0000
,
0100
0000
0000
0000
,
0001
0000
0000
0000
,
1000
0000
0010
0000
,
1000
0000
0000
0000
,
0001
0000
0100
0000
,
0001
0000
0000
0000
,
0010
0000
0000
0000
,
0100
0000
0000
0000
,
0001
0000
0000
0000
,
0010
0000
0000
0000
,
0100
0000
0010
0000
,
0100
0000
0000
0000
,
1000
0000
0001
0000
,
1000
0000
0000
0000
,
1000
0000
0000
0000
,
0010
0000
0000
0000
,
0100
0000
0000
0000
,
0001
0000
0000
0000
,
1000
0000
0000
0000
,
0001
0000
0000
0000
,
0100
0000
0000
0000
,
0010
0000
0000
0000
,
1000
0000
0000
0000
,
0001
0000
0000
0000
,
0100
0000
0000
0000
,
0000
0100
0000
0000
,
0010
0000
0000
0000
,
1000
0000
0000
0000
,
0001
0000
0000
0000
,
0100
0000
0000
0000
,
0010
0000
0000
0000
,
1000
0000
0000
0000
,
0001
0000
0000
0000
,
1000
0000
0000
0000
,
0100
0000
0000
0000
,
0010
0000
0000
0000
,
0001
0000
0000
0000
,
1000
0000
0000
0000
,
0001
0000
0000
0000
,
0010
0000
0000
0000
,
0100
0000
0000
0000
,
0001
0000
0000
0000
,
1000
0000
0000
0000
;

//---------------dance-single - ----------------
#NOTES:
     dance-single:
     :
     Easy:
     5:
     0.000,0.000,0.000,0.000,0.000:
1000
1000
0010
1000
,
0001
0000
0100
0020
0000
0000
0030
0000
,
0100
0100
0001
0010
,
0001
0000
1000
0200
0000
0000
0300
0000
,
0010
0010
0001
0010
,
0100
0000
1000
0002
0000
0000
0003
0000
,
0100
0010
0100
0001
,
1000
0100
1000
0000
,
1001
0000
0100
1001
,
0000
0010
0010
0000
,
1001
0000
0100
1001
,
0000
0000
0000
0000
,
0011
1000
0100
1000
,
0001
0100
0000
0000
0010
0000
1000
0000
,
1100
0001
0010
0001
,
1000
0010
0000
0000
0100
0000
0010
0000
,
1001
0100
0010
0100
,
0001
0010
0000
0000
1000
0000
0100
0000
,
0110
0001
1000
0010
,
1000
0000
1000
0002
0000
0000
0003
0000
,
1010
0001
0100
1001
,
1000
0010
0000
0100
0001
0000
1000
0000
,
0011
1000
0100
1001
,
0001
0010
0000
0100
1000
0000
0001
0000
,
1100
0001
0010
1001
,
1000
0010
0000
0100
0001
0000
1000
0000
,
0110
0100
0001
1100
,
0100
0011
0011
1001
,
1100
0000
0001
0000
0100
0000
0010
1000
,
0000
0001
0100
0000
0010
0000
0100
0000
,
0010
1000
0100
0010
,
0001
0000
1000
0100
0000
0010
0000
0002
,
0000
1003
0010
0100
,
0001
0000
1000
0010
0000
0100
0000
0002
,
0000
1000
0003
1000
,
0100
0001
0010
1000
,
0001
0010
0100
1000
,
0001
0010
0000
0010
0000
0010
0000
0100
,
0000
1000
0001
0000
0010
0000
0100
0000
,
1000
0000
0001
0010
0000
0100
0000
2000
,
0000
3001
0100
0010
,
1000
0000
0001
0100
0000
0010
0000
2000
,
0000
3000
0002
0000
,
0023
0000
2030
0000
,
3200
0000
0300
0000
,
0001
0100
0000
0010
0000
1000
0100
0000
,
0010
0000
0010
0000
0001
0000
1000
0100
,
0000
0010
0001
0000
1000
0000
0001
0000
,
0100
0000
0100
0000
0010
0000
0100
0001
,
0000
1000
0010
0000
0100
0000
0001
0000
,
0010
0000
0010
0000
0100
0000
0010
0001
,
0000
1000
0100
0000
0010
0000
0001
0000
,
1000
1000
0010
1000
,
0001
0100
0001
0200
0000
0000
0000
0000
,
0310
1000
0010
1000
,
0001
0010
0100
1000
,
0001
0100
0000
0001
0000
0010
0000
0100
,
0000
0100
0000
1000
0001
0000
0100
0000
,
0010
0000
0010
0000
0010
0000
0010
1000
,
0000
1000
0000
0001
0000
0001
0100
0000
,
0010
0000
1000
0100
0000
0010
0000
0001
,
0000
1100
0000
0011
0000
1010
0000
0000
,
0100
0001
0100
0001
,
1000
0100
0010
0001
,
1000
0010
0000
1000
0000
0100
0000
0010
,
0000
0010
0000
0001
1000
0000
0010
0000
,
1100
0000
0002
0000
0000
2003
0000
0000
,
3002
0000
0000
0023
0000
0000
0230
0000
,
1300
0001
0100
0001
0000
1000
0000
0100
,
0000
0010
0001
0000
1000
0000
0001
0000
,
0110
M000
000M
M000
,
0001
1000
0110
0110
,
0011
0000
1000
0100
0000
0001
0000
0200
,
0000
1300
0010
0100
,
0001
1000
0000
0010
0000
1000
0000
0001
,
0000
0200
0000
0000
0001
0000
0300
0000
,
0001
0100
0000
0010
0000
1000
0000
0100
,
0000
0010
0001
0000
1100
0000
1100
0000
,
0110
0000
0001
0010
0000
1000
0000
0020
,
0000
0031
1000
0010
,
0100
0000
0001
0100
0000
1000
0000
0200
,
0000
0301
0020
0100
,
0032
1000
0203
0010
,
0301
1000
0001
0100
,
0001
1000
0000
0001
0000
1000
0010
0000
,
0110
0000
0110
0000
1000
0000
0001
0010
,
0000
1000
0100
0000
0001
0000
1000
0000
,
0011
0000
0011
0000
0001
0000
1000
0010
,
0000
0100
0001
0000
1000
0000
0100
0000
,
0101
0000
0101
0000
0001
0000
1000
0100
,
0000
0010
0001
0000
0010
0000
0001
0000
,
0110
0000
0110
0000
1000
0000
0010
0100
,
0000
0001
1000
0000
0001
0000
0100
0000
,
0011
0000
1100
0000
0001
0100
0010
1000
,
0000
0000
0000
0000
;

//---------------dance-single - ----------------
#NOTES:
     dance-single:
     :
     Medium:
     7:
     0.000,0.000,0.000,0.000,0.000:
1000
0001
0100
0001
,
1000
0100
0010
0001
0000
0001
1000
0000
,
0001
1000
0010
1000
,
0001
0010
0100
1000
0000
1000
0001
0000
,
0100
0010
1000
0001
,
0010
0100
0010
0100
0000
1000
0001
0000
,
0200
0000
0301
0020
0000
0130
1000
0001
,
0100
0020
0000
2030
0000
3000
0001
0000
,
1000
0100
0000
0000
1000
0000
0001
0010
,
0000
0100
1000
0001
0010
0000
0100
0000
,
1000
0010
0000
0000
1000
0000
0001
0100
,
0000
0000
0000
0000
,
0100
1001
0010
1100
,
0001
0010
0001
0000
1000
0000
1000
0000
,
0010
1001
0100
0011
,
1000
0100
1000
0000
0001
0000
0001
0000
,
1000
0110
0001
1010
,
0100
0001
0100
0000
0010
0000
0010
0000
,
1000
0100
0010
0000
0010
0100
1000
0000
,
0001
0010
0100
2000
0000
0000
3001
0000
,
0100
0000
1010
0000
0001
0000
1000
0001
,
0000
0100
0000
0001
1000
0001
0000
0010
,
0100
0000
1000
0000
0001
0000
0100
0010
,
0000
1000
0000
0001
0010
0001
0000
1000
,
0010
0000
0101
0000
1000
0000
0001
1000
,
0000
0010
0000
1000
0001
1000
0000
0100
,
0010
0000
0001
0000
1000
0000
0010
0100
,
0010
0000
0010
0100
0010
1000
0010
1000
,
0001
0000
0001
0000
0100
0000
0010
1000
,
0000
1000
0100
0000
0011
0000
1001
0000
,
0100
1000
0001
0100
,
0010
0000
1000
0100
0000
0010
0000
0100
,
1000
0001
0100
0010
,
0100
0000
0001
0010
0000
0100
0000
0010
,
0001
1000
0001
0100
,
0010
1000
0000
1000
0000
0001
0000
0100
,
0000
0002
1000
0000
0100
0000
1003
0000
,
0010
0100
0000
0001
0000
0010
0000
0100
,
0000
1000
0001
0000
1000
0000
0010
0000
,
0100
0000
0001
0010
0000
0100
0000
0010
,
0001
1000
0010
0100
,
0010
0000
1000
0100
0000
0010
0000
0100
,
1000
0001
2000
0010
,
3002
0100
0023
1000
,
0032
0100
0100
0103
,
1000
0001
0000
0100
0000
0001
1000
0000
,
0110
0000
0110
0000
0001
0000
1000
0100
,
0000
1000
0010
0000
0100
0000
0001
0000
,
1010
0000
1010
0000
0001
0000
0100
0010
,
0000
0100
0001
0000
1000
0000
0100
0000
,
0011
0000
0011
0000
1000
0000
0001
0010
,
0000
0001
0100
0000
0010
0000
1000
0000
,
0001
0010
0100
0020
0000
0031
1000
0100
,
1000
0002
0000
0203
0000
0000
0300
0000
,
0001
1010
0001
1010
,
0100
0011
0100
0011
,
1000
0010
0000
1000
0000
0001
0000
0100
,
0001
0000
1000
0100
0001
0000
0100
0000
,
1000
0000
0001
0000
1000
0000
0001
0010
,
0000
0001
0100
0001
0000
1000
0100
0000
,
0001
0010
0100
0001
0000
0100
0000
1000
,
0000
0010
0000
0010
0000
0100
0001
0000
,
1000
0101
1000
0101
,
0010
1100
0010
1100
,
0001
0100
0000
0001
0000
1000
0000
0010
,
1000
0000
0001
0010
1000
0000
0010
0000
,
0001
0000
2000
0000
3001
0200
0001
0300
,
0021
0000
0031
0200
0001
0300
1001
0000
,
0100
0010
0000
0001
0000
1000
0000
0100
,
0000
0010
0001
1000
0100
0010
0001
1000
,
0001
0000
0000
0000
M000
0000
0M00
0000
00M0
0000
M000
000M
0000
0M00
0000
00M0
,
0001
1000
0010
0100
,
0010
0000
1000
0100
0000
0010
0000
0100
,
1000
0001
1000
0010
,
0100
0001
0000
0001
0000
1000
0000
0010
,
0000
2000
0001
0000
0010
0000
3001
0000
,
0100
0010
0000
1000
0000
0100
0000
0010
,
0000
0001
1000
0000
0001
0000
0100
0000
,
0010
0000
1000
0100
0000
0010
0000
0100
,
1000
0001
0100
0010
,
0100
0000
0001
0010
0000
0100
0000
0010
,
0001
1000
0002
0100
,
2003
0010
3200
0001
,
2300
0010
0010
3010
,
0001
1000
0000
0010
0000
1000
0001
0000
,
0110
0000
0110
0000
1000
0000
0001
0010
,
0000
0001
0100
0000
0010
0000
1000
0000
,
0001
1000
0010
1000
,
0001
0010
0100
1000
0000
1000
0001
0000
,
1000
0001
0100
0001
,
1000
0100
0010
0001
0000
0001
1000
0000
,
0010
0100
0001
1000
,
0100
0010
0100
0010
0000
0001
1000
0000
,
0001
0000
1000
0000
0010
1000
0100
0001
,
0000
0000
0000
0000
;

//---------------dance-single - ----------------
#NOTES:
     dance-single:
     :
     Hard:
     9:
     0.000,0.000,0.000,0.000,0.000:
1000
0011
0100
1010
,
0001
0010
0100
2000
0000
3001
0100
0001
,
1000
0101
0010
1100
,
0001
0010
0001
0200
0000
0310
0100
0001
,
1000
1100
0001
0011
,
1000
0100
0001
0200
0000
0310
0001
1000
,
0001
0010
0001
1000
0010
1000
0010
0100
,
0001
0010
0001
1000
0100
1000
0100
0000
,
0010
0011
0000
0100
1000
0000
0001
0101
,
0000
0010
1000
0000
1001
0000
0100
0001
,
1000
1100
0000
0001
0100
0000
0010
1001
,
0000
0000
0000
0000
,
1000
0000
0011
0000
1000
0100
0010
0000
,
0001
0100
0000
0010
0100
0010
1000
0001
,
0100
0000
1010
0000
0001
0010
0100
0000
,
1000
0010
0000
0100
0010
1000
0001
0010
,
0100
0000
0011
0000
1000
0010
0100
0000
,
0001
0010
0000
1000
0100
0001
0100
1000
,
0001
0100
0001
1000
0100
0010
1000
0010
,
0001
0100
0001
0020
0000
0031
1000
0000
,
0001
0000
0110
0000
1000
0001
0100
0001
,
0000
1000
0001
1000
0100
1000
0010
0100
,
0001
0000
0110
0000
1000
0010
1000
0100
,
0000
0010
0001
0100
0001
1000
0100
0000
,
1000
0000
0110
0000
0001
0100
0001
1000
,
0000
0001
0010
0001
1000
0100
1000
0010
,
0100
0000
0001
0010
0001
0010
1000
0010
,
0000
0001
0100
1000
0100
1000
0100
0001
,
0010
0000
0001
0000
1100
0000
0010
0100
,
0001
0100
0010
0000
1010
0000
0101
0100
,
0010
0000
1100
0000
0001
0010
0100
0000
,
1010
0000
0001
0010
0001
0100
0001
0000
,
1000
0000
0110
0000
1000
0100
0010
0000
,
0101
0000
1000
0010
1000
0100
1000
0001
,
0100
0011
1000
0101
,
0010
1000
0000
0001
1000
0001
0100
0010
,
1000
0101
0010
1100
,
0001
1000
0001
1000
0010
0100
0001
1000
,
0000
1000
1001
0000
1000
0100
0010
0000
,
0101
0000
1000
0100
1000
0010
1000
0000
,
0001
0000
0110
0000
0001
0010
0100
0000
,
1010
0000
0001
0100
0001
0010
0001
1000
,
0010
0000
1100
0000
0001
1000
0010
0000
,
1000
0000
0100
1000
0001
0000
0011
0000
,
1000
0101
0010
1100
,
0001
0010
0100
1000
0001
0100
0002
0000
,
1003
0100
1000
0100
0010
0000
0001
0100
,
0000
1000
0100
0000
1001
0000
0110
0000
,
0001
0010
0001
0010
0100
0000
1000
0100
,
0000
0001
0100
0000
0110
0000
1001
0000
,
0100
0001
0100
0001
1000
0010
1000
0010
,
0100
0001
0010
2000
0000
3010
0001
1000
,
0001
0100
0001
1000
0100
0010
1000
0010
,
0001
0000
0100
0000
0001
0000
0010
0000
0001
1000
0001
1000
0001
0000
1000
0000
,
0001
1100
0001
0110
,
1000
0100
0010
0100
0001
0100
0010
0000
,
0001
1000
0100
0010
0001
0100
0001
1000
,
0010
0000
1000
0010
0200
0000
0302
0000
,
0013
0100
0010
0100
0010
0100
0010
0002
,
0000
1003
0010
2000
0000
3001
0010
0000
,
0100
1000
0001
0100
0001
1000
0010
0001
,
0010
1000
0001
0010
0100
1000
0001
0000
,
1000
0011
1000
0110
,
0001
0010
0100
0010
1000
0010
0100
0000
,
1000
0001
0010
0100
1000
0010
1000
0001
,
0100
0000
0001
0100
0020
0000
2030
0000
,
3001
0010
0002
0000
1003
0200
1000
0300
,
0012
0000
1003
0100
1000
0010
0001
0000
,
0010
1000
0100
0010
0000
0001
0000
1000
,
0000
0001
0010
0100
0010
0100
1000
0001
,
0110
0000
0000
0000
M000
0000
0M00
0000
00M0
0000
M000
000M
0000
0M00
0000
00M0
,
1000
0000
0101
0000
1000
0010
1000
0000
,
0110
0000
0001
0010
1000
0010
0001
0000
,
1000
0101
0001
0110
,
1000
0001
0010
0100
1000
0000
0100
0010
,
0001
0000
0011
0000
1000
0100
0010
0000
,
0001
0010
0001
0010
1000
0010
0100
0010
,
0000
0001
1001
0000
0100
0001
0100
0000
,
1010
0000
0001
0010
0100
1000
0001
0000
,
1000
0000
0110
0000
0001
0010
0001
0000
,
1010
0000
0001
0010
1000
0010
0001
0000
,
1000
0000
0110
0000
1000
0001
0010
0000
,
0100
0000
0010
0001
1000
0000
0001
0000
,
2001
0010
0100
3010
,
0001
0100
0001
1000
0010
1000
0200
0000
,
0310
0000
0001
0000
1001
0000
1000
0010
,
0000
0100
0001
0000
1010
0000
1100
0000
,
0001
0010
0001
0010
0100
1000
0100
1000
,
0001
0100
0001
2000
0000
3001
0010
0001
,
1000
0100
1000
0100
0010
0001
0010
0001
,
1000
0010
1000
0002
0000
0000
1003
0000
,
0001
0100
1000
0100
0001
0010
0100
0010
,
0001
1000
0100
0002
0000
0103
1000
0010
,
0100
0001
1000
0100
1000
0001
0010
1001
,
0000
0000
0000
0000
;

//---------------dance-double - ----------------
#NOTES:
     dance-double:
     :
     Challenge:
     9:
     0.000,0.000,0.000,0.000,0.000:
10000000
00010000
01000000
00010000
,
00100000
00001000
00010000
00000100
00000000
00000010
00000001
00001000
,
00000001
00001000
00000010
00001000
,
00000100
00010000
00001000
00100000
00000000
01000000
10000000
00010000
,
10000000
00100000
01000000
00010000
,
00100000
00001000
00000100
00000001
00000000
00000010
00000100
00000010
,
00000001
00001000
00000100
00002000
00000000
00003010
00000100
00000010
,
00010000
00002000
00000000
00203000
00000000
00310000
10000000
00000000
,
10000000
01000000
00000000
00000000
10010000
00000000
00001000
00010000
,
00000000
00001000
00000100
00000001
00000010
00001000
00000010
00000001
,
00001000
00000100
00000000
00000000
00011000
00000000
01000000
00000100
,
00000000
00000000
00000000
00000000
,
00011000
01010000
10000000
10010000
,
00010000
00100000
00010000
00000000
01000000
00001000
00010000
00000000
,
00011000
00001100
00000001
00001001
,
00000001
00000010
00000100
00000000
00010000
00001000
00010000
00001000
,
01000000
01100000
00010000
00101000
,
00001000
00000010
00000100
00000000
00000010
00000001
00001000
00000000
,
00000100
00001000
00000100
00000010
00001000
00000010
00001000
00010000
,
00001000
00100000
00010000
20000000
00000000
30010000
01000000
00000000
,
01010000
00000000
10100000
00000000
00001000
00010000
01000000
10000000
,
00000000
00100000
00010000
00001000
00010000
00100000
00000000
01000000
,
00100000
00000000
10000000
00010000
00100000
00001000
00000100
00000001
,
00000000
00000010
00000000
00001000
00010000
00001000
00000000
00000100
,
00000101
00000000
00001010
00000000
00010000
00001000
00000010
00000001
,
00000000
00000100
00001000
00010000
00001000
00000100
00000000
00000010
,
00000100
00000000
00000001
00001000
00000100
00010000
00100000
10000000
,
00000000
01000000
00010000
00001000
00000010
00000001
00001000
00000001
,
00001000
00000000
00001000
00000000
00010100
00000000
00001000
00100000
,
00000000
00100000
00010000
00000000
01000000
00100000
01000000
00100000
,
01000000
00100000
00110000
00011000
,
00010100
00000000
00000100
00000001
00000000
00001000
00000000
00010000
,
00000000
01000000
10000000
00000000
01001000
00000000
00011000
00000000
,
00001010
00000000
00000010
00000001
00000000
00000100
00000000
00001000
,
00000000
01000000
00010000
00000000
00000100
00000000
00000001
00000000
,
00000010
00000100
00000000
00001100
00000000
00000101
00000000
00011000
,
00000000
00002000
00010000
00000000
00100000
00000000
01003000
00000000
,
00100000
01000000
00000000
00011000
00000000
00001100
00000000
00000101
,
00000000
00000001
00001001
00000000
00001100
00000000
00011000
00000000
,
00101000
00000000
00100000
10000000
00000000
00010000
00000000
00001000
,
00000000
00000010
00000001
00000000
00010010
00000000
00011000
00000000
,
01010000
00000000
01000000
10000000
00000000
00100000
00000000
00010000
,
00000000
00000010
00001000
00000000
00021000
00000000
01000000
00030000
,
21000000
00000000
00010000
30000000
00001200
00000000
00000001
00000300
,
00001001
00000000
00000010
00000000
00000001
00000010
00001000
00000000
,
00010000
00100000
00000000
00010000
00000000
00001000
00000100
00000000
,
00000001
00000000
00001000
00000000
00000110
00000000
00010000
00001000
,
00000000
10000000
00100000
00000000
01100000
00000000
01000000
00000000
,
00010000
00000000
10000000
00000000
01100000
00000000
00001000
00010000
,
00000000
00000001
00000100
00000020
00000000
00000000
00000030
00000000
,
00001100
00000000
00001100
00000000
00010000
00001000
00010000
00100000
,
10000000
00010000
01000000
00001000
00000000
00010000
00000100
00000010
,
00000001
00000010
00000100
00002000
00000000
00003100
00010000
00001000
,
01000000
20000000
00000000
30020000
00000000
00000000
00030000
00000000
,
00001000
00010000
00000100
00010000
00001000
00010000
00000100
00001000
,
00000100
00000010
00000001
00001000
00000010
00001000
00000001
00000010
,
00001000
00001000
00010000
00000100
00010000
00100000
10000000
01000000
,
10000000
01000000
00100000
00010000
00020000
00000000
02030000
00000000
,
03001000
00010000
00001000
00010000
00000100
00001000
00000100
00000002
,
00000000
00000003
00000100
00000000
00001000
00000000
02000000
00000000
00000000
00000000
13000000
00000000
00100000
00000000
00010000
00000000
,
00001000
00001000
00100000
00001000
00010000
00000100
00000010
00000001
,
00001000
00000010
00010000
00000010
00020000
00000000
00031000
00000000
,
00010000
00001000
00100000
00001000
00010000
00001000
00100000
00010000
,
00100000
01000000
10000000
00010000
01000000
00010000
10000000
01000000
,
00010000
00010000
00001000
00100000
00001000
00000100
00000001
00000010
,
00000001
00000010
00000100
00001000
00001000
00000001
00000200
00000000
,
00000301
00000010
00002000
00000000
00010000
00000000
00203000
00000000
,
02300000
00000000
13000000
00020000
01000000
00000000
00030010
00000000
,
00000010
00000001
00001000
00000100
00000000
00010000
00000000
01000000
,
00000000
10000000
00010000
00100000
00001000
00010000
00000100
00000010
,
00001001
00000000
00000000
00000000
M0000000
00000000
0M000000
00000000
00M00000
00000000
000M0000
0000M000
00000000
00000M00
00000000
000000M0
,
00000001
10000000
00010010
00011000
,
01010000
00000000
01000000
10000000
00000000
00100000
00000000
00010000
,
00000000
00000010
00001000
00000000
00100000
00000000
10000000
00000000
,
01000000
00100000
00000000
00110000
00000000
10100000
00000000
00011000
,
00000000
00020000
00001000
00000000
00000100
00000000
00030010
00000000
,
00000100
00000010
00000000
00011000
00000000
00110000
00000000
10100000
,
00000000
10000000
10010000
00000000
00110000
00000000
00011000
00000000
,
00010100
00000000
00000100
00000001
00000000
00001000
00000000
00010000
,
00000000
01000000
10000000
00000000
01001000
00000000
00011000
00000000
,
00001010
00000000
00000010
00000001
00000000
00000100
00000000
00001000
,
00000000
01000000
00010000
00000000
00012000
00000000
00000010
00003000
,
00000012
00000000
00001000
00000003
00210000
00000000
10000000
00300000
,
10010000
00000000
01000000
00000000
10000000
01000000
00010000
00000000
,
00001000
00000100
00000000
00001000
00000000
00010000
00100000
00000000
,
10000000
00000000
01000000
00000000
00110000
00000000
00000100
00001000
,
00000000
00000010
00000100
00000001
00001000
00000100
00010000
00000010
,
00001000
00000100
00001000
00000100
00010000
01000000
00010000
00001000
,
00100000
00010000
10000000
00200000
00000000
01300000
00010000
10000000
,
00010000
00100000
00010000
00100000
00001000
00000010
00001000
00010000
,
00000100
00001000
00000001
00000200
00000000
00000300
00000001
00000001
,
00000100
00000010
00000100
00000010
00001000
00000100
00010000
00100000
,
10000000
00010000
00100000
00002000
00000000
00013000
00010000
01000000
,
00010000
00001000
00000010
00000001
00001000
00000100
00010000
00022000
,
00033000
00000000
00000000
00000000
;
