#TITLE:Hamsin;
#SUBTITLE:;
#ARTIST:makou;
#TITLETRANSLIT:;
#SUBTITLETRANSLIT:;
#ARTISTTRANSLIT:;
#CREDIT:;
#BANNER:Hamsin.png;
#BACKGROUND:Hamsin-bg.png;
#LYRICSPATH:;
#CDTITLE:;
#MUSIC:[ROUND 2] - Hamsin.mp3;
#OFFSET:-0.080;
#SAMPLESTART:57.620;
#SAMPLELENGTH:18.020;
#SELECTABLE:YES;
#BPMS:0.000=150.000,61.000=300.000,65.000=150.000;
#STOPS:;
#BGCHANGES:;

//---------------dance-single - ----------------
#NOTES:
     dance-single:
     :
     Hard:
     13:
     1.000,1.000,0.240,0.168,1.000: // measure 1
0000
0000
0000
0000
,  // measure 2
0000
0000
0000
0000
,  // measure 3
0000
0000
0000
0000
,  // measure 4
0000
0000
0000
0000
,  // measure 5
1000
0100
1000
0000
0001
0100
0001
0020
0000
0031
0100
0010
1000
0001
0010
0000
,  // measure 6
0001
0100
0001
0000
1000
0100
1000
0020
0000
1030
0010
0100
0000
0001
1000
0100
,  // measure 7
1000
0001
1000
0001
0100
0010
0200
0000
0000
0300
0000
0000
0010
1000
0010
0100
,  // measure 8
0001
0000
1000
0100
0000
0001
0100
0000
1000
0001
1000
0001
0020
0000
0130
1000
,  // measure 9
0002
0000
0003
0000
0200
0000
0310
1000
0000
0001
1000
0100
1000
0001
1000
0010
,  // measure 10
0100
0001
0010
0000
0001
1000
0100
1000
0001
0100
0001
1000
0010
1000
0001
0010
,  // measure 11
0001
0100
0010
0100
0001
0010
0100
0010
0001
0100
0010
1000
0010
0100
0001
1000
,  // measure 12
0001
0100
0010
1000
0010
0100
0001
1000
0001
0010
0100
1000
0100
0010
0001
1000
,  // measure 13
0001
0100
0001
0100
0010
0000
0100
0001
0000
1000
0100
1000
0010
1000
0001
1000
,  // measure 14
0001
0000
0000
0100
0000
0000
0010
0000
0100
0000
0010
0000
0100
0000
0000
0001
0000
0000
0010
0000
0000
0100
0000
0000
1000
0000
0000
0010
0000
0000
1000
0000
0000
0001
0000
0000
0100
0000
0000
0001
0000
0000
0010
0000
0000
0100
0000
0000
,  // measure 15
1000
0001
1000
0001
0010
0100
0020
0000
0030
0000
0001
0000
1000
0100
0010
0001
,  // measure 16
1000
1001
0002
0203
0302
0203
0320
2030
,  // measure 17
3020
0000
2030
0000
3001
0100
0010
1000
0002
0000
0003
0000
0200
0000
0301
1000
,  // measure 18
0000
1000
0001
0010
0001
1000
0001
0100
0010
1000
0100
0000
1000
0001
0010
0001
,  // measure 19
1000
0010
1000
0001
0100
0001
1000
0100
1000
0010
0100
0010
1000
0100
0010
0100
,  // measure 20
1000
0010
0100
0001
0100
0010
1000
0001
1000
0010
0100
0001
0100
0010
1000
0001
,  // measure 21
1000
0100
0010
0001
0010
0100
1000
0001
2000
0000
3000
0000
0001
0100
0010
0100
,  // measure 22
0000
0001
0010
0100
0010
0001
1000
0100
0000
1000
0001
0100
0000
0001
1000
0010
,  // measure 23
1000
0100
0010
0001
1000
0010
0100
0001
1000
0010
0100
0010
0100
0000
0001
1000
,  // measure 24
0000
0001
0010
0100
1000
0100
0010
0001
1000
0010
0100
0010
1000
0000
0100
0010
,  // measure 25
0001
0100
0010
1000
0010
0100
0001
1000
0002
0000
0003
0000
1000
0010
0100
0010
,  // measure 26
0000
1000
0100
0010
0100
1000
0001
0010
0000
0001
1000
0010
0000
1000
0001
0100
,  // measure 27
0001
0010
0100
1000
0001
0100
0010
1000
0001
0100
0010
0100
0010
0000
1000
0001
,  // measure 28
0000
1000
0100
0010
0001
0010
0100
1000
0001
0100
0010
0100
0001
0000
0010
0100
,  // measure 29
1000
0010
0100
0001
0100
0010
1000
0001
0100
0000
0000
0000
0010
0000
1000
0000
,  // measure 30
1001
0000
0000
0000
1000
0000
0100
0000
0010
0000
0001
1000
0000
0001
1000
0000
,  // measure 31
1001
0000
0001
0100
0010
0000
0010
1000
,  // measure 32
1001
0000
0000
0000
1000
0000
0100
0000
0010
0000
0001
0100
0000
0010
1000
0000
,  // measure 33
1001
0000
1000
0100
0010
0001
0010
0100
1000
0000
0000
0000
0001
0000
0100
0000
,  // measure 34
0110
0000
0000
0000
0010
0000
1000
0000
0001
0000
0010
0100
0000
1000
0001
0000
,  // measure 35
1001
0000
0001
0100
0010
0000
0010
1000
,  // measure 36
1100
0000
0000
0000
0100
0000
0010
0000
0001
0000
1000
0100
0000
1000
0100
0000
,  // measure 37
0010
0000
0001
0000
0010
0000
0100
0000
0000
1000
0000
0000
0001
0000
0000
0100
0000
0000
0010
0000
0000
1000
0000
0000
0001
0000
0000
0100
0000
0000
0001
0000
0000
0100
0000
0000
0010
0000
0000
0100
0000
0000
0010
0000
0000
0100
0000
0000
,  // measure 38
0010
1000
0010
1000
0100
1000
0100
1000
0100
0010
0100
0010
0001
0010
0001
0010
,  // measure 39
0001
1000
0001
1000
0001
0100
0001
0100
0010
0100
0010
0100
0010
1000
0010
1000
,  // measure 40
0100
1000
0100
1000
0001
1000
0001
1000
0001
0010
0001
0010
0001
0100
0001
0100
,  // measure 41
0010
0100
0010
0100
0010
1000
0010
0000
1000
0100
1000
0100
0010
0100
0010
0100
,  // measure 42
0010
0001
0010
0001
0100
0001
0100
0001
0100
0010
0100
0010
1000
0010
1000
0010
,  // measure 43
1000
0100
1000
0100
1000
0001
1000
0001
0010
0001
0010
0001
0100
0001
0100
0001
,  // measure 44
0100
0010
0100
0010
1000
0010
1000
0010
1000
0001
1000
0001
0100
0001
0100
0001
,  // measure 45
0010
0001
0010
0001
0010
0100
0010
0000
0001
0010
0100
1000
0001
0010
0100
1000
,  // measure 46
0001
0100
0010
1000
0001
0100
0010
1000
0001
0010
0100
1000
0001
0100
0010
1000
,  // measure 47
0001
0010
0100
1000
0001
0100
0010
1000
0001
0100
0010
1000
0010
0100
0001
0010
,  // measure 48
0100
1000
0100
0010
0001
1000
0010
1000
0001
0100
0010
1000
0100
1000
0001
0010
,  // measure 49
0001
0100
0010
1000
0100
0010
0001
0000
1000
0100
0010
0001
1000
0100
0010
0001
,  // measure 50
1000
0010
0100
0001
1000
0010
0100
0001
1000
0100
0010
0001
1000
0010
0100
0001
,  // measure 51
1000
0100
0010
0001
1000
0010
0100
0001
1000
0010
0100
0001
0100
0010
1000
0100
,  // measure 52
0010
0001
0010
0100
1000
0001
0100
0001
1000
0010
0100
0001
0010
0001
1000
0100
,  // measure 53
1000
0000
0000
0010
0000
0000
0100
0000
0000
0001
0000
0000
0010
0000
0000
0100
0000
0000
1000
0000
0000
0001
0000
0000
1000
0000
0000
0000
0000
0000
0000
0000
0100
0000
0000
0000
0001
0000
0000
0000
0000
0000
0000
0000
0100
0000
0000
0000
,  // measure 54
0000
1100
0000
1000
0010
0001
0010
0000
0100
0001
0000
0010
,  // measure 55
0000
0100
1000
0010
0100
0000
0001
0000
0010
1000
0000
0010
,  // measure 56
0000
0011
0000
0001
0000
0100
0010
1000
0010
0100
0000
0001
,  // measure 57
1000
0000
0000
0100
0000
0000
0010
0000
0000
0001
0000
0000
1000
0000
0000
0010
0000
0000
0100
0000
0000
0001
0000
0000
1000
0000
0000
0000
0000
0000
0000
0000
0010
0000
0000
0000
0001
0000
0000
0000
0000
0000
0000
0000
0010
0000
0000
0000
,  // measure 58
0000
1000
0100
0010
0001
0010
0100
0000
1000
0100
0000
0001
,  // measure 59
0100
1000
0010
0100
0001
0000
1000
0000
0100
0001
0100
1000
,  // measure 60
0000
0100
0000
0010
0000
0001
1000
0010
0100
0001
0100
0010
,  // measure 61
2000
0000
0000
0000
3001
0000
0100
0000
0010
0000
1000
0000
1100
0000
0100
0010
,  // measure 62
0100
0000
1000
0000
1001
0000
0000
0000
0001
0000
0100
0000
0110
0000
0100
0001
,  // measure 63
0100
0000
1001
0000
0010
0000
1001
0000
1000
0000
0100
0000
0110
0000
0100
1000
,  // measure 64
0100
0000
1000
0000
1010
0000
0000
0000
0010
0000
0100
0000
0101
0000
0001
0010
,  // measure 65
0001
0000
1001
0000
0100
0000
1001
0000
0100
0000
0001
0000
0011
0000
0010
0100
,  // measure 66
0010
0000
0001
0000
1001
0000
0000
0000
1000
0000
0010
0000
0110
0000
0010
1000
,  // measure 67
0010
0000
1001
0000
0100
0000
1001
0000
0001
0000
0010
0000
0110
0000
0010
0001
,  // measure 68
0010
0000
0001
0000
0101
0000
0000
0000
0100
0000
0010
0000
1010
0000
1000
0100
,  // measure 69
1000
0000
1001
0000
0010
0000
1001
0000
1000
0010
0100
0001
1000
0010
0100
0001
,  // measure 70
1000
0100
0010
0001
1000
0100
0010
0001
1000
0010
0100
0001
1000
0100
0010
0001
,  // measure 71
1000
0010
0100
0001
1000
0100
0010
0001
1000
0010
0100
0001
0100
0010
1000
0001
,  // measure 72
1000
0100
0010
0001
0010
0100
1000
0001
1000
0010
0001
0010
0100
0001
1000
0001
,  // measure 73
1000
0100
0001
0100
0010
0100
1000
0001
1000
0100
0010
0001
0010
0100
1000
0001
,  // measure 74
1000
0010
0100
0001
0100
0010
1000
0001
1000
0100
0001
0100
0010
0100
1000
0001
,  // measure 75
1000
0010
0001
0010
0100
0010
0100
0001
1000
0100
0001
0100
1000
0010
0001
0010
,  // measure 76
1000
0100
0001
0100
1000
0010
0001
0010
1000
0100
0010
0001
0010
0100
1000
0010
,  // measure 77
0100
0001
0100
0010
1000
0010
1000
0100
1000
0001
0010
0001
2000
0000
0000
0000
0000
0000
0000
0000
0000
0000
0000
0000
,  // measure 78
0000
0000
3000
0000
;

//---------------dance-single - ----------------
#NOTES:
     dance-single:
     :
     Easy:
     5:
     0.336,0.336,0.024,0.000,0.000:
0000
0000
0000
0000
,
0000
0000
0000
0000
,
0000
0000
0000
0000
,
0000
0000
0000
0000
,
1000
0100
0010
0001
,
0010
0100
1000
0001
,
1000
0010
0100
0001
,
0100
0010
1000
0001
,
1000
0100
0001
0100
,
1000
0001
1000
1000
,
0001
0010
1000
0010
,
0001
1000
0001
0001
,
1000
0010
0100
1000
,
0100
0010
0100
1000
,
0100
0010
0001
0010
,
0100
1000
1000
0001
,
0001
1001
0101
0100
,
0010
1000
0010
0100
,
0001
0010
0100
1000
,
0100
0001
0100
0010
,
0001
0100
0010
1000
,
0001
0010
1000
0010
,
0001
0100
1000
0100
,
0010
0100
1000
0100
,
0010
0001
0100
0010
,
1000
0001
0010
0001
,
1000
0100
1000
0010
,
0001
0100
0010
1000
,
0010
0001
0100
0010
,
1000
0010
0100
0001
,
0010
1000
0010
0001
,
0100
0010
1000
0100
,
0001
0100
0010
0001
,
0100
0010
1000
0100
,
0010
0001
1000
0100
,
1000
0010
0100
0001
,
0010
0100
1000
0010
,
0001
0010
0100
0001
,
0010
1000
0010
0100
,
1000
0001
0010
0001
,
0100
0010
1000
0100
,
0010
0001
0100
1000
,
0010
0100
0001
0100
,
0010
1000
0100
0001
,
0100
0010
0001
0100
,
0010
1000
0100
1000
,
0110
1000
0100
0010
,
1000
0100
0001
0100
,
0010
0001
0100
0010
,
1000
0001
0010
0001
,
1000
0100
0010
0001
,
0100
0010
1000
0001
,
0010
0001
1000
0100
,
1000
0010
0100
1000
,
0100
0010
0100
1000
,
0100
0010
0001
0010
,
0100
1000
0001
0100
,
0010
0001
0010
0100
,
0001
1000
0100
0010
,
0001
1000
0010
0100
,
1000
0100
0010
0001
,
0100
0010
1000
0100
,
0001
0100
0010
0001
,
0100
0010
1000
0001
,
1000
0001
1000
0010
,
0001
0100
0010
1000
,
0100
0001
0100
0010
,
0001
0010
0100
1000
,
0010
0100
0001
1000
,
0010
1000
0100
0010
,
0001
0010
0100
1000
,
0010
0100
0001
0010
,
0001
0100
0010
1000
,
0100
0001
0100
1000
,
0010
0001
0010
1000
,
0100
0010
0001
0010
,
0100
1000
0001
0000
;

//---------------dance-single - ----------------
#NOTES:
     dance-single:
     :
     Medium:
     8:
     0.594,0.558,0.152,0.024,0.164:
0000
0000
0000
0000
,
0000
0000
0000
0000
,
0000
0000
0000
0000
,
0000
0000
0000
0000
,
1000
0000
0001
0000
0100
0000
0000
0001
0000
0000
1000
0000
0100
0000
0000
0000
,
1000
0000
0001
0000
0010
0000
0000
0001
0000
0000
1000
0000
0010
0000
0000
0000
,
1000
0010
0100
0002
0000
1000
1003
0000
,
0001
0010
0100
1000
0100
0010
0001
1000
,
1001
0000
0000
0000
0101
0000
0000
0100
0000
0000
0010
0000
1000
0000
0000
0000
,
0001
0000
0010
0000
0100
0000
0000
0010
0000
0000
0001
0000
1000
0000
0000
0000
,
0100
1000
0010
0100
0001
0010
0100
1000
,
0010
0001
0100
0010
0001
0100
0010
1000
,
1001
0000
0001
0000
0100
0000
0000
0010
0000
0000
1000
0000
0001
0000
0001
0000
,
1000
0000
0100
0000
0010
0000
0000
0001
0000
0000
1000
0000
0100
0000
0100
0000
,
1000
0010
0001
0010
1000
0100
0001
0100
,
1000
0001
1000
0010
1000
0010
1000
0001
,
1000
0000
0001
0000
0200
0000
0301
0000
1001
0000
0000
0000
0101
0000
0000
0100
,
0000
0000
0010
0000
1000
0000
0000
0000
0001
0000
1000
0000
0100
0000
0000
1000
,
0000
0010
0000
0000
1000
0000
0001
0000
0100
0000
0010
0000
1000
0000
0000
0000
,
0001
0010
0100
0000
1000
0100
0001
0100
,
0010
0000
1000
0000
0001
0000
0100
0000
0010
0000
1000
0000
0100
0000
0000
1000
,
0000
0000
0010
0000
0100
0000
0000
0001
0000
0000
0010
0000
0100
0000
0000
1000
,
0000
0000
0001
0000
0010
0000
0010
0000
0001
0000
0100
0000
0010
0000
0000
1000
,
0000
0000
0010
0000
0100
0000
0000
0001
0000
0000
0010
0000
0100
0000
0000
1000
,
0000
0000
0001
0000
0100
0000
0100
0000
0010
0000
1000
0000
0100
0000
0000
1000
,
0000
0000
0010
0000
0100
0000
0000
0001
0000
0000
0010
0000
0100
0000
0000
1000
,
0000
0000
0001
0000
0010
0000
0010
0000
0001
0000
0100
0000
0010
0000
0000
1000
,
0000
0000
0010
0000
0100
0000
0000
0001
0000
0000
0010
0000
0100
0000
0000
1000
,
0000
0000
0001
0000
0100
0000
0100
0000
0010
0000
1000
0000
0100
0000
0000
1000
,
0000
0000
0010
0000
0100
0000
0000
0001
0000
0000
0010
0000
0100
0000
0000
1000
,
0000
0000
0001
0000
0010
0000
0010
0000
0001
0000
0100
0000
0010
0000
0000
1000
,
0000
0000
0010
0000
0100
0000
0000
0001
0000
0000
0010
0000
0100
0000
0000
1000
,
0000
0000
0001
0000
0100
0000
0100
0000
0010
0000
1000
0000
0100
0000
0000
1000
,
0000
0000
0010
0000
0100
0000
0000
0001
0000
0000
0010
0000
0100
0000
0000
1000
,
0000
0000
0001
0000
0010
0000
0010
0000
0001
0000
0100
0000
0010
0000
0000
1000
,
0000
0000
0010
0000
0100
0000
0000
0001
0000
0000
0010
0000
0100
0000
0000
1000
,
0000
0001
0100
0100
0001
0010
0001
0010
,
0001
0010
0001
0010
0100
0010
0100
0010
,
0100
0010
0100
0010
0100
1000
0100
1000
,
0100
1000
0100
1000
0010
1000
0010
1000
,
0010
1000
0010
1000
0001
1000
0001
1000
,
0001
1000
0001
1000
0100
1000
0100
1000
,
0100
1000
0100
1000
0100
0010
0100
0010
,
0100
0010
0100
0010
0001
0010
0001
0010
,
0001
0010
0001
0010
0001
1000
0001
1000
,
0001
1000
0001
1000
0010
1000
0010
1000
,
0010
1000
0010
1000
0010
0100
0010
0100
,
0010
0100
0010
0100
0001
0100
0001
0100
,
0001
0100
0001
0100
0001
0010
0001
0010
,
0001
0010
0001
0010
0100
0010
0100
0010
,
0100
0010
0100
0010
0100
1000
0100
1000
,
0100
1000
0100
1000
0001
1000
0001
1000
,
0001
1000
0001
1000
0001
0000
0101
0000
,
1000
1100
0001
0011
,
1000
0000
1000
0010
0000
0010
0100
0000
0000
0101
0000
0000
,
0010
1100
0010
1001
,
1000
0000
0000
1000
0100
0000
0000
0100
0010
0000
0000
0000
0101
0000
0000
0000
,
0010
1100
0010
1001
,
1000
0000
1000
0010
0000
0010
0100
0000
0000
0011
0000
0000
,
0100
1010
0100
1001
,
0110
0000
1001
0000
1000
0100
1000
0000
,
0100
0010
0100
0000
0010
0001
0010
0000
,
0001
0100
0001
0000
0100
0010
0100
0000
,
0010
1000
0010
0000
1000
0001
1000
0000
,
0001
0100
0001
0000
0100
0010
1000
0000
,
0010
0100
0001
0000
1000
0100
0010
0000
,
0001
0010
0100
0000
1000
0001
0010
0000
,
0001
1000
0010
0000
1000
0001
0100
0000
,
0001
1000
0100
0000
1000
0100
0010
0001
,
1000
0100
0010
0001
1000
0010
0100
0001
,
1000
0010
0100
0001
1000
0100
0001
0100
,
1000
0100
0001
0100
1000
0010
0001
0010
,
1000
0010
0001
0010
1000
0010
0100
0001
,
1000
0100
0010
0001
1000
0010
0100
0001
,
1000
0100
0010
0001
1000
0100
0001
0100
,
1000
0010
0001
0010
1000
0010
0100
0001
,
0100
0000
0010
0000
1000
0001
1000
0001
0020
0000
0000
0000
0000
0000
0000
0000
,
0000
0000
0030
0000
;
