#TITLE:From Romania;
#SUBTITLE:;
#ARTIST:Quba;
#TITLETRANSLIT:;
#SUBTITLETRANSLIT:;
#ARTISTTRANSLIT:;
#GENRE:Dubstep;
#CREDIT:;
#MENUCOLOR:#b63030;
#METERTYPE:DDR;
#BANNER:[ROUND 2] - From Romania.png;
#BACKGROUND:[ROUND 2] - From Romania-bg.png;
#LYRICSPATH:;
#CDTITLE:cdtitle.png;
#MUSIC:[ROUND 2] - From Romania.mp3;
#OFFSET:-0.027;
#SAMPLESTART:0.020;
#SAMPLELENGTH:11.040;
#SELECTABLE:YES;
#LISTSORT:;
#DISPLAYBPM:87.000:348.000;
#BPMS:0.000=174.000,124.000=348.000,125.000=696.000,133.000=348.000,134.000=174.000,137.500=348.000,139.000=174.000,139.500=348.000,141.000=174.000,141.500=348.000,143.000=87.000,144.000=174.000,144.500=348.000,148.000=86.980,148.500=174.000,149.500=87.000,150.500=174.000,152.500=87.000,154.000=348.000,156.000=174.000,158.000=348.000,159.500=174.000,166.500=348.000,168.000=174.000,168.500=348.000,170.000=174.000,170.500=348.000,172.000=87.000,173.000=174.000,177.000=87.000,177.500=174.000,178.500=87.000,180.000=174.000,184.000=1392.000,186.000=696.000,187.000=348.000,188.000=174.000,230.000=87.000,232.000=174.000,234.000=348.000,238.000=174.000,240.000=348.000,242.000=174.000,243.000=696.000,245.000=174.000,245.500=696.000,246.500=348.000,248.000=174.000,250.000=87.000,252.000=174.000,254.000=348.000,258.000=174.000,262.000=696.002,264.000=348.000,265.000=174.000,267.000=87.000,269.000=174.000,271.000=348.000,275.000=174.000,277.000=348.000,277.500=696.002,279.500=348.000,280.000=174.000,281.000=696.002,283.000=174.000,283.500=348.000,284.500=696.002,285.500=348.000,286.000=87.000,287.000=174.000,289.000=87.000,290.000=174.000,292.000=348.000,296.000=174.000;
#STOPS:137.500=0.086
,138.000=0.086
,138.500=0.086
,139.500=0.086
,140.000=0.087
,140.500=0.086
,141.500=0.086
,142.000=0.086
,142.500=0.086
,144.500=0.087
,145.000=0.086
,145.500=0.086
,146.000=0.086
,146.500=0.086
,147.000=0.087
,147.500=0.086
,158.000=0.086
,158.500=0.172
,166.500=0.086
,167.000=0.086
,167.500=0.087
,168.500=0.086
,169.000=0.086
,169.500=0.086
,170.500=0.086
,171.000=0.087
,171.500=0.086
,259.500=0.172
,260.000=0.173
,297.875=1.379
;
#BGCHANGES:;
#ATTACKS:;

//---------------dance-single - ----------------
#NOTES:
     dance-single:
     :
     Challenge:
     10:
     0.748,0.912,0.617,0.774,0.289:
0000
0000
0000
0000
,
0000
0000
0000
0000
,
0000
0000
0000
0000
,
0000
0000
0000
0000
,
1000
0110
0000
0001
,
0110
1000
0000
1000
,
0110
0001
0000
0001
,
0110
1000
0000
1000
,
0110
0000
1000
0000
0000
0001
0100
0001
,
0010
0000
0100
0000
0000
1000
0010
0000
,
0110
0000
0001
0000
0000
1000
0010
0100
,
0010
1000
0000
0110
,
0001
0000
0110
0000
0000
0001
1000
0001
,
0000
0100
0010
0000
1001
0000
0010
0000
,
1001
0010
0110
0100
,
0101
0000
1010
0000
0001
0010
0100
0000
,
2100
0000
3010
0000
0000
0001
0100
0001
,
0010
0100
1000
0010
0100
0000
0001
0000
,
1000
0000
1010
0000
0000
1000
0100
0010
,
0001
1000
0100
1000
0001
0000
0100
0000
,
0110
0000
0010
0000
0000
0000
0100
0001
,
0000
1000
0100
0000
1001
0000
0100
0001
,
0010
0010
1100
0010
,
0101
0010
1001
0010
,
0110
1000
0110
0001
,
0110
1000
0110
0001
,
0110
1000
0110
0001
,
0110
0000
1000
0000
0110
0000
0001
1000
,
0001
0100
0001
0100
0010
1000
0010
1000
,
0100
0000
0010
0000
0100
0000
0010
0000
0001
0000
1000
0000
0001
0000
1000
0010
,
1000
0100
1000
0100
0010
0001
0010
0001
1000
0010
1000
0010
0100
0001
0100
0001
,
0010
0000
0000
0000
,
0000
0000
0000
0000
,
0000
0000
0000
0000
0000
0000
0000
0000
0000
0001
0010
0100
,
0010
0000
0001
0000
0010
0000
0100
0000
0000
1000
0000
0000
1000
0000
0000
1000
0000
0000
0010
0000
0000
0001
0000
0000
,
0001
0001
0010
1000
1000
1000
0200
0320
,
0034
1003
1000
1000
0001
0001
0100
0100
,
0020
0000
0000
0000
1030
0000
0100
0000
1000
0000
0000
0000
0200
0000
0000
0000
0310
0100
0010
0000
0004
0000
0000
0000
0103
0000
0000
0000
0000
0000
0000
0000
,
0001
0200
0320
2030
3002
0000
0000
0000
,
0013
0100
1000
0100
0020
0001
0000
0130
,
1000
0000
0010
0000
0100
0000
0001
0000
0000
0000
0000
0000
0110
0000
0000
0000
0000
0000
1001
0000
0000
0010
0000
0000
,
0001
0000
0001
0000
0100
0000
0010
0000
0010
0000
1000
0000
0100
0000
0000
0010
0000
0000
0010
0000
0000
0010
0000
0000
,
0001
0100
0100
0100
0001
0010
0010
0010
,
0200
2300
3040
1030
1000
0100
0100
1000
,
1000
0000
0000
0000
0010
0000
0000
0000
0200
0000
0000
0000
0310
0000
1000
0000
0010
0000
0000
0000
2000
0000
0000
0000
3001
0010
0100
0000
0020
0000
0000
0000
,
0034
0003
1001
0000
0101
0000
1001
0000
,
2100
0000
0000
0000
,
3001
0000
0001
0000
1000
0000
0010
0100
0010
0000
0100
0001
0010
0000
0100
0000
,
2100
0000
3200
0000
0310
0000
0011
0000
0000
0001
0000
0000
,
1000
0100
0000
0100
1000
0000
0110
0000
,
1001
0100
0000
0100
0001
0000
0110
0000
,
1001
0100
0000
0100
1000
0000
1001
0000
,
0001
0100
1000
0100
0001
0010
0100
0000
,
1100
0001
1100
0001
,
1100
0001
1100
0001
,
1100
0001
1100
0001
1100
0001
1100
0001
,
1000
0100
0010
0001
1000
0100
0010
0001
2000
0000
0000
0000
3002
0000
0000
0000
,
0103
0010
0100
0001
1000
0001
0020
0000
0000
0230
0000
0000
,
2300
0000
0000
0000
0000
0000
0000
0000
0000
0000
0000
0000
0000
0000
0000
0000
0000
0000
0000
0000
0000
0000
0000
0000
0000
0000
0000
0000
0000
0000
0000
0000
0001
0000
0000
0000
0000
0000
0000
0000
0000
0000
0000
0000
0000
0000
0000
0000
0000
0000
0000
0000
0000
0000
0000
0000
0000
0000
0000
0000
0000
0000
0000
0000
0001
0000
0000
0000
0000
0000
0000
0000
0000
0000
0000
0000
0000
0000
0000
0000
0000
0000
0000
0000
0000
0000
0000
0000
0000
0000
0000
0000
0000
0000
0000
0000
3002
0000
0000
0003
0000
0000
0000
0000
0000
0000
0000
0000
0000
0000
0000
0000
0000
0000
0000
0000
0000
0000
0000
0000
0000
0000
0000
0000
0000
0000
0000
0000
0000
0000
0000
0000
0000
0000
0000
0000
0000
0000
0000
0000
0000
0000
0000
0000
0002
0000
0000
0003
0000
0000
0000
0000
0000
0000
0000
0000
0000
0000
0000
0000
0000
0000
0000
0000
0000
0000
0000
0000
0200
0000
0000
0300
0000
0000
0000
0000
0000
0000
0000
0000
0000
0000
0000
0000
0000
0000
0000
0000
0000
0000
0000
0000
,
0002
0003
0000
0000
0000
0000
0000
0000
0000
0000
0000
0000
0000
0000
0000
0000
0020
0030
0000
0000
0000
0000
0000
0000
0000
0000
0000
0000
0000
0000
0000
0000
0044
0033
0000
0000
0000
0000
0000
0000
0000
0000
0000
0000
0000
0000
0000
0000
1001
0000
0000
0000
0000
0000
0000
0000
0010
0000
0000
0000
0000
0000
0000
0000
,
2002
0000
3003
0220
,
0000
0000
0330
2002
0000
0000
0000
3003
,
0100
0000
0000
0000
0001
0000
0000
0000
0100
0000
0000
0000
0010
0000
0000
0000
1000
0000
0000
0000
0010
0000
0000
0000
0200
0000
0000
0000
0000
0000
0000
0000
0000
0301
0000
0000
0020
0000
0000
0000
0000
0000
0100
0000
0000
0000
0000
0000
,
0032
0000
0000
0000
0000
0000
0000
0000
0000
0000
0000
0000
0000
0000
0000
0000
0000
0000
0000
0000
0000
0000
0000
0000
0000
0000
0000
0000
0000
0000
0000
0000
1000
0000
0000
0000
0000
0000
0000
0000
0000
0000
0000
0000
0000
0000
0000
0000
0000
0000
0000
0000
0000
0000
0000
0000
0000
0000
0000
0000
0000
0000
0000
0000
1000
0000
0000
0000
0000
0000
0000
0000
0000
0000
0000
0000
0000
0000
0000
0000
0000
0000
0000
0000
0000
0000
0000
0000
0000
0000
0000
0000
0000
0000
0000
0000
2003
0000
0000
3000
0000
0000
0000
0000
0000
0000
0000
0000
0000
0000
0000
0000
0000
0000
0000
0000
0000
0000
0000
0000
0000
0000
0000
0000
0000
0000
0000
0000
0000
0000
0000
0000
0000
0000
0000
0000
0000
0000
0000
0000
0000
0000
0000
0000
0200
0000
0000
0300
0000
0000
0000
0000
0000
0000
0000
0000
0000
0000
0000
0000
0000
0000
0000
0000
0000
0000
0000
0000
0020
0000
0000
0030
0000
0000
0000
0000
0000
0000
0000
0000
0000
0000
0000
0000
0000
0000
0000
0000
0000
0000
0000
0000
,
0200
0300
0000
0000
0000
0000
0000
0000
0000
0000
0000
0000
0000
0000
0000
0000
2000
3000
0000
0000
0000
0000
0000
0000
0000
0000
0000
0000
0000
0000
0000
0000
0440
0330
0000
0000
0000
0000
0000
0000
0000
0000
0000
0000
0000
0000
0000
0000
0001
0000
0000
0000
0000
0000
0000
0000
0100
0000
0000
0000
0000
0000
0000
0000
,
0101
1010
0100
0000
2002
0000
0000
0000
,
3003
0000
0000
0000
0000
0000
0000
0000
0000
0000
0000
0000
1000
0000
0000
0000
0100
0000
0000
0000
0001
0000
0000
0000
0100
0000
0000
0000
1000
0000
0000
0000
0010
0000
0000
0000
0002
0000
0000
0010
0000
0000
0000
0000
0000
0000
0000
0000
,
0023
0000
0000
0000
0000
0000
0000
0000
0000
0000
0000
0000
1000
0000
0000
0000
0000
0000
0000
0000
0000
0000
0000
0000
0000
0000
0000
0000
0000
0000
0000
0000
0000
0000
0000
0000
0000
0000
0000
0000
0000
0000
0000
0000
0000
0000
0000
0000
2030
0000
0000
0000
0000
0000
0000
0000
0000
0000
0000
0000
0000
0000
0000
0000
0000
0000
0000
0000
0000
0000
0000
0000
0000
0000
0000
0000
0000
0000
0000
0000
0100
0000
0000
0000
0000
0000
0000
0000
0000
0000
0000
0000
0000
0000
0000
0000
0000
0000
0000
0000
0000
0000
0000
0000
0000
0000
0000
0000
0000
0000
0000
0000
0001
0000
0000
0000
0000
0000
0000
0000
0000
0000
0000
0000
0000
0000
0000
0000
0000
0000
0000
0000
0000
0000
0000
0000
0000
0000
0000
0000
0000
0000
0000
0000
3020
0000
0000
0030
0000
0000
0000
0000
0000
0000
0000
0000
0000
0000
0000
0000
0000
0000
0000
0000
0000
0000
0000
0000
0000
0000
0000
0000
0000
0000
0000
0000
0000
0000
0000
0000
0000
0000
0000
0000
0000
0000
0000
0000
0000
0000
0000
0000
,
0200
0300
0000
0000
0000
0000
0000
0000
0002
0003
0000
0000
0000
0000
0000
0000
0020
0030
0000
0000
0000
0000
0000
0000
0000
0000
0000
0000
0000
0000
0000
0000
0200
0300
0000
0000
0000
0000
0000
0000
0000
0000
0000
0000
0000
0000
0000
0000
4400
3300
0000
0000
0000
0000
0000
0000
0000
0000
0000
0000
0000
0000
0000
0000
,
0100
0010
0022
0000
0000
0033
0000
0000
,
0000
0000
2200
0000
0000
3300
0000
2020
,
0000
0000
0000
0000
0000
0000
0000
0000
0000
3030
0000
0000
0002
0000
0000
0000
0000
0000
1003
0000
0010
0000
1000
0000
,
0100
0000
0000
0000
0100
0000
0020
0000
0000
0001
0000
0000
0130
0000
0000
0000
1000
0000
0000
0000
0001
0000
0000
0000
,
2000
3000
0000
0000
0000
0000
0000
0000
0002
0003
0000
0000
0000
0000
0000
0000
0200
0300
0000
0000
0000
0000
0000
0000
0020
0030
0000
0000
0000
0000
0000
0000
0200
0300
0000
0000
0000
0000
0000
0000
0002
0003
0000
0000
0000
0000
0000
0000
2000
3000
0000
0000
0000
0000
0000
0000
0002
0003
0000
0000
0000
0000
0000
0000
,
0040
0030
0000
0000
0000
0000
0000
0000
0000
0000
0000
0000
0000
0000
0000
0000
0100
0000
0000
0000
0000
0000
0000
0000
0010
0000
0000
0000
0000
0000
0000
0000
0110
0000
0000
0000
0000
0000
0000
0000
0000
0000
0000
0000
0000
0000
0000
0000
0000
0000
0000
0000
0000
0000
0000
0000
0000
0000
0000
0000
0000
0000
0000
0000
;

//---------------dance-single - ----------------
#NOTES:
     dance-single:
     :
     Hard:
     8:
     0.576,0.730,0.215,0.646,0.108:
0000
0000
0000
0000
,
0000
0000
0000
0000
,
0000
0000
0000
0000
,
0000
0000
0000
0000
,
0100
1000
0000
0001
,
0100
0001
0000
1000
,
0100
1000
0000
0001
,
0100
0001
0000
1000
,
0200
0000
0010
0000
0300
1000
0100
0000
,
0010
0001
0000
0100
,
0002
0000
0010
0000
0003
0100
0001
0000
,
0010
0100
0000
1000
,
0020
0100
0030
1000
,
0010
0000
0010
0000
0100
0000
0100
0001
,
0100
0101
0010
1010
,
1000
1100
0001
0011
,
1000
0000
1000
0000
0000
0001
0100
0000
,
0001
0000
0001
1000
0010
0000
0010
0000
,
0100
0000
0110
0000
0000
0000
1000
0100
,
1000
0000
1000
0001
0010
0000
0010
0000
,
0100
0000
0110
0000
0000
0000
0001
1000
,
0000
1000
0001
0000
0110
0000
1000
0001
,
0100
0110
0001
1001
,
0011
0000
1100
0000
1000
0010
0100
0000
,
0101
0100
0010
0010
,
1000
1000
0001
0001
,
0010
0010
0100
0100
,
1000
0000
1000
0000
0001
0000
0001
1000
,
0001
0000
0100
0001
0100
0000
0010
1000
,
0010
0000
1000
0100
1000
0000
0001
0010
,
0001
0010
0100
1000
0001
0010
0100
1000
,
0001
0000
0000
0000
,
0000
0000
0000
0000
,
0000
0000
0000
0100
,
0010
0000
1000
0001
0010
0001
0100
0001
,
0010
0001
1000
0001
0010
0001
0200
0320
,
0430
0300
0001
0010
0100
0000
1000
0010
,
0200
0340
0030
2000
3200
0340
0030
1001
,
0000
0002
2003
3002
0203
0000
0000
0000
,
0310
1000
0010
1000
0010
0010
0000
0000
,
0200
0320
2030
3002
,
0013
0000
0000
0000
0001
0000
0010
0000
0000
0000
0001
0000
0010
0000
0000
0100
0000
0000
0100
0000
0000
0100
0000
0000
,
1000
0100
0100
0100
0001
0100
0100
0100
,
2000
3002
0403
0300
0010
0000
1000
0010
,
0100
0001
2000
3004
0003
0020
0230
2300
,
3040
0030
0100
0000
0101
0000
0010
0000
,
2020
0000
0000
3030
,
0001
0010
0100
0010
0001
1000
0001
0000
,
0100
0000
0100
0000
0100
0000
0110
0000
0000
0010
0000
0000
,
1000
0000
0001
0010
0100
0000
0010
0000
,
0001
0000
1000
0010
0100
0000
0010
0000
,
1000
0000
0001
0010
0100
0000
0010
0000
,
0001
0000
1000
0010
0100
0000
0010
0000
,
0100
0110
0100
0110
,
0100
0110
0100
0110
,
0100
1000
0100
0010
0100
0001
0100
0010
,
0100
0100
0100
0100
0100
0000
0000
0000
,
0001
0000
0001
0010
0000
0010
0200
0000
0000
2300
0000
0000
,
3010
0000
0000
0000
0000
0000
0000
0000
0000
0000
0000
0000
0000
0000
0000
0000
0000
0000
0000
0000
0000
0000
0000
0000
0000
0000
0000
0000
0000
0000
0000
0000
0100
0000
0000
0000
0000
0000
0000
0000
0000
0000
0000
0000
0000
0000
0000
0000
0000
0000
0000
0000
0000
0000
0000
0000
0000
0000
0000
0000
0000
0000
0000
0000
0010
0000
0000
0000
0000
0000
0000
0000
0000
0000
0000
0000
0000
0000
0000
0000
0000
0000
0000
0000
0000
0000
0000
0000
0000
0000
0000
0000
0000
0000
0000
0000
2000
0000
0000
3000
0000
0000
0000
0000
0000
0000
0000
0000
0000
0000
0000
0000
0000
0000
0000
0000
0000
0000
0000
0000
0000
0000
0000
0000
0000
0000
0000
0000
0000
0000
0000
0000
0000
0000
0000
0000
0000
0000
0000
0000
0000
0000
0000
0000
0000
0000
0000
0000
0000
0000
0000
0000
0000
0000
0000
0000
0000
0000
0000
0000
0000
0000
0000
0000
0000
0000
0000
0000
2000
0000
0000
3000
0000
0000
0000
0000
0000
0000
0000
0000
0000
0000
0000
0000
0000
0000
0000
0000
0000
0000
0000
0000
,
0200
0300
0000
0000
0000
0000
0000
0000
0000
0000
0000
0000
0000
0000
0000
0000
0000
0000
0000
0000
0000
0000
0000
0000
0200
0300
0000
0000
0000
0000
0000
0000
0040
0030
0000
0000
0000
0000
0000
0000
0000
0000
0000
0000
0000
0000
0000
0000
0001
0000
0000
0000
0000
0000
0000
0000
1000
0000
0000
0000
0000
0000
0000
0000
,
0002
0000
0003
2000
,
0000
0000
3000
0002
0000
0000
0000
0003
,
1000
0000
1000
0001
0000
0001
0200
0000
0000
0320
0000
0000
,
1030
0000
0000
0000
0000
0000
0000
0000
0000
0000
0000
0000
0000
0000
0000
0000
0000
0000
0000
0000
0000
0000
0000
0000
0000
0000
0000
0000
0000
0000
0000
0000
0001
0000
0000
0000
0000
0000
0000
0000
0000
0000
0000
0000
0000
0000
0000
0000
0000
0000
0000
0000
0000
0000
0000
0000
0000
0000
0000
0000
0000
0000
0000
0000
1000
0000
0000
0000
0000
0000
0000
0000
0000
0000
0000
0000
0000
0000
0000
0000
0000
0000
0000
0000
0000
0000
0000
0000
0000
0000
0000
0000
0000
0000
0000
0000
0002
0000
0000
0003
0000
0000
0000
0000
0000
0000
0000
0000
0000
0000
0000
0000
0000
0000
0000
0000
0000
0000
0000
0000
0000
0000
0000
0000
0000
0000
0000
0000
0000
0000
0000
0000
0000
0000
0000
0000
0000
0000
0000
0000
0000
0000
0000
0000
0000
0000
0000
0000
0000
0000
0000
0000
0000
0000
0000
0000
0000
0000
0000
0000
0000
0000
0000
0000
0000
0000
0000
0000
0002
0000
0000
0003
0000
0000
0000
0000
0000
0000
0000
0000
0000
0000
0000
0000
0000
0000
0000
0000
0000
0000
0000
0000
,
0200
0300
0000
0000
0000
0000
0000
0000
0000
0000
0000
0000
0000
0000
0000
0000
0000
0000
0000
0000
0000
0000
0000
0000
0200
0300
0000
0000
0000
0000
0000
0000
0040
0030
0000
0000
0000
0000
0000
0000
0000
0000
0000
0000
0000
0000
0000
0000
1000
0000
0000
0000
0000
0000
0000
0000
0001
0000
0000
0000
0000
0000
0000
0000
,
0101
1000
0100
0000
2200
0000
0000
0000
,
3300
0000
0000
0010
0000
0010
0100
0000
0100
2000
0000
0000
,
3020
0000
0000
0000
0000
0000
0000
0000
0000
0000
0000
0000
0000
0000
0000
0000
0000
0000
0000
0000
0000
0000
0000
0000
0000
0000
0000
0000
0000
0000
0000
0000
0000
0000
0000
0000
0000
0000
0000
0000
0000
0000
0000
0000
0000
0000
0000
0000
0130
0000
0000
0000
0000
0000
0000
0000
0000
0000
0000
0000
0000
0000
0000
0000
0000
0000
0000
0000
0000
0000
0000
0000
0000
0000
0000
0000
0000
0000
0000
0000
0001
0000
0000
0000
0000
0000
0000
0000
0000
0000
0000
0000
0000
0000
0000
0000
0000
0000
0000
0000
0000
0000
0000
0000
0000
0000
0000
0000
0000
0000
0000
0000
1000
0000
0000
0000
0000
0000
0000
0000
0000
0000
0000
0000
0000
0000
0000
0000
0000
0000
0000
0000
0000
0000
0000
0000
0000
0000
0000
0000
0000
0000
0000
0000
0200
0000
0000
0300
0000
0000
0000
0000
0000
0000
0000
0000
0000
0000
0000
0000
0000
0000
0000
0000
0000
0000
0000
0000
0000
0000
0000
0000
0000
0000
0000
0000
0000
0000
0000
0000
0000
0000
0000
0000
0000
0000
0000
0000
0000
0000
0000
0000
,
0000
0000
0000
0000
0000
0000
0000
0000
0200
0300
0000
0000
0000
0000
0000
0000
0020
0030
0000
0000
0000
0000
0000
0000
0000
0000
0000
0000
0000
0000
0000
0000
0000
0000
0000
0000
0000
0000
0000
0000
0020
0030
0000
0000
0000
0000
0000
0000
0004
0003
0000
0000
0000
0000
0000
0000
0000
0000
0000
0000
0001
0000
0000
0000
,
0100
0010
2000
0000
0000
0000
3000
0000
,
0001
0100
0020
0000
0000
0000
0030
0200
,
0000
0000
0000
0000
0000
0000
0000
0000
0000
0300
0000
0000
0002
0000
0000
0000
0000
0000
1003
0000
0000
0000
0100
0000
,
1000
0000
0100
0020
0000
0000
0031
0000
0100
0000
0001
0000
,
2000
3000
0000
0000
0000
0000
0000
0000
0000
0000
0000
0000
0000
0000
0000
0000
0000
0000
0000
0000
0000
0000
0000
0000
0200
0300
0000
0000
0000
0000
0000
0000
0020
0030
0000
0000
0000
0000
0000
0000
0000
0000
0000
0000
0000
0000
0000
0000
0000
0000
0000
0000
0000
0000
0000
0000
0200
0300
0000
0000
0000
0000
0000
0000
,
4000
3000
0000
0000
0000
0000
0000
0000
0000
0000
0000
0000
0001
0000
0000
0000
0100
0000
0000
0000
0000
0000
0000
0000
0100
0000
0000
0000
0000
0000
0000
0000
0100
0000
0000
0000
0000
0000
0000
0000
0000
0000
0000
0000
0000
0000
0000
0000
0000
0000
0000
0000
0000
0000
0000
0000
0000
0000
0000
0000
0000
0000
0000
0000
;

//---------------dance-single - ----------------
#NOTES:
     dance-single:
     :
     Medium:
     7:
     0.453,0.584,0.098,0.558,0.000:
0000
0000
0000
0000
,
0000
0000
0000
0000
,
0000
0000
0000
0000
,
0000
0000
0000
0000
,
0001
0001
0000
1000
,
0010
0010
0000
0100
,
0001
0001
0000
1000
,
0100
0100
0000
0010
,
0200
0000
0000
0000
0300
1000
0001
0000
,
0200
0300
0020
2030
,
3200
0000
0300
0000
0000
0010
0002
0000
,
2003
3000
0020
0230
,
0302
0003
0000
1000
,
0001
0000
0100
0010
0100
0000
0100
0001
,
0010
0010
0100
0100
,
1000
0000
1000
0000
0001
1000
0001
0000
,
0200
0000
0300
0000
0000
0000
0001
1000
,
0001
0010
0010
0100
,
0100
0000
0000
0000
0000
0000
1000
0001
,
1000
1000
0010
0010
,
0200
0000
0300
0000
0000
0000
0001
1000
,
0000
0000
0010
0100
0010
0000
1000
0000
,
0001
0001
0010
0010
,
0100
0100
1000
1000
,
0002
0103
0020
0130
,
2000
3100
0020
0130
,
0002
0103
0020
0130
,
2000
0000
3100
0000
0020
0000
0130
0001
,
0010
0000
0100
0000
1000
0000
0001
1000
,
0010
0000
1000
0000
0100
0000
0010
0100
,
1000
0000
0001
0100
0010
0000
1000
0100
,
0001
0000
0000
0000
,
0000
0000
0000
0000
,
0000
0000
0000
1000
,
0000
0000
0000
1000
0100
0010
0000
1000
,
0100
0010
0000
1000
0100
0010
0002
0000
,
0003
0001
0010
0100
1000
0100
0010
0001
,
0020
0000
0030
0200
0000
1300
0000
0000
,
0000
0002
1000
2003
0020
3000
0000
0000
,
0130
0000
0100
0000
0100
0010
0000
0000
,
1000
0100
1001
0100
,
0001
0000
0000
0000
0000
0001
0010
0100
,
0000
0001
0010
0100
0000
0001
0010
0100
,
2000
0001
3001
0001
0100
0010
1000
0010
,
0100
0001
0200
0000
0300
0020
1000
0130
,
0001
1000
1100
0001
,
0101
0000
0000
0000
,
1000
0001
1000
0001
1000
0001
1000
0001
,
0010
0100
0010
1001
,
0000
0000
0001
0100
1000
0000
0100
0000
,
0000
0000
0001
0100
1000
0000
0100
0000
,
0000
0000
0001
0100
1000
0000
0100
0000
,
0000
0000
0001
0100
1000
0000
0100
0000
,
0001
0101
1000
1100
,
0001
0101
1000
1100
,
0100
0100
0100
0100
,
0100
0000
0000
0000
,
0100
0010
0002
2003
,
3000
0000
0000
0000
0000
0000
0000
0000
0000
0000
0000
0000
0000
0000
0000
0000
0000
0000
0000
0000
0000
0000
0000
0000
0000
0000
0000
0000
0000
0000
0000
0000
0020
0030
0000
0000
0000
0000
0000
0000
0000
0000
0000
0000
0000
0000
0000
0000
0000
0000
0000
0000
0000
0000
0000
0000
0000
0000
0000
0000
0000
0000
0000
0000
,
0200
0300
0000
0000
0000
0000
0000
0000
0000
0000
0000
0000
0000
0000
0000
0000
0000
0000
0000
0000
0000
0000
0000
0000
0000
0000
0000
0000
0000
0000
0000
0000
0040
0030
0000
0000
0000
0000
0000
0000
0000
0000
0000
0000
0000
0000
0000
0000
1000
0000
0000
0000
0000
0000
0000
0000
0100
0000
0000
0000
0000
0000
0000
0000
,
2000
0000
3000
0002
,
0000
0000
0003
2000
0000
0000
0000
3000
,
0001
1000
0200
0320
,
0031
0000
0000
0000
0000
0000
0000
0000
0000
0000
0000
0000
0000
0000
0000
0000
0100
0000
0000
0000
0000
0000
0000
0000
0000
0000
0000
0000
0000
0000
0000
0000
0002
0003
0000
0000
0000
0000
0000
0000
0000
0000
0000
0000
0000
0000
0000
0000
0000
0000
0000
0000
0000
0000
0000
0000
0000
0000
0000
0000
0000
0000
0000
0000
,
2000
3000
0000
0000
0000
0000
0000
0000
0000
0000
0000
0000
0000
0000
0000
0000
0000
0000
0000
0000
0000
0000
0000
0000
0000
0000
0000
0000
0000
0000
0000
0000
0004
0003
0000
0000
0000
0000
0000
0000
0000
0000
0000
0000
0000
0000
0000
0000
1000
0000
0000
0000
0000
0000
0000
0000
0100
0000
0000
0000
0000
0000
0000
0000
,
0000
0110
2002
0000
,
3003
0001
0100
0020
,
2030
0000
0000
0000
0000
0000
0000
0000
0000
0000
0000
0000
0000
0000
0000
0000
3100
0000
0000
0000
0000
0000
0000
0000
0000
0000
0000
0000
0000
0000
0000
0000
1000
0000
0000
0000
0000
0000
0000
0000
0000
0000
0000
0000
0000
0000
0000
0000
0002
0003
0000
0000
0000
0000
0000
0000
0000
0000
0000
0000
0000
0000
0000
0000
,
0000
0000
0000
0000
0000
0000
0000
0000
0000
0000
0000
0000
0000
0000
0000
0000
0200
0300
0000
0000
0000
0000
0000
0000
0000
0000
0000
0000
0000
0000
0000
0000
0000
0000
0000
0000
0000
0000
0000
0000
0000
0000
0000
0000
0000
0000
0000
0000
0040
0030
0000
0000
0000
0000
0000
0000
0000
0000
0000
0000
0000
0000
0000
0000
,
1000
0100
0020
0000
0000
0000
0030
0000
,
0000
0000
0002
0000
0000
0000
0003
2000
,
0000
0000
0000
3000
0020
0000
0130
0000
,
0001
0020
0130
1000
,
0002
0003
0000
0000
0000
0000
0000
0000
0000
0000
0000
0000
0000
0000
0000
0000
0000
0000
0000
0000
0000
0000
0000
0000
0000
0000
0000
0000
0000
0000
0000
0000
0020
0030
0000
0000
0000
0000
0000
0000
0000
0000
0000
0000
0000
0000
0000
0000
0000
0000
0000
0000
0000
0000
0000
0000
0000
0000
0000
0000
0000
0000
0000
0000
,
0400
0300
0000
0000
0000
0000
0000
0000
0000
0000
0000
0000
0000
0000
0000
0000
1000
0000
0000
0000
0000
0000
0000
0000
0000
0000
0000
0000
0000
0000
0000
0000
0100
0000
0000
0000
0000
0000
0000
0000
0000
0000
0000
0000
0000
0000
0000
0000
0000
0000
0000
0000
0000
0000
0000
0000
0000
0000
0000
0000
0000
0000
0000
0000
;

//---------------dance-single - ----------------
#NOTES:
     dance-single:
     :
     Easy:
     5:
     0.269,0.474,0.029,0.362,0.000:
0000
0000
0000
0000
,
0000
0000
0000
0000
,
0000
0000
0000
0000
,
0000
0000
0000
0000
,
0001
0000
0000
0000
,
1000
0000
0000
0000
,
0100
0000
0000
0000
,
0010
0000
0001
0000
,
0200
0300
0000
0000
,
0010
0000
1000
0000
,
0002
0003
0000
0000
,
0010
0000
0100
0000
,
2000
3000
0000
0000
,
0010
0000
0100
0000
,
0001
0000
1000
0000
,
0100
0000
0010
0000
,
0100
0100
0000
0000
,
1000
0000
0001
0000
,
0200
0300
0000
0000
,
0001
0000
1000
0000
,
0020
0030
0000
0000
,
0100
0000
0001
0000
,
1000
1000
0100
0000
,
0010
0010
0001
0000
,
0100
0100
0001
0000
,
0010
0010
0100
0000
,
1000
1000
0001
0000
,
0001
0001
0100
0000
,
0010
0000
0100
0000
,
0001
0000
1000
0000
,
0100
0100
0010
0010
,
1001
0000
0000
0000
,
0000
0000
0000
0000
,
0000
0000
0000
0001
,
0000
0100
0000
0001
,
0000
1000
0000
0200
,
0310
0000
0100
0000
,
1000
0000
0000
0020
0000
0130
0000
0000
,
0000
0002
0000
2003
0000
3000
0000
0000
,
0001
1000
0001
0000
,
0100
0010
2002
3003
,
1000
0100
0010
0001
,
0100
0001
0010
0001
,
2000
3001
0000
0100
,
0010
0000
0220
0000
0330
2000
0000
3002
,
0000
0003
0010
0000
0010
0000
0100
0000
,
0100
0000
0000
0000
,
1000
0100
0010
0001
,
1000
0010
0100
0001
,
0010
0000
0100
1000
,
0100
0000
0010
0001
,
0010
0000
0100
1000
,
0100
0000
0010
0001
,
0010
0000
0010
0000
,
0100
0000
0100
0000
,
1000
0000
0001
0000
,
1000
0001
1000
0001
,
0100
0000
0002
0003
,
0001
0000
0000
0000
0000
0000
0000
0000
0000
0000
0000
0000
0000
0000
0000
0000
0000
0000
0000
0000
0000
0000
0000
0000
0000
0000
0000
0000
0000
0000
0000
0000
2000
3000
0000
0000
0000
0000
0000
0000
0000
0000
0000
0000
0000
0000
0000
0000
0000
0000
0000
0000
0000
0000
0000
0000
0000
0000
0000
0000
0000
0000
0000
0000
,
2000
3000
0000
0000
0000
0000
0000
0000
0000
0000
0000
0000
0000
0000
0000
0000
0000
0000
0000
0000
0000
0000
0000
0000
0000
0000
0000
0000
0000
0000
0000
0000
4000
3000
0000
0000
0000
0000
0000
0000
0000
0000
0000
0000
0000
0000
0000
0000
0000
0000
0000
0000
0000
0000
0000
0000
0000
0000
0000
0000
0000
0000
0000
0000
,
0002
0000
0000
2000
,
0000
0000
0000
3003
,
1000
0000
0200
0300
,
0100
0000
0000
0000
0000
0000
0000
0000
0000
0000
0000
0000
0000
0000
0000
0000
0000
0000
0000
0000
0000
0000
0000
0000
0000
0000
0000
0000
0000
0000
0000
0000
0020
0030
0000
0000
0000
0000
0000
0000
0000
0000
0000
0000
0000
0000
0000
0000
0000
0000
0000
0000
0000
0000
0000
0000
0000
0000
0000
0000
0000
0000
0000
0000
,
0020
0030
0000
0000
0000
0000
0000
0000
0000
0000
0000
0000
0000
0000
0000
0000
0000
0000
0000
0000
0000
0000
0000
0000
0000
0000
0000
0000
0000
0000
0000
0000
0040
0030
0000
0000
0000
0000
0000
0000
0000
0000
0000
0000
0000
0000
0000
0000
0000
0000
0000
0000
0000
0000
0000
0000
0000
0000
0000
0000
0000
0000
0000
0000
,
0000
0100
2000
0000
,
3000
0001
0000
0200
,
0300
0000
0000
0000
0000
0000
0000
0000
0000
0000
0000
0000
0000
0000
0000
0000
0100
0000
0000
0000
0000
0000
0000
0000
0000
0000
0000
0000
0000
0000
0000
0000
0000
0000
0000
0000
0000
0000
0000
0000
0000
0000
0000
0000
0000
0000
0000
0000
0002
0003
0000
0000
0000
0000
0000
0000
0000
0000
0000
0000
0000
0000
0000
0000
,
0000
0000
0000
0000
0000
0000
0000
0000
0000
0000
0000
0000
0000
0000
0000
0000
0002
0003
0000
0000
0000
0000
0000
0000
0000
0000
0000
0000
0000
0000
0000
0000
0000
0000
0000
0000
0000
0000
0000
0000
0000
0000
0000
0000
0000
0000
0000
0000
0004
0003
0000
0000
0000
0000
0000
0000
0000
0000
0000
0000
0000
0000
0000
0000
,
0000
2000
0000
0000
,
0000
0002
0000
0000
,
0000
0000
3003
0000
0020
0000
0030
0010
,
0000
0000
0200
0000
0300
0100
0000
0000
,
0002
0000
0000
0000
,
2000
0000
3003
0000
;

//---------------dance-single - ----------------
#NOTES:
     dance-single:
     :
     Beginner:
     3:
     0.109,0.254,0.000,0.010,0.000: // measure 1
0000
0000
0000
0000
,  // measure 2
0000
0000
0000
0000
,  // measure 3
0000
0000
0000
0000
,  // measure 4
0000
0000
0000
0000
,  // measure 5
0000
0000
0000
0000
,  // measure 6
0000
0000
0000
0000
,  // measure 7
0000
0000
0000
0000
,  // measure 8
0000
0000
0000
0000
,  // measure 9
1000
0000
0000
0000
,  // measure 10
0000
0000
0000
0000
,  // measure 11
0001
0000
0000
0000
,  // measure 12
0000
0000
0000
0000
,  // measure 13
1000
0000
0000
0000
,  // measure 14
0001
0000
0000
0000
,  // measure 15
0100
0000
0000
0000
,  // measure 16
0100
0000
0100
0000
,  // measure 17
0100
0000
0000
0000
,  // measure 18
0000
0000
0000
0000
,  // measure 19
0010
0000
0000
0000
,  // measure 20
0000
0000
0000
0000
,  // measure 21
0020
0030
0000
0000
,  // measure 22
0000
0000
0000
0000
,  // measure 23
0001
0000
0001
0000
,  // measure 24
1000
0000
1000
0000
,  // measure 25
0010
0010
0000
0000
,  // measure 26
0000
0000
0000
0000
,  // measure 27
0100
0100
0000
0000
,  // measure 28
0000
0000
0000
0000
,  // measure 29
0001
0000
0000
0000
,  // measure 30
1000
0000
0000
0000
,  // measure 31
0100
0000
0010
0000
,  // measure 32
0100
0000
0000
0000
,  // measure 33
0000
0000
0000
0000
,  // measure 34
0000
0000
0000
0000
,  // measure 35
0000
0000
0000
0000
,  // measure 36
0000
0000
0000
0001
,  // measure 37
0000
0000
0000
0000
,  // measure 38
0000
0000
0000
1000
0000
0000
0000
0000
,  // measure 39
0000
0000
0000
0000
,  // measure 40
0100
0000
0000
0000
,  // measure 41
0000
0000
0000
0000
,  // measure 42
0001
0000
0000
0000
,  // measure 43
1000
0000
1000
0000
,  // measure 44
1000
0000
0000
0001
,  // measure 45
0000
0000
0001
0000
0000
0001
0000
0000
,  // measure 46
0000
0100
0100
0100
,  // measure 47
0000
0000
0000
0000
,  // measure 48
0010
0010
0010
0000
,  // measure 49
0010
0000
0000
0000
,  // measure 50
1000
0000
0100
0000
,  // measure 51
0001
0000
0100
0000
,  // measure 52
1000
0000
0100
0000
,  // measure 53
0001
0000
0100
0000
,  // measure 54
1000
0000
1000
0000
,  // measure 55
0001
0000
0001
0000
,  // measure 56
1000
0100
0001
0100
,  // measure 57
1000
0000
0000
0000
,  // measure 58
0100
0000
0010
0000
,  // measure 59
0001
0000
1000
0000
,  // measure 60
0000
0000
0000
0000
,  // measure 61
0010
0000
0000
0000
,  // measure 62
0000
0000
0000
0000
,  // measure 63
1000
0000
0001
0000
,  // measure 64
0100
0000
0010
0000
,  // measure 65
0000
0000
0000
0000
,  // measure 66
0000
0000
0000
0000
,  // measure 67
0000
1000
0000
0100
,  // measure 68
0000
0010
0000
0001
,  // measure 69
0000
0000
0000
0000
,  // measure 70
0000
0010
0000
0000
,  // measure 71
0000
0000
0100
0000
0000
0000
0000
0100
,  // measure 72
0000
0000
1000
0000
,  // measure 73
0000
0001
0000
0000
,  // measure 74
0100
0000
0000
0000
,  // measure 75
0000
0010
0000
0000
;
